查看: 606|回复: 0

[韩剧] [2023][韩国][科幻]超异能族/Moving/Moving超异能族/前往/异能 第一季[全20集].Moving.S01.2023.Senior.Year.1080p.DSNP.WEB-DL.DDP5.1.Atmos.H.264-TAG 41.73GB

[复制链接]
蓝光币
256104 枚
发表于 2023-10-17 10:53:45 | 显示全部楼层 |阅读模式

◎译   名  超异能族 / Moving / Moving超异能族 / 前往 / 异能
◎片   名  무빙
◎年   代  2023
◎产   地  韩国
◎类   别  剧情 / 科幻 / 悬疑 / 奇异
◎语   言  韩语
◎上映 日期  2023-08-09(韩国)
◎IMDb评分  8.5/10 from 1,824 users
◎IMDb链接  https://www.imdb.com/title/tt24640580/
◎豆瓣 评分  8.8/10 from 30866 users
◎豆瓣 链接  https://movie.douban.com/subject/35206436/
◎集   数  20
◎片   长  60分钟
◎导   演  朴仁载 In-je Park / 毛完日 Mo Wan Il
◎编   剧  姜草 Full Kang
◎主   演  柳承龙 Seung-ryong Ryu
         韩孝周 Hyo-joo Han
         赵寅成 Zo Insung
         车太贤 Tae-hyun Cha
         柳昇范 Seung-beom Ryu
         金成畇 Sung-Kyun Kim
         金熙元 Hae-won Kim
         文成根 Seung Geun Moon
         李正夏 Jung-ha Lee
         高允贞 Go Yoon-Jung
         金道勋 Do-hoon  Kim
         朴熹洵 Hee soon Park
         杨东根 Dong-kun Yang
         朴炳垠 Byung-eun Park
         郭善英 Sun-young Kwak
         金新绿 Shin-rok Kim
         朴宝庆 Park Bo Kyung

◎简  介

  该剧改编自姜草的同名漫画,报告隐藏超才能生活于现在的孩子们,与隐藏曩昔疾苦的奥秘的怙恃们配合面临跨越世代的庞大危险的超才能行动豪杰故事。

  1. General
  2. Unique ID : 199267588147316773619170983028014354323 (0x95E98A9F793DED0878B6963C63568F93)
  3. Complete name : Moving.S01E01.Senior.Year.1080p.DSNP.WEB-DL.DDP5.1.Atmos.H.264-APEX.mkv
  4. Format : Matroska
  5. Format version : Version 4
  6. File size : 1.86 GiB
  7. Duration : 40 min 50 s
  8. Overall bit rate mode : Variable
  9. Overall bit rate : 6 537 kb/s
  10. Writing application : mkvmerge v78.0 ('Running') 64-bit
  11. Writing library : libebml v1.4.4 + libmatroska v1.7.1

  12. Video
  13. ID : 1
  14. Format : AVC
  15. Format/Info : Advanced Video Codec
  16. Format profile : High@L4
  17. Format settings : CABAC / 4 Ref Frames
  18. Format settings, CABAC : Yes
  19. Format settings, Reference frames : 4 frames
  20. Codec ID : V_MPEG4/ISO/AVC
  21. Duration : 40 min 50 s
  22. Bit rate mode : Variable
  23. Bit rate : 5 764 kb/s
  24. Maximum bit rate : 12.7 Mb/s
  25. Width : 1 920 pixels
  26. Height : 1 080 pixels
  27. Display aspect ratio : 16:9
  28. Frame rate mode : Constant
  29. Frame rate : 23.976 (24000/1001) FPS
  30. Color space : YUV
  31. Chroma subsampling : 4:2:0
  32. Bit depth : 8 bits
  33. Scan type : Progressive
  34. Bits/(Pixel*Frame) : 0.116
  35. Stream size : 1.64 GiB (88%)
  36. Default : Yes
  37. Forced : No
  38. Color range : Limited
  39. Color primaries : BT.709
  40. Transfer characteristics : BT.709
  41. Matrix coefficients : BT.709

  42. Audio
  43. ID : 2
  44. Format : E-AC-3 JOC
  45. Format/Info : Enhanced AC-3 with Joint Object Coding
  46. Commercial name : Dolby Digital Plus with Dolby Atmos
  47. Codec ID : A_EAC3
  48. Duration : 40 min 50 s
  49. Bit rate mode : Constant
  50. Bit rate : 768 kb/s
  51. Channel(s) : 6 channels
  52. Channel layout : L R C LFE Ls Rs
  53. Sampling rate : 48.0 kHz
  54. Frame rate : 31.250 FPS (1536 SPF)
  55. Compression mode : Lossy
  56. Stream size : 224 MiB (12%)
  57. Language : Korean
  58. Service kind : Complete Main
  59. Default : Yes
  60. Forced : No
  61. Complexity index : 16
  62. Number of dynamic objects : 15
  63. Bed channel count : 1 channel
  64. Bed channel configuration : LFE

  65. Text #1
  66. ID : 3
  67. Format : UTF-8
  68. Codec ID : S_TEXT/UTF8
  69. Codec ID/Info : UTF-8 Plain Text
  70. Duration : 40 min 26 s
  71. Bit rate : 46 b/s
  72. Count of elements : 503
  73. Stream size : 13.7 KiB (0%)
  74. Language : Korean
  75. Default : No
  76. Forced : No

  77. Text #2
  78. ID : 4
  79. Format : UTF-8
  80. Codec ID : S_TEXT/UTF8
  81. Codec ID/Info : UTF-8 Plain Text
  82. Duration : 40 min 38 s
  83. Bit rate : 75 b/s
  84. Count of elements : 721
  85. Stream size : 22.3 KiB (0%)
  86. Title : SDH
  87. Language : Korean
  88. Default : No
  89. Forced : No

  90. Text #3
  91. ID : 5
  92. Format : UTF-8
  93. Codec ID : S_TEXT/UTF8
  94. Codec ID/Info : UTF-8 Plain Text
  95. Duration : 39 min 50 s
  96. Bit rate : 50 b/s
  97. Count of elements : 506
  98. Stream size : 14.7 KiB (0%)
  99. Language : English
  100. Default : No
  101. Forced : No

  102. Text #4
  103. ID : 6
  104. Format : UTF-8
  105. Codec ID : S_TEXT/UTF8
  106. Codec ID/Info : UTF-8 Plain Text
  107. Duration : 39 min 57 s
  108. Bit rate : 58 b/s
  109. Count of elements : 609
  110. Stream size : 17.2 KiB (0%)
  111. Title : SDH
  112. Language : English
  113. Default : No
  114. Forced : No

  115. Text #5
  116. ID : 7
  117. Format : UTF-8
  118. Codec ID : S_TEXT/UTF8
  119. Codec ID/Info : UTF-8 Plain Text
  120. Duration : 40 min 47 s
  121. Bit rate : 47 b/s
  122. Count of elements : 498
  123. Stream size : 14.1 KiB (0%)
  124. Language : Czech
  125. Default : No
  126. Forced : No

  127. Text #6
  128. ID : 8
  129. Format : UTF-8
  130. Codec ID : S_TEXT/UTF8
  131. Codec ID/Info : UTF-8 Plain Text
  132. Duration : 40 min 47 s
  133. Bit rate : 49 b/s
  134. Count of elements : 501
  135. Stream size : 14.8 KiB (0%)
  136. Language : Danish
  137. Default : No
  138. Forced : No

  139. Text #7
  140. ID : 9
  141. Format : UTF-8
  142. Codec ID : S_TEXT/UTF8
  143. Codec ID/Info : UTF-8 Plain Text
  144. Duration : 40 min 47 s
  145. Bit rate : 46 b/s
  146. Count of elements : 496
  147. Stream size : 13.9 KiB (0%)
  148. Language : German
  149. Default : No
  150. Forced : No

  151. Text #8
  152. ID : 10
  153. Format : UTF-8
  154. Codec ID : S_TEXT/UTF8
  155. Codec ID/Info : UTF-8 Plain Text
  156. Duration : 40 min 47 s
  157. Bit rate : 83 b/s
  158. Count of elements : 500
  159. Stream size : 24.8 KiB (0%)
  160. Language : Greek
  161. Default : No
  162. Forced : No

  163. Text #9
  164. ID : 11
  165. Format : UTF-8
  166. Codec ID : S_TEXT/UTF8
  167. Codec ID/Info : UTF-8 Plain Text
  168. Duration : 40 min 47 s
  169. Bit rate : 50 b/s
  170. Count of elements : 494
  171. Stream size : 15.0 KiB (0%)
  172. Title : Latin American
  173. Language : Spanish
  174. Default : No
  175. Forced : No

  176. Text #10
  177. ID : 12
  178. Format : UTF-8
  179. Codec ID : S_TEXT/UTF8
  180. Codec ID/Info : UTF-8 Plain Text
  181. Duration : 40 min 47 s
  182. Bit rate : 46 b/s
  183. Count of elements : 498
  184. Stream size : 13.8 KiB (0%)
  185. Language : Spanish
  186. Default : No
  187. Forced : No

  188. Text #11
  189. ID : 13
  190. Format : UTF-8
  191. Codec ID : S_TEXT/UTF8
  192. Codec ID/Info : UTF-8 Plain Text
  193. Duration : 40 min 47 s
  194. Bit rate : 48 b/s
  195. Count of elements : 498
  196. Stream size : 14.4 KiB (0%)
  197. Language : Finnish
  198. Default : No
  199. Forced : No

  200. Text #12
  201. ID : 14
  202. Format : UTF-8
  203. Codec ID : S_TEXT/UTF8
  204. Codec ID/Info : UTF-8 Plain Text
  205. Duration : 40 min 47 s
  206. Bit rate : 51 b/s
  207. Count of elements : 486
  208. Stream size : 15.2 KiB (0%)
  209. Language : French
  210. Default : No
  211. Forced : No

  212. Text #13
  213. ID : 15
  214. Format : UTF-8
  215. Codec ID : S_TEXT/UTF8
  216. Codec ID/Info : UTF-8 Plain Text
  217. Duration : 40 min 47 s
  218. Bit rate : 48 b/s
  219. Count of elements : 498
  220. Stream size : 14.4 KiB (0%)
  221. Language : Hungarian
  222. Default : No
  223. Forced : No

  224. Text #14
  225. ID : 16
  226. Format : UTF-8
  227. Codec ID : S_TEXT/UTF8
  228. Codec ID/Info : UTF-8 Plain Text
  229. Duration : 40 min 47 s
  230. Bit rate : 46 b/s
  231. Count of elements : 498
  232. Stream size : 13.9 KiB (0%)
  233. Language : Italian
  234. Default : No
  235. Forced : No

  236. Text #15
  237. ID : 17
  238. Format : UTF-8
  239. Codec ID : S_TEXT/UTF8
  240. Codec ID/Info : UTF-8 Plain Text
  241. Duration : 40 min 47 s
  242. Bit rate : 40 b/s
  243. Count of elements : 492
  244. Stream size : 12.1 KiB (0%)
  245. Language : Japanese
  246. Default : No
  247. Forced : No

  248. Text #16
  249. ID : 18
  250. Format : UTF-8
  251. Codec ID : S_TEXT/UTF8
  252. Codec ID/Info : UTF-8 Plain Text
  253. Duration : 40 min 47 s
  254. Bit rate : 44 b/s
  255. Count of elements : 498
  256. Stream size : 13.2 KiB (0%)
  257. Language : Dutch
  258. Default : No
  259. Forced : No

  260. Text #17
  261. ID : 19
  262. Format : UTF-8
  263. Codec ID : S_TEXT/UTF8
  264. Codec ID/Info : UTF-8 Plain Text
  265. Duration : 40 min 47 s
  266. Bit rate : 46 b/s
  267. Count of elements : 498
  268. Stream size : 13.9 KiB (0%)
  269. Language : Norwegian
  270. Default : No
  271. Forced : No

  272. Text #18
  273. ID : 20
  274. Format : UTF-8
  275. Codec ID : S_TEXT/UTF8
  276. Codec ID/Info : UTF-8 Plain Text
  277. Duration : 40 min 47 s
  278. Bit rate : 45 b/s
  279. Count of elements : 496
  280. Stream size : 13.6 KiB (0%)
  281. Language : Polish
  282. Default : No
  283. Forced : No

  284. Text #19
  285. ID : 21
  286. Format : UTF-8
  287. Codec ID : S_TEXT/UTF8
  288. Codec ID/Info : UTF-8 Plain Text
  289. Duration : 40 min 47 s
  290. Bit rate : 45 b/s
  291. Count of elements : 480
  292. Stream size : 13.7 KiB (0%)
  293. Title : Brazilian
  294. Language : Portuguese
  295. Default : No
  296. Forced : No

  297. Text #20
  298. ID : 22
  299. Format : UTF-8
  300. Codec ID : S_TEXT/UTF8
  301. Codec ID/Info : UTF-8 Plain Text
  302. Duration : 40 min 47 s
  303. Bit rate : 48 b/s
  304. Count of elements : 499
  305. Stream size : 14.4 KiB (0%)
  306. Language : Portuguese
  307. Default : No
  308. Forced : No

  309. Text #21
  310. ID : 23
  311. Format : UTF-8
  312. Codec ID : S_TEXT/UTF8
  313. Codec ID/Info : UTF-8 Plain Text
  314. Duration : 40 min 47 s
  315. Bit rate : 50 b/s
  316. Count of elements : 500
  317. Stream size : 15.1 KiB (0%)
  318. Language : Romanian
  319. Default : No
  320. Forced : No

  321. Text #22
  322. ID : 24
  323. Format : UTF-8
  324. Codec ID : S_TEXT/UTF8
  325. Codec ID/Info : UTF-8 Plain Text
  326. Duration : 40 min 47 s
  327. Bit rate : 52 b/s
  328. Count of elements : 498
  329. Stream size : 15.6 KiB (0%)
  330. Language : Slovak
  331. Default : No
  332. Forced : No

  333. Text #23
  334. ID : 25
  335. Format : UTF-8
  336. Codec ID : S_TEXT/UTF8
  337. Codec ID/Info : UTF-8 Plain Text
  338. Duration : 40 min 47 s
  339. Bit rate : 46 b/s
  340. Count of elements : 498
  341. Stream size : 14.0 KiB (0%)
  342. Language : Swedish
  343. Default : No
  344. Forced : No

  345. Text #24
  346. ID : 26
  347. Format : UTF-8
  348. Codec ID : S_TEXT/UTF8
  349. Codec ID/Info : UTF-8 Plain Text
  350. Duration : 40 min 47 s
  351. Bit rate : 50 b/s
  352. Count of elements : 500
  353. Stream size : 15.2 KiB (0%)
  354. Language : Turkish
  355. Default : No
  356. Forced : No

  357. Text #25
  358. ID : 27
  359. Format : UTF-8
  360. Codec ID : S_TEXT/UTF8
  361. Codec ID/Info : UTF-8 Plain Text
  362. Duration : 40 min 47 s
  363. Bit rate : 42 b/s
  364. Count of elements : 506
  365. Stream size : 12.6 KiB (0%)
  366. Title : Traditional
  367. Language : Chinese
  368. Default : No
  369. Forced : No

  370. Menu
  371. 00:05:11.520 : en:Scene 1
  372. 00:13:23.887 : en:Scene 2
  373. 00:21:31.708 : en:Scene 3
  374. 00:35:15.365 : en:Scene 4
  375. 00:39:56.104 : en:Credits
复制代码
[2023][韩国][科幻]超异能族/Moving/Moving超异能族/前往/异能 第一季[全20集].Moving.S01.2023.Senior.Year.1080p.DSNP.WEB-DL.DDP5.1.Atmos.H.264-TAG 41.73GB-2.png
[2023][韩国][科幻]超异能族/Moving/Moving超异能族/前往/异能 第一季[全20集].Moving.S01.2023.Senior.Year.1080p.DSNP.WEB-DL.DDP5.1.Atmos.H.264-TAG 41.73GB-3.png
[2023][韩国][科幻]超异能族/Moving/Moving超异能族/前往/异能 第一季[全20集].Moving.S01.2023.Senior.Year.1080p.DSNP.WEB-DL.DDP5.1.Atmos.H.264-TAG 41.73GB-4.png








本帖隐藏的下载地址需要VIP会员才可阅读,您需要升级才可阅读,点击这里升级VIP


回复

使用道具 举报

懒得打字嘛,点击右侧快捷回复 【右侧内容,后台自定义】
您需要登录后才可以回帖 登录 | 立即注册

本版积分规则

Archiver|手机版|小黑屋| 中国高清网  |网站地图

GMT+8, 2024-7-13 22:02 , Processed in 0.423870 second(s), 29 queries .

Powered by HDchina X3.4

Copyright 2017-2019©HDchina.All right reserved

返回顶部 联系我们