查看: 1832|回复: 0

[喜剧片] 芭比/芭比娃娃/芭比真人版[外挂中字].Barbie.2023.1080p.WEB-DL.H.264.DD5.1-TAG 8.15GB

[复制链接]
蓝光币
255069 枚
发表于 2023-9-4 15:55:19 | 显示全部楼层 |阅读模式


◎译  名 芭比 / 芭比娃娃 / 芭比真人版 / 芭比娃娃真人版
◎片  名 Barbie
◎年  代 2023
◎产  地 加拿大 / 美国
◎类  别 笑剧 / 奇异 / 冒险
◎语  言 英语
◎上映日期 2023-07-09(洛杉矶首映) / 2023-07-21(美国/中国大陆)
◎IMDb评分  7.3/10 from 270,554 users
◎IMDb链接  https://www.imdb.com/title/tt1517268/
◎豆瓣评分 8.3/10 from 493,181 users
◎豆瓣链接 https://movie.douban.com/subject/4058939/
◎片  长 114分钟
◎导  演 格蕾塔·葛韦格 / Greta Gerwig
◎演  员 玛格特·罗比 / Margot Robbie (饰 芭比 Barbie)
      瑞恩·高斯林 / Ryan Gosling (饰 肯 Ken)
      亚美莉卡·费雷拉 / America Ferrera (饰 葛洛莉亚 Gloria)
      阿丽亚娜·格林布拉特 / Ariana Greenblatt (饰 萨莎 Sasha)
      凯特·麦克金农 / Kate McKinnon (饰 怪人芭比 Barbie)
      海伦·米伦 / Helen Mirren (配 旁白 The Narrator‎)
      威尔·法瑞尔 / Will Ferrell (饰 美泰公司CEO Mattel CEO)
      伊萨·雷 / Issa Rae (饰 总统芭比 Barbie)
      哈莉·尼夫 / Hari Nef (饰 医生芭比 Barbie)
      艾玛·麦基 / Emma Mackey (饰 诺贝尔物理学奖得主芭比 Barbie)
      亚历山德拉·希普 / Alexandra Shipp (饰 作家芭比 Barbie)
      莎朗·鲁妮 / Sharon Rooney (饰 律师芭比 Barbie)
      妮可拉·考夫兰 / Nicola Coughlan (饰 交际官芭比 Barbie)
      迈克尔·塞拉 / Michael Cera (饰 艾伦 Allan)
      康纳·斯温德尔 / Connor Swindells (饰 阿龙·丁金斯 Aaron Dinkins)
      舒提·盖特瓦 / Ncuti Gatwa (饰 肯 Ken)
      刘思慕 / Simu Liu (饰 肯 Ken)
      金斯利·本-阿迪尔 / Kingsley Ben-Adir (饰 肯 Ken)
      斯科特·埃文斯 / Scott Evans (饰 肯 Ken)
      杜阿·利帕 / Dua Lipa (饰 美人鱼芭比 Barbie)
      约翰·塞纳 / John Cena (饰 美男鱼肯 Ken)
      雷亚·普尔曼 / Rhea Perlman (饰 露丝·汉德勒 Ruth Handler)
      里图·阿亚 / Ritu Arya (饰 普利策奖得主芭比 Barbie)
      安娜·科鲁兹·凯恩 / Ana Cruz Kayne  (饰 法官芭比 Barbie)
      埃默拉尔德·芬内尔 / Emerald Fennell (饰 米琪 Midge)
      詹米·德米特鲁 / Jamie Demetriou (饰 美泰公司高管 Mattel Executive)
      安·罗斯 / Ann Roth
      玛瑞萨·阿贝拉 / Marisa Abela
      妮基塔·查达哈 / Nikkita Chadha
      安妮·玛莫罗 / Annie Mumolo
      麦肯纳·罗伯茨 / McKenna Roberts (饰 Popular Girl #1)
      汉娜·卡利克-布朗 / Hannah Khalique-Brown
      斯特林·琼斯 / Sterling Jones
      黛布·海特 / Deb Hiett (饰 Female Doctor)
      杰西卡·A·凯撒 / Jessica A. Caesar
      卢克· / 穆伦 Luke Mullen
      杰拉德琳·切瓦蕾 / Géraldine Chevalley
      拉姆赞·米亚 / Ramzan Miah
      贾斯汀·皮尔斯 / Justin Price (饰 Business Man)
      凯莉·里安·桑松 / Kelly Rian Sanson
      埃文·沙夫兰 / Evan Shafran
      维尔·梅里克 / Will Merrick
      亚当·雷 / Adam Ray
      格蕾丝·贾巴里 / Grace Jabbari (饰 Dancer)
◎编  剧 格蕾塔·葛韦格 / Greta Gerwig
      诺亚·鲍姆巴赫 / Noah Baumbach
      奥利维亚·米尔奇 / Olivia Milch
◎制  片  人 汤姆·阿克雷 / Tom Ackerley
      罗比·布伦纳 / Robbie Brenner
      大卫·海曼 / David Heyman
      劳里·麦克唐纳 / Laurie MacDonald
      乔西·麦克纳马拉 / Josey McNamara
      沃尔特·F·帕克斯 / Walter F. Parkes
      艾米·帕斯卡尔 / Amy Pascal
      玛格特·罗比 / Margot Robbie
◎音  乐 马克·容森 / Mark Ronson
      安德鲁·怀亚特 / Andrew Wyatt
◎摄  影 罗德里戈·普列托 / Rodrigo Prieto
◎剪  辑 尼克·霍 / Nick Houy
◎选  角 露西·贝文 / Lucy Bevan
      艾莉森·琼斯 / Allison Jones
◎美  术 安德鲁·马克斯·卡恩 / Andrew Max Cahn
      迪恩·克莱格 / Dean Clegg
◎服  装 杰奎琳·杜兰 / Jacqueline Durran

◎简  介 

  在芭比乐园里,各类百般的芭比和肯天天都过着童话般100%完善的生活。可是某一天,芭比(玛格特·罗比 Margot Robbie 饰)发现自己的生活起头有了变化——比如她的一天不再风平浪静,她起头思考灭亡的意义,甚至她的双脚也不再是完善的高跟鞋形——她居然脚掌落地了!接连出现的不完善打破了芭比乐园的安静,意想到存在感危机的芭比被迫前往实在天下探访真相,肯(瑞恩·高斯林 Ryan Gosling 饰)也一路同业,一场大冒险就此开启。

  1. General
  2. Complete name                            : Barbie.2023.NORDiCSUBS.1080p.WEB-DL.DD5.1.H.264-TAG.mkv
  3. Format                                   : Matroska
  4. Format version                           : Version 4
  5. File size                                : 8.15 GiB
  6. Duration                                 : 1 h 54 min
  7. Overall bit rate mode                    : Variable
  8. Overall bit rate                         : 10.2 Mb/s
  9. Encoded date                             : UTC 2023-09-02 20:59:11
  10. Writing application                      : mkvmerge v69.0.0 ('Day And Age') 64-bit
  11. Writing library                          : libebml v1.4.2 + libmatroska v1.6.4
  12. Cover                                    : Yes
  13. Attachments                              : Cover.jpg

  14. Video
  15. ID                                       : 1
  16. Format                                   : AVC
  17. Format/Info                              : Advanced Video Codec
  18. Format profile                           : Main@L4
  19. Format settings                          : CABAC / 2 Ref Frames
  20. Format settings, CABAC                   : Yes
  21. Format settings, Reference frames        : 2 frames
  22. Codec ID                                 : V_MPEG4/ISO/AVC
  23. Duration                                 : 1 h 54 min
  24. Bit rate mode                            : Variable
  25. Bit rate                                 : 9 727 kb/s
  26. Maximum bit rate                         : 16.0 Mb/s
  27. Width                                    : 1 920 pixels
  28. Height                                   : 960 pixels
  29. Display aspect ratio                     : 2.000
  30. Frame rate mode                          : Constant
  31. Frame rate                               : 23.976 (24000/1001) FPS
  32. Color space                              : YUV
  33. Chroma subsampling                       : 4:2:0
  34. Bit depth                                : 8 bits
  35. Scan type                                : Progressive
  36. Bits/(Pixel*Frame)                       : 0.220
  37. Stream size                              : 7.75 GiB (95%)
  38. Default                                  : Yes
  39. Forced                                   : No
  40. Color range                              : Limited
  41. Color primaries                          : BT.709
  42. Transfer characteristics                 : BT.709
  43. Matrix coefficients                      : BT.709

  44. Audio
  45. ID                                       : 2
  46. Format                                   : AC-3
  47. Format/Info                              : Audio Coding 3
  48. Commercial name                          : Dolby Digital
  49. Codec ID                                 : A_AC3
  50. Duration                                 : 1 h 54 min
  51. Bit rate mode                            : Constant
  52. Bit rate                                 : 384 kb/s
  53. Channel(s)                               : 6 channels
  54. Channel layout                           : L R C LFE Ls Rs
  55. Sampling rate                            : 48.0 kHz
  56. Frame rate                               : 31.250 FPS (1536 SPF)
  57. Compression mode                         : Lossy
  58. Stream size                              : 313 MiB (4%)
  59. Language                                 : English
  60. Service kind                             : Complete Main
  61. Default                                  : Yes
  62. Forced                                   : No

  63. Text #1
  64. ID                                       : 3
  65. Format                                   : PGS
  66. Muxing mode                              : zlib
  67. Codec ID                                 : S_HDMV/PGS
  68. Codec ID/Info                            : Picture based subtitle format used on BDs/HD-DVDs
  69. Duration                                 : 1 h 46 min
  70. Bit rate                                 : 42.3 kb/s
  71. Frame rate                               : 0.389 FPS
  72. Count of elements                        : 2480
  73. Stream size                              : 32.1 MiB (0%)
  74. Language                                 : Danish
  75. Default                                  : Yes
  76. Forced                                   : No

  77. Text #2
  78. ID                                       : 4
  79. Format                                   : PGS
  80. Muxing mode                              : zlib
  81. Codec ID                                 : S_HDMV/PGS
  82. Codec ID/Info                            : Picture based subtitle format used on BDs/HD-DVDs
  83. Duration                                 : 1 h 46 min
  84. Bit rate                                 : 45.2 kb/s
  85. Frame rate                               : 0.446 FPS
  86. Count of elements                        : 2844
  87. Stream size                              : 34.3 MiB (0%)
  88. Language                                 : Swedish
  89. Default                                  : Yes
  90. Forced                                   : No

  91. Text #3
  92. ID                                       : 5
  93. Format                                   : PGS
  94. Muxing mode                              : zlib
  95. Codec ID                                 : S_HDMV/PGS
  96. Codec ID/Info                            : Picture based subtitle format used on BDs/HD-DVDs
  97. Duration                                 : 1 h 46 min
  98. Bit rate                                 : 45.1 kb/s
  99. Frame rate                               : 0.466 FPS
  100. Count of elements                        : 2968
  101. Stream size                              : 34.2 MiB (0%)
  102. Language                                 : Norwegian
  103. Default                                  : Yes
  104. Forced                                   : No

  105. Text #4
  106. ID                                       : 6
  107. Format                                   : PGS
  108. Muxing mode                              : zlib
  109. Codec ID                                 : S_HDMV/PGS
  110. Codec ID/Info                            : Picture based subtitle format used on BDs/HD-DVDs
  111. Duration                                 : 1 h 47 min
  112. Bit rate                                 : 48.5 kb/s
  113. Frame rate                               : 0.592 FPS
  114. Count of elements                        : 3834
  115. Stream size                              : 37.4 MiB (0%)
  116. Language                                 : Finnish
  117. Default                                  : Yes
  118. Forced                                   : No

  119. Text #5
  120. ID                                       : 7
  121. Format                                   : PGS
  122. Muxing mode                              : zlib
  123. Codec ID                                 : S_HDMV/PGS
  124. Codec ID/Info                            : Picture based subtitle format used on BDs/HD-DVDs
  125. Duration                                 : 1 h 48 min
  126. Bit rate                                 : 57.5 kb/s
  127. Frame rate                               : 0.695 FPS
  128. Count of elements                        : 4520
  129. Stream size                              : 44.6 MiB (1%)
  130. Title                                    : English (SDH)
  131. Language                                 : English
  132. Default                                  : Yes
  133. Forced                                   : No
复制代码
芭比/芭比娃娃/芭比真人版[外挂中字].Barbie.2023.1080p.WEB-DL.H.264.DD5.1-TAG 8.15GB-2.png 芭比/芭比娃娃/芭比真人版[外挂中字].Barbie.2023.1080p.WEB-DL.H.264.DD5.1-TAG 8.15GB-3.png 芭比/芭比娃娃/芭比真人版[外挂中字].Barbie.2023.1080p.WEB-DL.H.264.DD5.1-TAG 8.15GB-4.png 芭比/芭比娃娃/芭比真人版[外挂中字].Barbie.2023.1080p.WEB-DL.H.264.DD5.1-TAG 8.15GB-5.png 芭比/芭比娃娃/芭比真人版[外挂中字].Barbie.2023.1080p.WEB-DL.H.264.DD5.1-TAG 8.15GB-6.png 芭比/芭比娃娃/芭比真人版[外挂中字].Barbie.2023.1080p.WEB-DL.H.264.DD5.1-TAG 8.15GB-7.png














芭比[外挂中字].Barbie.2023.1080p.WEB-DL.H.264.DD5.1-TAG.torrent (21.38 KB, 下载次数: 74, 售价: 2 枚蓝光币)


芭比 Barbie (2023) WEBDL-1080p 8bit AC35.1 - NORDiCSUBS-PTNK.CHS.srt (220.66 KB, 下载次数: 42, 售价: 2 枚蓝光币)

回复

使用道具 举报

懒得打字嘛,点击右侧快捷回复 【右侧内容,后台自定义】
您需要登录后才可以回帖 登录 | 立即注册

本版积分规则

Archiver|手机版|小黑屋| 中国高清网  |网站地图

GMT+8, 2024-6-17 08:27 , Processed in 0.429486 second(s), 30 queries .

Powered by HDchina X3.4

Copyright 2017-2019©HDchina.All right reserved

返回顶部 联系我们