查看: 744|回复: 1

[喜剧片] 好莱坞洗牌.Hollywood.Shuffle.1987.REMASTERED.720p.BluRay.x264-USURY 5.67GB

[复制链接]
蓝光币
9702 枚
发表于 2023-4-25 06:28:38 | 显示全部楼层 |阅读模式
2 J' C* b. B! X) p$ [
, C. o7 A. a, d9 p: w, m
◎译  名 好莱坞洗牌4 N; ]! m" U, `1 g) |
◎片  名 Hollywood Shuffle
5 a0 a9 H- E: s/ r! y9 z& c◎年  代 1987
( k" ~, C4 ^& K- @7 H$ P9 E◎产  地 美国' H9 D4 M% |/ I- ?( ^0 x
◎类  别 笑剧
. f' y$ R. `! w3 V& N◎语  言 英语
! V- S7 p' T* Y, j0 `# U* Y( g◎上映日期 1987-03-20
0 G/ ?1 L7 m' p8 r: b◎IMDb评星  ★★★★★★★☆☆☆
: O3 I8 `7 M+ r◎IMDb评分  6.9/10 from 5,984 users
9 ?- R2 i, O' ^- z; Z; o8 N" V◎IMDb链接  https://www.imdb.com/title/tt0093200/
& D& ~) w3 \% }9 S, \◎豆瓣链接 https://movie.douban.com/subject/4135265/* {. }! {5 r  f
◎片  长 78 分钟 / Canada: 81 分钟(Ontario)
8 `1 S% Z% r& J9 z◎导  演 罗伯特·汤森德 / Robert Townsend
8 E4 Z& Y* _+ T; A3 g! i◎演  员 尤金·罗伯特·格雷泽 / Eugene Robert Glazer
! X  ~, y+ o" u      Kim Genelle Kim Genelle
% ]7 z& ?' I8 H& J; V7 k      斯塔尔勒塔·杜波利斯 / Starletta DuPois
  K0 h7 O: W9 J      史蒂夫·詹姆斯 / Steve James2 ~" Y7 }& i0 k( ?* d
      罗伯特·R·谢弗 / Robert R. Shafer
( t1 d8 g/ i7 q3 O% g7 E      安妮-玛丽·约翰森 / Anne-Marie Johnson
, F; `5 Y6 d# H# L7 B; l5 Q      Craigus R. Johnson Craigus R. Johnson: I# w4 v) |, {( o3 q6 C
      Don Reed Don Reed
! Y; ^5 C; V6 o' d$ ]# E      Nick Stewart Nick Stewart- x+ k8 x* k  W& M# I
      Le Tari Le Tari% R" Q, L) ^. f
      Angela Teek Angela Teek
* W3 h8 M: K9 s, P      Carl Craig Carl Craig# l) f0 \* d! ^
      韦尔达·布里奇斯 / Verda Bridges1 [6 m7 m) H4 Y! H+ ~
      Conni Marie Brazelton Conni Marie Brazelton. d- R$ e+ K/ E1 i" Q
      杰西·阿拉贡 / Jesse Aragon
- y! C) r4 P9 D3 m5 B/ i      约翰·威瑟斯朋 / John Witherspoon1 ]% v2 y! P; }
      Roy Fegan Roy Fegan' F3 X: v; @  b( _
      罗伯特·汤森德 / Robert Townsend
  _& L+ K6 _6 A      基伦·埃弗瑞·韦恩斯 / Keenen Ivory Wayans
, ~% w2 C9 _" y. u      恩·T·布朗 / Wren T. Brown: D% `7 }9 N: E% y7 ~) ~! o
      Helen Martin Helen Martin- h0 J" d: E$ W$ @6 i, ~
      吉姆·比弗 / Jim Beaver
* Z; U8 d- o4 d" N( h      Paul Mooney Paul Mooney7 }% y& r) O6 m5 u
      金·韦恩斯 / Kim Wayans& m  f; h% ~  x  V1 t, j1 J
      拉斯提·坎蒂耶夫 / Rusty Cundieff
* _' P' C) i7 ]  J% T. v. y      富兰克林·阿贾伊 / Franklyn Ajaye7 I. i0 }, V' Y) U
      达蒙·韦恩斯 / Damon Wayans
" l0 k9 H% ]3 L+ Z4 v* w2 U) k      格兰德·L·布什 / Grand L. Bush
4 A+ g0 a2 L0 @& S      Bobby Mardis Bobby Mardis
. c7 k! K1 w* e  Y, Y# O◎编  剧 基伦·埃弗瑞·韦恩斯 / Keenen Ivory Wayans1 n3 p% l9 M  @: N5 k. B3 J
      罗伯特·汤森德 / Robert Townsend, [/ }: K9 Q+ ?- G
◎制  片  人 Carl Craig Carl Craig
% K! c& t- _3 i7 |# ?) s2 v      罗伯特·汤森德 / Robert Townsend8 i9 M( q# x( v" A( a6 a1 O
◎音  乐 Patrice Rushen Patrice Rushen
5 H; L" Y; P/ g◎摄  影 彼得·迪明 / Peter Deming' T9 w& a, o) Y
◎选  角 杰希·布朗 / Jaki Brown
" O: |) l  R( h◎简  介 ! [0 k, m6 q, C  |* E7 {3 q. P+ N+ O
  Bobby Taylor wants to be a respected actor. From Sam Spade to Shakespeare to superheros, he can do it all. He just has to convince Hollywood that gangstas, slaves and “Eddie Murphy-types” aren’t the sum of his talents.
  1. Video/ E* S+ m8 p# H; p+ _, O
  2. ID : 1
    4 p$ J  t$ \6 b* g# [/ j
  3. Format : AVC1 z* E! f' K( |9 A; P) [
  4. Format/Info : Advanced Video Codec
    ; i$ `  L: v- E- I8 _/ C( I/ K4 f
  5. Format profile : High@L4.1
    ' Q" x7 p8 T, ^; z$ F
  6. Format settings : CABAC / 9 Ref Frames
    1 J0 B" e. n; i2 W
  7. Format settings, CABAC : Yes
    4 l! R* S+ S6 M$ H
  8. Format settings, Reference frames : 9 frames6 C2 O, J6 L$ Z8 y, v( c2 w6 A  \
  9. Codec ID : V_MPEG4/ISO/AVC
    . {& S9 m) y5 ^" n+ d' _
  10. Duration : 1 h 21 min  K, t# y- R) b3 j
  11. Bit rate : 9 171 kb/s3 i5 R+ v; j: r, b) f; S
  12. Width : 1 280 pixels
    ' `; G  V% R: ~$ \" k8 {% o! v0 ]
  13. Height : 692 pixels( o/ r4 F2 P4 M+ [4 ?8 `: I
  14. Display aspect ratio : 1.85:1
    . L5 G8 R' u& h, Y6 Q3 a+ l' W# T
  15. Frame rate mode : Constant9 p+ S3 G; {0 b: _! m# F
  16. Frame rate : 23.976 (24000/1001) FPS
    4 S8 k, f% f* j4 a
  17. Color space : YUV9 I  K9 D( D5 N' c  L) O$ P! n
  18. Chroma subsampling : 4:2:06 {$ E6 O) }1 O
  19. Bit depth : 8 bits
    % s: Y; e8 b8 W1 k% @+ X; b5 z
  20. Scan type : Progressive9 @& `; V4 r- S' T" F7 ?! G5 E. p- y
  21. Bits/(Pixel*Frame) : 0.432
    9 ]* F6 |4 ?1 l+ i) `" V8 V
  22. Stream size : 5.21 GiB (92%)- M7 g5 n1 f& n5 P: @+ g; S' H
  23. Writing library : x264 core 164 r3106 eaa68fa3 r) |# @: u7 g. |6 S" l
  24. Encoding settings : cabac=1 / ref=9 / deblock=1:-3:-3 / analyse=0x3:0x133 / me=umh / subme=10 / psy=1 / psy_rd=1.00:0.15 / mixed_ref=1 / me_range=24 / chroma_me=1 / trellis=2 / 8x8dct=1 / cqm=0 / deadzone=21,11 / fast_pskip=1 / chroma_qp_offset=-3 / threads=18 / lookahead_threads=3 / sliced_threads=0 / nr=0 / decimate=1 / interlaced=0 / bluray_compat=0 / constrained_intra=0 / bframes=8 / b_pyramid=2 / b_adapt=2 / b_bias=0 / direct=3 / weightb=1 / open_gop=0 / weightp=2 / keyint=250 / keyint_min=23 / scenecut=40 / intra_refresh=0 / rc_lookahead=60 / rc=crf / mbtree=1 / crf=17.0 / qcomp=0.60 / qpmin=0 / qpmax=69 / qpstep=4 / ip_ratio=1.40 / aq=3:0.50
    / K  H+ v/ e: e& R, `! Z
  25. Language : English
    " Q6 j! v6 `% x. R0 {- W; _
  26. Default : Yes
    + `. S9 a2 V0 a5 q' p! Q. S
  27. Forced : No3 n# p' T- q+ f. i+ X
  28. Color range : Limited9 x& M: K; u6 f( C. s/ z
  29. Matrix coefficients : BT.709
    9 R) j4 s( m) P
  30. Audio #10 r: \' N# j9 Q: P
  31. ID : 2& w$ h! N: O/ X& r7 b7 P
  32. Format : FLAC" c) A2 D3 u$ n5 M, L% h0 |4 x
  33. Format/Info : Free Lossless Audio Codec3 g8 \) a6 f( k, ~2 ?( u' Z2 L
  34. Codec ID : A_FLAC
    1 x, E# \5 Q8 ^4 g; V! j9 Q4 h, g
  35. Duration : 1 h 21 min
    ( R+ c5 ^' K: a+ `
  36. Bit rate mode : Variable% \* I& Q8 d, a- m
  37. Bit rate : 732 kb/s% Z) P, G0 Q: v& E
  38. Channel(s) : 1 channel+ ?- n& Q* R8 S& ~/ F4 O
  39. Channel layout : C
    ) p* d& X! `- I5 q) l
  40. Sampling rate : 48.0 kHz
    # k. I  h! S8 K* D3 z: A$ V
  41. Frame rate : 11.719 FPS (4096 SPF)
    2 `( \3 ~( f9 V2 ]8 b  i( [2 n
  42. Bit depth : 24 bits
    % [( F4 E* t. ^9 Y; @- y
  43. Compression mode : Lossless
    9 C5 H" T, i* ^( ?$ \8 [7 t: P
  44. Stream size : 426 MiB (7%)4 t7 q0 e& j- x% l* S
  45. Writing library : libFLAC 1.2.1 (UTC 2007-09-17)
    3 ~% ^, L6 T/ J$ \: S& ]
  46. Language : English$ u) ]. W& X, G% h1 p; M- X
  47. Default : Yes3 E. x# [: T9 k
  48. Forced : No
    7 Q, t( W, q: e+ A9 K7 N2 f
  49. Audio #29 ~. Z9 a5 j) Y4 N& G1 V* p
  50. ID : 37 u8 O: l" D- e5 o5 e# v7 O
  51. Format : AAC LC  u# l$ ^) v3 s6 ^% L0 w
  52. Format/Info : Advanced Audio Codec Low Complexity) q$ R- z, d' e" G) U0 W
  53. Codec ID : A_AAC-23 j! T4 D5 m0 h% z: l% [/ y
  54. Duration : 1 h 21 min6 W" A0 L1 l0 s' C3 U, g
  55. Bit rate : 63.3 kb/s- D) e! I( _& M1 F8 t' w' G
  56. Channel(s) : 1 channel: Z4 l6 Z2 e4 i1 a* N' J* o/ ~
  57. Channel layout : C
    " _2 n3 y4 }- K3 z6 e& Q, X
  58. Sampling rate : 48.0 kHz
    ; X3 b- S4 e  k/ \- }- m1 i
  59. Frame rate : 46.875 FPS (1024 SPF)
    6 y7 }9 h2 l3 x0 m
  60. Compression mode : Lossy3 O# s7 w; a- G9 u* l0 Q
  61. Delay relative to video : 9 ms0 q7 O* l+ j- ]9 U/ ~
  62. Stream size : 36.8 MiB (1%)- p" K) g2 J& P
  63. Title : English Commentary by Robert Townsend
    ; l2 U! c/ w; X8 E" r
  64. Language : English
    . A1 s1 \9 l2 [  \- j7 z0 {+ V* m- ~
  65. Default : No
    $ a' ]7 [& k  @1 r* j. @
  66. Forced : No
    1 ^2 F$ V( [. R& W% c! _
  67. Text #1" n# I, ^  \& N7 D. i5 T
  68. ID : 4
    : N+ U5 R' I) ]+ l' R' d( f9 i2 R
  69. Format : UTF-8
    8 ?; x! [; v& B( t' U6 @, n; x
  70. Codec ID : S_TEXT/UTF8
    . I$ C. M! W2 @  u
  71. Codec ID/Info : UTF-8 Plain Text5 E+ i# W, s+ {( B; q3 v/ i$ s
  72. Duration : 1 h 20 min
    * l( e% O7 o0 Q7 L/ p0 S6 _: o. G
  73. Bit rate : 83 b/s) \* \3 C# B3 A, Q# V6 Q: L/ L  n
  74. Count of elements : 1327
    4 J& I- k. [" c3 U* j/ ?4 G
  75. Stream size : 49.5 KiB (0%)
    9 {$ ?2 a4 U' F* T
  76. Title : English
    2 X' l" {" Z! ?6 q8 t# k7 |* n
  77. Language : English3 {9 ?- y/ T* \/ t
  78. Default : No( e2 X$ q0 H7 n1 U
  79. Forced : No  C* E: G2 [2 d! f) s
  80. Text #2
    - i- @$ }4 k6 G% z
  81. ID : 5
    + ~6 t6 k/ E& f! W, m
  82. Format : UTF-8. L5 R8 ^. y) \& Z$ l0 d" ~
  83. Codec ID : S_TEXT/UTF88 N4 @  d8 ]0 t5 r" F
  84. Codec ID/Info : UTF-8 Plain Text
    " }! v- K. R: I5 ]! k
  85. Duration : 1 h 20 min  S+ Z1 C, V5 ^
  86. Bit rate : 89 b/s
    1 Q. ?$ z8 u1 J5 a
  87. Count of elements : 13958 i0 w  n. v% y( t! z
  88. Stream size : 52.8 KiB (0%), n; A8 g9 z: b$ S% F4 N
  89. Title : English SDH
    $ v5 w: x& b0 k/ P/ o( e/ C# r
  90. Language : English
    4 j8 w* T1 m. X, t% J) S9 a
  91. Default : No
    - x, F3 d' x5 t$ ?% z* o
  92. Forced : No
    ) l0 d3 a! m% U$ y3 a$ X
  93. Text #3
    3 o( u" I1 E8 `+ p$ Z
  94. ID : 6& {6 o1 V6 v. Z: P4 v! O7 g
  95. Format : PGS9 W1 I* T- t( j" w' U& D) `
  96. Muxing mode : zlib
    4 B% D6 F( l! r, f6 a
  97. Codec ID : S_HDMV/PGS
    - J5 X" @# \. t1 z4 J5 o& F
  98. Codec ID/Info : Picture based subtitle format used on BDs/HD-DVDs2 b2 _/ K" e+ D5 Y
  99. Duration : 1 h 20 min
    5 T( S. K1 M+ }) q, w0 d0 [
  100. Bit rate : 12.4 kb/s4 q- \+ R" l1 {: p" J" q! b  _, [
  101. Count of elements : 2790
    # ~9 Q- {& h' q% e; E" }. ~
  102. Stream size : 7.14 MiB (0%)3 L) L$ A' m6 ~( z, [1 W$ f
  103. Title : English SDH( M2 G5 Q5 U( {1 J0 z7 D' f
  104. Language : English
    8 R" n# `0 A( r
  105. Default : No9 K8 n% W& Q0 W  T% j
  106. Forced : No
    ) C: W& l! n# u
  107. Menu9 ?* S- @2 _1 O  A9 h
  108. 00:00:00.000 : en:00:00:00.0005 {& G; c, t6 U
  109. 00:03:11.108 : en:00:03:11.108
    ) J9 d: t8 Y9 t5 r" M
  110. 00:04:27.017 : en:00:04:27.017, G# f$ ?, P+ s  Z/ F& o
  111. 00:07:45.173 : en:00:07:45.173
    9 z( @* _7 r, \3 y3 O. f/ P& @
  112. 00:13:48.202 : en:00:13:48.202! D1 N. k8 z0 n
  113. 00:18:46.417 : en:00:18:46.4172 b7 X9 o0 \2 l, p6 L
  114. 00:22:36.355 : en:00:22:36.355
      Q/ m# v; P4 M- ?5 |9 h- W& v
  115. 00:33:12.532 : en:00:33:12.532) N" c! B# M6 z! C7 c
  116. 00:35:51.983 : en:00:35:51.983
    2 k* A$ H. v* z9 j
  117. 00:38:50.245 : en:00:38:50.245
    ( w" k3 b/ ?$ N! l1 W5 X
  118. 00:42:24.792 : en:00:42:24.7923 o. f7 m) q' @+ z6 F% @
  119. 00:43:10.379 : en:00:43:10.379
    4 K( W5 C  P# A& o! z
  120. 00:51:25.457 : en:00:51:25.457
    9 [- w$ a6 i8 f7 `6 c% T
  121. 00:55:29.701 : en:00:55:29.701
    8 d. k8 j; W( f. S& C% W% t
  122. 00:58:56.533 : en:00:58:56.533
    1 ^8 h  I& i* P4 v- C/ V3 |
  123. 01:00:33.505 : en:01:00:33.505
    ! [  _2 o" V" e  C, i9 z
  124. 01:04:52.597 : en:01:04:52.5979 V! v1 v) N! ^8 i" n  _4 h, Z, I
  125. 01:09:54.816 : en:01:09:54.816
    ' c, _3 ]2 |  J* ], ~
  126. 01:13:18.477 : en:01:13:18.477
    : r3 o  o8 J3 b4 _& H# P
  127. 01:14:19.622 : en:01:14:19.622& I, F3 b! b& C
  128. 01:16:25.331 : en:01:16:25.331
复制代码
3 z2 Z+ E* N' k( g& @& L5 g6 x
" E6 P! J8 A+ |4 _0 @

2 @! K' @; n: n: V- ^( z8 S* @' L; y
- Q: P4 W( Q* r" N. Q
( N6 d) |  `4 N4 O4 F% k

- a; @1 b" @1 {2 z# K. G2 [% ]0 ?6 E0 u: u

+ X' O. ], G2 k$ z$ A3 D( T Hollywood.Shuffle.1987.REMASTERED.720p.BluRay.x264-USURY.torrent (14.94 KB, 下载次数: 2, 售价: 2 枚蓝光币)
回复

使用道具 举报

蓝光币
2332 枚
发表于 6 天前 | 显示全部楼层
2 |9 d& H: y' a8 v8 n( v
这东西我收了!谢谢楼主!中国高清电影网真好!
回复

使用道具 举报

懒得打字嘛,点击右侧快捷回复 【右侧内容,后台自定义】
您需要登录后才可以回帖 登录 | 立即注册

本版积分规则

Archiver|手机版|小黑屋| 中国高清网  |网站地图

GMT+8, 2024-6-17 09:57 , Processed in 0.403784 second(s), 29 queries .

Powered by HDchina X3.4

Copyright 2017-2019©HDchina.All right reserved

返回顶部 联系我们