查看: 21|回复: 0

[2160p] 恐袭波士顿.Patriots.Day.2016.2160p.UHD.BluRay.x265.10bit.HDR.DTS-X.7.1-RARBG 11.80GB

[复制链接]
蓝光币
112 枚
发表于 2023-3-19 07:26:41 | 显示全部楼层 |阅读模式


◎译  名 恐袭波士顿 / 爱国者行动(台) / 恐袭波士顿马拉松(港) / 爱国者日 / 爱国者之日
◎片  名 Patriots Day
◎年  代 2016
◎产  地 美国
◎类  别 剧情 / 惊悚 / 历史
◎语  言 英语
◎上映日期 2016-11-17(AFI影展) / 2017-01-13(美国) / 2017-11-17(中国大陆)
◎IMDb评星  ★★★★★★★✦☆☆
◎IMDb评分  7.3/10 from 105,665 users
◎IMDb链接  https://www.imdb.com/title/tt4572514/
◎豆瓣评星 ★★★★☆
◎豆瓣评分 8.0/10 from 101,388 users
◎豆瓣链接 https://movie.douban.com/subject/26357945/
◎片  长 133分钟 / 131分钟(中国大陆)
◎导  演 彼得·博格 / Peter Berg
◎演  员 马克·沃尔伯格 / Mark Wahlberg | 饰 汤米·桑德斯 Tommy Saunders
      凯文·贝肯 / Kevin Bacon | 饰 理查德·德劳雷尔奸细 Special Agent Richard DesLauriers
      约翰·古德曼 / John Goodman | 饰 艾德·戴维斯委员长 Commissioner Ed Davis
      米歇尔·莫纳汉 / Michelle Monaghan | 饰 卡罗尔·桑德斯 Carol Saunders
      J·K·西蒙斯 / J.K. Simmons | 饰 杰弗里·普里亚中士 Sergeant Jeffrey Pugliese
      梅莉莎·班诺伊 / Melissa Benoist | 饰 凯瑟琳·拉塞尔 Katherine Russell
      亚历克斯·沃尔夫 / Alex Wolff | 饰 贾哈尔·察尔纳耶夫 Dzhokhar Tsarnaev
      欧阳万成 / Jimmy O. Yang | 饰 邓恩·孟 Dun Meng
      瑞秋·布罗斯纳安 / Rachel Brosnahan | 饰 杰西卡·肯斯基 Jessica Kensky
      埃里卡·麦克德莫特 / Erica McDermott | 饰 吉米的女友 Jimmy's Girlfriend
      克里斯朵夫·奥谢 / Christopher O'Shea | 饰 帕特里克·唐斯 Patrick Downes
      文森特·库拉托拉 / Vincent Curatola | 饰 汤玛斯·曼尼诺市长 Mayor Thomas Menino
      詹姆斯·科尔比 / James Colby | 饰 比利·伊凡斯警长 Superintendent Billy Evans
      迪牟诺罗凯茨 / Themo Melikidze | 饰 塔梅尔兰·察尔纳耶夫 Tamerlan Tsarnaev
      伊利亚·郭 / Elijah Guo | 饰 迪亚斯 Dias
      阿德里安·M·蒙波因特 / Adrian M. Mompoint | 饰 Red Sox Player
      玛塞拉·贾拉米洛 / Marcela Jaramillo | 饰 Police Officer
      拉里·尤登 / Larry Eudene | 饰 Marathon Sports Victim
      巴拉克·奥巴马 / Barack Obama
      拉娜·康多 / Lana Condor | 饰 李 Li
      凯文·德科斯泰 / Kevin DeCoste | 饰 马拉松受害者 Marathon Victim
◎编  剧 彼得·博格 / Peter Berg
      马特·库克 / Matt Cook
      约书亚·祖特曼 / Joshua Zetumer
      保罗·塔马西 / Paul Tamasy
      埃瑞克·约翰逊 / Eric Johnson
◎制  片  人 迪伦·克拉克 / Dylan Clark
◎音  乐 特伦特·雷诺 / Trent Reznor
      阿提喀斯·罗斯 / Atticus Ross
◎摄  影 托比亚斯 / A·施利斯勒 Tobias A. Schliessler
◎简  介 
  影片聚焦于2013年发生的波士顿马拉松爆炸事务,是继《伦敦沦陷》《深海浩劫》以后,又一高口碑灾难巨制,该片实在复原了在波士顿恐袭发生后,FBI、当地警方在102小时内尽力访拿真凶,阻止了犯罪份子下一步进犯行动的勇敢业绩。
◎获奖情况 
  第88届美国国家批评协会奖 (2016)
  年度佳片(提名)
  1. Video
  2. ID : 1
  3. Format : HEVC
  4. Format/Info : High Efficiency Video Coding
  5. Format profile : Main [email protected]@Main
  6. HDR format : SMPTE ST 2086, HDR10 compatible
  7. Codec ID : V_MPEGH/ISO/HEVC
  8. Duration : 2 h 13 min
  9. Bit rate : 8 018 kb/s
  10. Width : 3 840 pixels
  11. Height : 1 600 pixels
  12. Display aspect ratio : 2.40:1
  13. Frame rate mode : Constant
  14. Frame rate : 23.976 (24000/1001) FPS
  15. Color space : YUV
  16. Chroma subsampling : 4:2:0
  17. Bit depth : 10 bits
  18. Bits/(Pixel*Frame) : 0.054
  19. Stream size : 7.46 GiB (63%)
  20. Writing library : x265 3.5+rarbg-HDR-38-20255e6:[Linux][clang 16.0.0][64 bit] 10bit
  21. Encoding settings : cpuid=1111039 / frame-threads=6 / wpp / no-pmode / no-pme / no-psnr / no-ssim / log-level=2 / input-csp=1 / input-res=3840x1600 / interlace=0 / total-frames=0 / level-idc=51 / high-tier=1 / uhd-bd=0 / ref=4 / no-allow-non-conformance / repeat-headers / annexb / aud / no-eob / no-eos / no-hrd / info / hash=0 / no-temporal-layers / no-open-gop / min-keyint=1 / keyint=24 / gop-lookahead=0 / bframes=4 / b-adapt=2 / b-pyramid / bframe-bias=0 / rc-lookahead=25 / lookahead-slices=4 / scenecut=40 / no-hist-scenecut / radl=0 / no-splice / no-intra-refresh / ctu=64 / min-cu-size=8 / rect / no-amp / max-tu-size=32 / tu-inter-depth=1 / tu-intra-depth=1 / limit-tu=0 / rdoq-level=2 / dynamic-rd=0.00 / no-ssim-rd / signhide / no-tskip / nr-intra=0 / nr-inter=0 / no-constrained-intra / strong-intra-smoothing / max-merge=3 / limit-refs=3 / no-limit-modes / me=3 / subme=3 / merange=57 / temporal-mvp / no-frame-dup / no-hme / weightp / no-weightb / no-analyze-src-pics / deblock=0:0 / no-sao / no-sao-non-deblock / rd=4 / selective-sao=0 / no-early-skip / rskip / no-fast-intra / no-tskip-fast / no-cu-lossless / no-b-intra / no-splitrd-skip / rdpenalty=0 / psy-rd=2.00 / psy-rdoq=1.00 / no-rd-refine / no-lossless / cbqpoffs=0 / crqpoffs=0 / rc=abr / bitrate=8000 / qcomp=0.60 / qpstep=4 / stats-write=0 / stats-read=2 / cplxblur=20.0 / qblur=0.5 / ipratio=1.40 / pbratio=1.30 / aq-mode=1 / aq-strength=1.00 / cutree / zone-count=0 / no-strict-cbr / qg-size=32 / no-rc-grain / qpmax=69 / qpmin=0 / no-const-vbv / sar=1 / overscan=0 / videoformat=5 / range=0 / colorprim=9 / transfer=16 / colormatrix=9 / chromaloc=0 / display-window=0 / master-display=G(13250,34500)B(7500,3000)R(34000,16000)WP(15634,16450)L(10000000,0) / cll=1000,510 / min-luma=0 / max-luma=1023 / log2-max-poc-lsb=8 / vui-timing-info / vui-hrd-info / slices=1 / no-opt-qp-pps / no-opt-ref-list-length-pps / no-multi-pass-opt-rps / scenecut-bias=0.05 / hist-threshold=0.03 / no-opt-cu-delta-qp / no-aq-motion / hdr10 / hdr10-opt / no-dhdr10-opt / no-idr-recovery-sei / analysis-reuse-level=0 / analysis-save-reuse-level=0 / analysis-load-reuse-level=0 / scale-factor=0 / refine-intra=0 / refine-inter=0 / refine-mv=1 / refine-ctu-distortion=0 / no-limit-sao / ctu-info=0 / no-lowpass-dct / refine-analysis-type=0 / copy-pic=1 / max-ausize-factor=1.0 / no-dynamic-refine / no-single-sei / no-hevc-aq / no-svt / no-field / qp-adaptation-range=1.00 / scenecut-aware-qp=0conformance-window-offsets / right=0 / bottom=0 / decoder-max-rate=0 / no-vbv-live-multi-pass
  22. Default : Yes
  23. Forced : No
  24. Color range : Limited
  25. Color primaries : BT.2020
  26. Transfer characteristics : PQ
  27. Matrix coefficients : BT.2020 non-constant
  28. Mastering display color primaries : Display P3
  29. Mastering display luminance : min: 0.0000 cd/m2, max: 1000 cd/m2
  30. Maximum Content Light Level : 1000 cd/m2
  31. Maximum Frame-Average Light Level : 510 cd/m2
  32. Audio #1
  33. ID : 2
  34. Format : DTS XLL X
  35. Format/Info : Digital Theater Systems
  36. Commercial name : DTS-HD Master Audio
  37. Codec ID : A_DTS
  38. Duration : 2 h 13 min
  39. Bit rate mode : Variable
  40. Bit rate : 4 280 kb/s
  41. Channel(s) : 8 channels
  42. Channel(s)_Original : Object Based
  43. ChannelLayout_Original : Object Based
  44. Sampling rate : 48.0 kHz
  45. Frame rate : 93.750 FPS (512 SPF)
  46. Bit depth : 24 bits
  47. Stream size : 3.98 GiB (34%)
  48. Title : English DTS-X 7.1
  49. Language : English
  50. Default : Yes
  51. Forced : No
  52. Audio #2
  53. ID : 3
  54. Format : AC-3
  55. Format/Info : Audio Coding 3
  56. Commercial name : Dolby Digital
  57. Codec ID : A_AC3
  58. Duration : 2 h 13 min
  59. Bit rate mode : Constant
  60. Bit rate : 384 kb/s
  61. Channel(s) : 6 channels
  62. Channel layout : L R C LFE Ls Rs
  63. Sampling rate : 48.0 kHz
  64. Frame rate : 31.250 FPS (1536 SPF)
  65. Compression mode : Lossy
  66. Stream size : 366 MiB (3%)
  67. Title : English DD 5.1
  68. Language : English
  69. Service kind : Complete Main
  70. Default : No
  71. Forced : No
  72. Text #1
  73. ID : 4
  74. Format : UTF-8
  75. Codec ID : S_TEXT/UTF8
  76. Codec ID/Info : UTF-8 Plain Text
  77. Duration : 2 h 12 min
  78. Bit rate : 74 b/s
  79. Frame rate : 0.232 FPS
  80. Count of elements : 1852
  81. Stream size : 72.3 KiB (0%)
  82. Title : English SRT
  83. Language : English
  84. Default : Yes
  85. Forced : No
  86. Text #2
  87. ID : 5
  88. Format : UTF-8
  89. Codec ID : S_TEXT/UTF8
  90. Codec ID/Info : UTF-8 Plain Text
  91. Duration : 2 h 12 min
  92. Bit rate : 78 b/s
  93. Frame rate : 0.251 FPS
  94. Count of elements : 2002
  95. Stream size : 76.1 KiB (0%)
  96. Title : English SDH SRT
  97. Language : English
  98. Default : No
  99. Forced : No
  100. Menu
  101. 00:00:00.000 : en:Chapter 01
  102. 00:08:29.842 : en:Chapter 02
  103. 00:17:47.608 : en:Chapter 03
  104. 00:23:56.143 : en:Chapter 04
  105. 00:32:35.745 : en:Chapter 05
  106. 00:41:43.834 : en:Chapter 06
  107. 00:49:22.751 : en:Chapter 07
  108. 00:58:34.761 : en:Chapter 08
  109. 01:07:05.855 : en:Chapter 09
  110. 01:19:06.116 : en:Chapter 10
  111. 01:24:14.674 : en:Chapter 11
  112. 01:33:47.747 : en:Chapter 12
  113. 01:45:16.476 : en:Chapter 13
  114. 01:50:22.657 : en:Chapter 14
  115. 01:57:54.484 : en:Chapter 15
  116. 02:05:25.768 : en:Chapter 16
复制代码











Patriots.Day.2016.2160p.UHD.BluRay.x265.10bit.HDR.DTS-X.7.1-RARBG.torrent (15.41 KB, 下载次数: 0)
回复

使用道具 举报

懒得打字嘛,点击右侧快捷回复 【右侧内容,后台自定义】
您需要登录后才可以回帖 登录 | 立即注册

本版积分规则

Archiver|手机版|小黑屋| 中国高清网  |网站地图

GMT+8, 2023-3-31 18:14 , Processed in 0.093547 second(s), 26 queries .

Powered by HDchina X3.4

Copyright 2017-2019©HDchina.All right reserved

返回顶部 联系我们