查看: 540|回复: 0

[2160p] 勇敢的心.Braveheart.1995.2160p.UHD.BluRay.x265.10bit.HDR.DDP5.1-RARBG 10.75GB

[复制链接]
蓝光币
7086 枚
发表于 2023-3-19 07:26:33 | 显示全部楼层 |阅读模式


◎译  名 勇敢的心 / 惊世未了缘(港) / 梅尔吉勃逊之豪杰本质(台)
◎片  名 Braveheart
◎年  代 1995
◎产  地 美国
◎类  别 剧情 / 行动 / 列传 / 历史 / 战争
◎语  言 英语 / 法语 / 拉丁语 / 苏格兰盖尔语
◎上映日期 1995-05-18(西雅图电影节) / 1995-05-24(美国)
◎IMDb评星  ★★★★★★★★✦☆
◎IMDb评分  8.4/10 from 1,047,816 users
◎IMDb链接  https://www.imdb.com/title/tt0112573/
◎豆瓣评星 ★★★★✦
◎豆瓣评分 8.9/10 from 549,905 users
◎豆瓣链接 https://movie.douban.com/subject/1294639/
◎片  长 178分钟
◎导  演 梅尔·吉布森 / Mel Gibson
◎演  员 梅尔·吉布森 / Mel Gibson | 饰 William Wallace
      苏菲·玛索 / Sophie Marceau | 饰 Princess Isabelle
      布莱恩·考克斯 / Brian Cox | 饰 Argyle Wallace
      詹姆斯·科兹莫 / James Cosmo | 饰 Campbell
      辛·劳洛 / Sean Lawlor | 饰 Malcolm Wallace
      凯瑟琳·麦克马克 / Catherine McCormack | 饰 Murron
      安古斯·麦克菲登 / Angus Macfadyen | 饰 Robert the Bruce
      布莱丹·格里森 / Brendan Gleeson | 饰 Hamish
      詹姆斯·霍纳 / James Horner
      彼得·穆兰 / Peter Mullan | 饰 Veteran
      汤米·弗拉纳根 / Tommy Flanagan | 饰 Morrison
      艾伦·阿姆斯特朗 / Alun Armstrong | 饰 Mornay
      大卫·奥哈拉 / David O'Hara | 饰 Stephen
      帕特里克·麦高汉 / Patrick McGoohan | 饰 Longshanks - King Edward I
      伊安·邦纳 / Ian Bannen | 饰 The Leper
      梅丽·卡尔维 / Mhairi Calvey | 饰 Young Murron
      史蒂芬·比灵顿 / Stephen Billington | 饰 Phillip
      迈克尔·伯恩 / Michael Byrne | 饰 Smythe
      亚力克斯·诺顿 / Alex Norton | 饰 Bride's Father
      杰拉德·迈克索利 / Gerard McSorley | 饰 Cheltham
      詹姆斯·鲁宾逊 / James Robinson | 饰 Young William Wallace
      辛·麦金利 / Sean McGinley | 饰 MacClannough
      Donal Gibson Donal Gibson | 饰 Stewart
      鲁珀特·范西塔特 / Rupert Vansittart | 饰 Lord Bottoms
◎编  剧 兰道尔·华莱士 / Randall Wallace
◎制  片  人 布鲁斯·戴维 / Bruce Davey
      斯蒂芬·麦克维蒂 / Stephen McEveety
◎音  乐 詹姆斯·霍纳 / James Horner
◎摄  影 约翰·托尔 / John Toll
◎剪  辑 斯蒂夫·罗森布朗 / Steven Rosenblum
◎美  术 内森·克劳利 / Nathan Crowley
      托马斯·E·桑德斯 / Thomas E. Sanders
      彼得·霍威特 / Peter Howitt
      丹尼尔·T·多兰斯 / Daniel T. Dorrance
      Ken Court Ken Court
◎服  装 查尔斯·诺德 / Charles Knode
◎化  妆 洛伊斯·布尔维尔 / Lois Burwell
      彼得·弗兰普顿 / Peter Frampton
      保罗·帕蒂森 / Paul Pattison
      康纳·奥沙利文 / Conor O'Sullivan
      Sue Love Sue Love
      阿曼达·奈特 / Amanda Knight
      Barry Richardson Barry Richardson
◎副  导  演 米克·罗杰斯 / Mic Rodgers
◎视觉殊效 迈克尔·L·芬克 / Michael L. Fink
      Kirk Cadrette Kirk Cadrette
      José Granell José Granell
      格雷格·金布尔 / Greg Kimble
      Laurel Klick Laurel Klick
      Joe Pavlo Joe Pavlo
      乔尔·梅里特 / Joel Merritt
      特里西亚·亨利·阿什福德 / Tricia Henry Ashford
◎简  介 
  威廉•华莱士童年时,其父、苏格兰民族豪杰马索•华莱士在与英军的斗争中牺牲,他起头接管父亲好友的指导,进修苏格兰文化和武术。青韶华莱士(梅尔•吉布森)学成回到故乡,向美丽的少女梅伦求婚,不想梅伦被英军抢去且遭杀戮。在广大村民“豪杰以后”的呼声中,华莱士率众揭竿叛逆,并与苏格兰贵族罗伯结成同盟,但未几他发现,苏格兰贵族斟酌的只是本身的好处。
  英王为缓和大势,派伊莎贝拉(苏菲•玛索)前往和华莱士谈判,由于英王只想拉拢华莱士,底子掉臂苏格兰群众的自在和同等,谈判失利,但这一切并不为伊莎贝拉所知。伊莎贝拉归国后发现工作真相,且知晓英王正策划阴招,忙送信给华莱士,而两人的恋爱,也在战争与诡计中悄悄滋生。
◎获奖情况 
  第68届奥斯卡金像奖 (1996)
  最好影片 艾伦·拉德二世,梅尔·吉布森,布鲁斯·戴维
  最好导演 梅尔·吉布森
  最好原创剧本(提名) 兰道尔·华莱士
  最好摄影 约翰·托尔
  最好剪辑(提名) 斯蒂夫·罗森布朗
  最好音效剪辑 佩尔·霍尔伯格,朗·班德
  最好声响(提名) 布莱恩·西蒙斯,斯科特·米兰,安娜·贝尔莫,安迪·尼尔森
  最好打扮设想(提名) 查尔斯·诺德
  最好化装 彼得·弗兰普顿,保罗·帕蒂森,洛伊斯·布尔维尔
  剧情片最好原创配乐(提名) 詹姆斯·霍纳
  第53届金球奖 (1996)
  电影类 最好剧情片(提名)
  电影类 最好导演 梅尔·吉布森
  电影类 最好编剧(提名) 兰道尔·华莱士
  电影类 最好原创配乐(提名) 詹姆斯·霍纳
  第49届英国电影学院奖 (1996)
  电影奖 最好导演(提名) 梅尔·吉布森
  电影奖 最好摄影 约翰·托尔
  电影奖 最好摄影(提名) 约翰·托尔
  电影奖 最好化装/发型(提名) 彼得·弗兰普顿,保罗·帕蒂森,洛伊斯·布尔维尔
  电影奖 最好打扮设想 查尔斯·诺德
  电影奖 最好艺术指导(提名) 托马斯·E·桑德斯
  电影奖 最好原创音乐(提名) 詹姆斯·霍纳
  电影奖 最好音效 安娜·贝尔莫,布莱恩·西蒙斯,佩尔·霍尔伯格,斯科特·米兰,安迪·尼尔森,朗·班德
◎台词金句
  William Wallace: FREEDOM!!
  华莱士:自在!!!!!!
  --------------------------------------------------------------------------------
  William Wallace: Every man dies, not every man really lives.
  华莱士:每小我城市死去,但不是每小我都已经真正活过。
  --------------------------------------------------------------------------------
  William Wallace: Fight and you may die, run and you'll live. At least a while. And dying in your beds many years from now, would you be willing to trade all the days from this day to that for one chance, just one chance to come back here and tell our enemies that they may take our lives, but they'll never take our freedom?!  
  华莱士:是呀,假如战役,你们能够会死。假如逃窜,最少还能……多活一会儿。年复一年,直到与世长辞,你们愿不愿意?用这么多苟活的日子,去换一个机遇,就一个机遇。回到这里,告诉我们的仇敌,他们也许能夺走我们的生命,但他们永久夺不走我们的自在。
  --------------------------------------------------------------------------------
  William Wallace:Not nearly as beautiful as you
  华莱士:那边很美,可是你更美。
  --------------------------------------------------------------------------------
  William Wallace: Why do you help me?
  华莱士:为什么帮我。
  Princess Isabelle: Because of the way you are looking at me now.
  伊莎贝尔:由于你看着我的方式。
◎幕后揭秘
  按照真人真事改编,但对史料做了很多修改。影片中有炽烈的爱和惨烈的死。这是一部极端暴力的影片,有大量惨绝人寰的杀人排场。但由于情节的需要、人物感情的原始性及处置的艺术化,一切都蒙上了一层史诗的美感。影片有多处使人难忘的抒怀飞腾:男仆人公在山顶高声疾呼时,摄影机在山峦中绕着仆人公盘旋。另一个气冲牛斗的排场是仆人公号使群众起来为自在抗争。梅尔·吉布森的古打扮相很是都雅,不但扬敦促马时异常威武,情话绵绵时也使民气动。没有几个好莱坞明星能身穿苏格兰裙而又连结男人气概的。影片获第68届奥斯卡最好影片、最好导演等5项大奖,霍纳的音乐也很出色。
  1. Video
  2. ID : 1
  3. Format : HEVC
  4. Format/Info : High Efficiency Video Coding
  5. Format profile : Main [email protected]@Main
  6. HDR format : SMPTE ST 2086, HDR10 compatible
  7. Codec ID : V_MPEGH/ISO/HEVC
  8. Duration : 2 h 57 min
  9. Bit rate : 8 022 kb/s
  10. Width : 3 840 pixels
  11. Height : 1 632 pixels
  12. Display aspect ratio : 2.35:1
  13. Frame rate mode : Constant
  14. Frame rate : 23.976 (24000/1001) FPS
  15. Color space : YUV
  16. Chroma subsampling : 4:2:0
  17. Bit depth : 10 bits
  18. Bits/(Pixel*Frame) : 0.053
  19. Stream size : 9.96 GiB (93%)
  20. Writing library : x265 3.5+rarbg-HDR-38-20255e6:[Linux][clang 16.0.0][64 bit] 10bit
  21. Encoding settings : cpuid=1111039 / frame-threads=6 / wpp / no-pmode / no-pme / no-psnr / no-ssim / log-level=2 / input-csp=1 / input-res=3840x1632 / interlace=0 / total-frames=0 / level-idc=51 / high-tier=1 / uhd-bd=0 / ref=4 / no-allow-non-conformance / repeat-headers / annexb / aud / no-eob / no-eos / no-hrd / info / hash=0 / no-temporal-layers / no-open-gop / min-keyint=1 / keyint=24 / gop-lookahead=0 / bframes=4 / b-adapt=2 / b-pyramid / bframe-bias=0 / rc-lookahead=25 / lookahead-slices=4 / scenecut=40 / no-hist-scenecut / radl=0 / no-splice / no-intra-refresh / ctu=64 / min-cu-size=8 / rect / no-amp / max-tu-size=32 / tu-inter-depth=1 / tu-intra-depth=1 / limit-tu=0 / rdoq-level=2 / dynamic-rd=0.00 / no-ssim-rd / signhide / no-tskip / nr-intra=0 / nr-inter=0 / no-constrained-intra / strong-intra-smoothing / max-merge=3 / limit-refs=3 / no-limit-modes / me=3 / subme=3 / merange=57 / temporal-mvp / no-frame-dup / no-hme / weightp / no-weightb / no-analyze-src-pics / deblock=0:0 / no-sao / no-sao-non-deblock / rd=4 / selective-sao=0 / no-early-skip / rskip / no-fast-intra / no-tskip-fast / no-cu-lossless / no-b-intra / no-splitrd-skip / rdpenalty=0 / psy-rd=2.00 / psy-rdoq=1.00 / no-rd-refine / no-lossless / cbqpoffs=0 / crqpoffs=0 / rc=abr / bitrate=8000 / qcomp=0.60 / qpstep=4 / stats-write=0 / stats-read=2 / cplxblur=20.0 / qblur=0.5 / ipratio=1.40 / pbratio=1.30 / aq-mode=1 / aq-strength=1.00 / cutree / zone-count=0 / no-strict-cbr / qg-size=32 / no-rc-grain / qpmax=69 / qpmin=0 / no-const-vbv / sar=1 / overscan=0 / videoformat=5 / range=0 / colorprim=9 / transfer=16 / colormatrix=9 / chromaloc=0 / display-window=0 / master-display=G(13250,34500)B(7500,3000)R(34000,16000)WP(15635,16450)L(10000000,1) / cll=0,0 / min-luma=0 / max-luma=1023 / log2-max-poc-lsb=8 / vui-timing-info / vui-hrd-info / slices=1 / no-opt-qp-pps / no-opt-ref-list-length-pps / no-multi-pass-opt-rps / scenecut-bias=0.05 / hist-threshold=0.03 / no-opt-cu-delta-qp / no-aq-motion / hdr10 / hdr10-opt / no-dhdr10-opt / no-idr-recovery-sei / analysis-reuse-level=0 / analysis-save-reuse-level=0 / analysis-load-reuse-level=0 / scale-factor=0 / refine-intra=0 / refine-inter=0 / refine-mv=1 / refine-ctu-distortion=0 / no-limit-sao / ctu-info=0 / no-lowpass-dct / refine-analysis-type=0 / copy-pic=1 / max-ausize-factor=1.0 / no-dynamic-refine / no-single-sei / no-hevc-aq / no-svt / no-field / qp-adaptation-range=1.00 / scenecut-aware-qp=0conformance-window-offsets / right=0 / bottom=0 / decoder-max-rate=0 / no-vbv-live-multi-pass
  22. Default : Yes
  23. Forced : No
  24. Color range : Limited
  25. Color primaries : BT.2020
  26. Transfer characteristics : PQ
  27. Matrix coefficients : BT.2020 non-constant
  28. Mastering display color primaries : Display P3
  29. Mastering display luminance : min: 0.0001 cd/m2, max: 1000 cd/m2
  30. Audio
  31. ID : 2
  32. Format : E-AC-3
  33. Format/Info : Enhanced AC-3
  34. Commercial name : Dolby Digital Plus
  35. Codec ID : A_EAC3
  36. Duration : 2 h 57 min
  37. Bit rate mode : Constant
  38. Bit rate : 640 kb/s
  39. Channel(s) : 6 channels
  40. Channel layout : L R C LFE Ls Rs
  41. Sampling rate : 48.0 kHz
  42. Frame rate : 31.250 FPS (1536 SPF)
  43. Compression mode : Lossy
  44. Stream size : 813 MiB (7%)
  45. Title : English DDP 5.1
  46. Language : English
  47. Service kind : Complete Main
  48. Default : Yes
  49. Forced : No
  50. Text #1
  51. ID : 3
  52. Format : UTF-8
  53. Codec ID : S_TEXT/UTF8
  54. Codec ID/Info : UTF-8 Plain Text
  55. Duration : 2 h 50 min
  56. Bit rate : 30 b/s
  57. Frame rate : 0.112 FPS
  58. Count of elements : 1148
  59. Stream size : 38.1 KiB (0%)
  60. Title : English SRT
  61. Language : English
  62. Default : Yes
  63. Forced : No
  64. Text #2
  65. ID : 4
  66. Format : UTF-8
  67. Codec ID : S_TEXT/UTF8
  68. Codec ID/Info : UTF-8 Plain Text
  69. Duration : 2 h 50 min
  70. Bit rate : 33 b/s
  71. Frame rate : 0.137 FPS
  72. Count of elements : 1407
  73. Stream size : 41.4 KiB (0%)
  74. Title : English SDH SRT
  75. Language : English
  76. Default : No
  77. Forced : No
  78. Menu
  79. 00:00:00.000 : en:Chapter 01
  80. 00:07:25.528 : en:Chapter 02
  81. 00:16:24.441 : en:Chapter 03
  82. 00:22:00.694 : en:Chapter 04
  83. 00:34:16.888 : en:Chapter 05
  84. 00:39:49.678 : en:Chapter 06
  85. 00:56:04.611 : en:Chapter 07
  86. 01:00:01.264 : en:Chapter 08
  87. 01:07:28.044 : en:Chapter 09
  88. 01:11:51.598 : en:Chapter 10
  89. 01:19:01.528 : en:Chapter 11
  90. 01:33:03.202 : en:Chapter 12
  91. 01:43:44.718 : en:Chapter 13
  92. 01:53:55.078 : en:Chapter 14
  93. 01:58:58.172 : en:Chapter 15
  94. 02:17:15.101 : en:Chapter 16
  95. 02:24:18.608 : en:Chapter 17
  96. 02:28:49.712 : en:Chapter 18
  97. 02:34:12.201 : en:Chapter 19
  98. 02:36:32.091 : en:Chapter 20
  99. 02:46:53.878 : en:Chapter 21
  100. 02:50:43.066 : en:Chapter 22
复制代码











Braveheart.1995.2160p.UHD.BluRay.x265.10bit.HDR.DDP5.1-RARBG.torrent (14.09 KB, 下载次数: 8, 售价: 2 枚蓝光币)
回复

使用道具 举报

懒得打字嘛,点击右侧快捷回复 【右侧内容,后台自定义】
您需要登录后才可以回帖 登录 | 立即注册

本版积分规则

Archiver|手机版|小黑屋| 中国高清网  |网站地图

GMT+8, 2024-2-23 15:09 , Processed in 0.133982 second(s), 27 queries .

Powered by HDchina X3.4

Copyright 2017-2019©HDchina.All right reserved

返回顶部 联系我们