查看: 792|回复: 0

[2160p] 巴比伦.Babylon.2022.2160p.UHD.BluRay.x265.10bit.HDR.TrueHD.7.1.Atmos-STRiKES 49.74GB

[复制链接]
蓝光币
8396 枚
发表于 2023-3-19 07:26:08 | 显示全部楼层 |阅读模式


◎译  名 巴比伦 / 巴比伦:星声追梦荷里活(港)
◎片  名 Babylon
◎年  代 2022
◎产  地 美国
◎类  别 剧情 / 笑剧 / 历史
◎语  言 英语 / 西班牙语 / 意大利语
◎上映日期 2022-12-23(美国)
◎IMDb评星  ★★★★★★★✦☆☆
◎IMDb评分  7.3/10 from 93,332 users
◎IMDb链接  https://www.imdb.com/title/tt10640346/
◎豆瓣评星 ★★★★☆
◎豆瓣评分 8.0/10 from 62,704 users
◎豆瓣链接 https://movie.douban.com/subject/34467461/
◎片  长 188分钟
◎导  演 达米恩·查泽雷 / Damien Chazelle
◎演  员 布拉德·皮特 / Brad Pitt | 饰 Jack Conrad
      玛格特·罗比 / Margot Robbie | 饰 Nellie LaRoy
      迭戈·卡尔瓦 / Diego Calva | 饰 Manny Torres
      珍·斯马特 / Jean Smart | 饰 Elinor St. John
      约翰·艾德坡 / Jovan Adepo | 饰 Sidney Palmer
      李丽君 / Li Jun Li | 饰 Lady Fay Zhu
      P·J·伯恩 / P.J. Byrne | 饰 Ruth's AD
      卢卡斯·哈斯 / Lukas Haas | 饰 George Munn
      奥莉维亚·汉密尔顿 / Olivia Hamilton | 饰 Ruth Adler
      麦克思·明格拉 / Max Minghella | 饰 Irving Thalberg
      罗里·斯卡沃 / Rory Scovel | 饰 The Count
      凯瑟琳·沃特斯顿 / Katherine Waterston | 饰 Estelle
      托比·马奎尔 / Tobey Maguire | 饰 James McKay
      弗利 / Flea | 饰 Bob Levine
      杰夫·格尔林 / Jeff Garlin | 饰 Don Wallach
      埃里克·罗伯茨 / Eric Roberts | 饰 Robert Roy
      伊桑·苏普利 / Ethan Suplee | 饰 Wilson
      萨玛拉·维文 / Samara Weaving | 饰 Constance Moore
      奥利维亚·王尔德 / Olivia Wilde | 饰 Ina Conrad
      菲比·汤金 / Phoebe Tonkin | 饰 Jane Thornton
      斯派克·琼斯 / Spike Jonze | 饰 Otto
      詹妮弗·格兰特 / Jennifer Grant | 饰 Mildred Yates
      弗雷德里克·凯勒 / Frederick Koehler | 饰 DP
      托德·吉贝哈恩 / Todd Giebenhain | 饰 Actor
      克洛伊·菲内曼 / Chloe Fineman | 饰 Marion Davies
      乔纳·普拉特 / Jonah Platt | 饰 Technician
      肖恩·奥布赖恩 / Sean O'Bryan | 饰 Studio Exec
      鲍勃·克莱德宁 / Bob Clendenin | 饰 Otto's A.D.
      马科斯·A.费拉斯 / Marcos A. Ferraez | 饰 Cop
      达蒙·冈普顿 / Damon Gupton
      雷恩·哈珀 / Raelynn Harper | 饰 Starlet
      里安·里斯 / Rhian Rees | 饰 Pregnant Woman
      米拉吉·格尔比克 / Miraj Grbic | 饰 Extra
      卡莲娜·布里奇 / Carlena Britch | 饰 Party Goer
      布莱克叶·埃南 / Bregje Heinen | 饰 Nathalie
      安娜·科托 / Ana Coto | 饰 Dancer
      卡罗琳娜·辛查克 / Karolina Szymczak | 饰 Olga Putti
      特洛伊·梅特卡夫 / Troy Metcalf | 饰 Orville Pickwick
      迈克·加萨威 / Mike Gassaway | 饰 Soldier
      特里·沃尔特斯 / Terry Walters | 饰 Kinoscope Editor
      莎拉·凯瑟琳·贝勒米 / Sara Catherine Bellamy | 饰 Singer
      安娜·查泽雷 / Anna Chazelle | 饰 Bobbie Hart
      约翰·克里 / John Kerry | 饰 John Rothschild
      伯克·弗洛伊德 / Bourke Floyd | 饰 Kinoscope Crew
      基思·库尔 / Keith Kuhl | 饰 Dancer
      瑞克·萨拉比亚 / Ric Sarabia | 饰 Crew Member
      尼克·巴加 / Nick Baga | 饰 Party Goer
      雅科夫·科隆塔罗夫 / Yakov Kolontarov | 饰 Phil
      安德鲁·霍特里 / Andrew Hawtrey | 饰 Kinoscope AD
      艾利克斯·多布兰口 / Alex Dobrenko | 饰 Assistant to Don Wallach
      亚历山大·陈 / Alexandre Chen | 饰 Ruth's D.P.
      哈尔·戴恩 / Hal Dion | 饰 Elevator Operator
      Maye Harris Maye Harris | 饰 Beauty
◎编  剧 达米恩·查泽雷 / Damien Chazelle
◎制  片  人 托比·马奎尔 / Tobey Maguire
      海伦·埃斯特布鲁克 / Helen Estabrook
      奥莉维亚·汉密尔顿 / Olivia Hamilton
      马克·普拉特 / Marc Platt
      亚当·西格尔 / Adam Siegel
◎音  乐 贾斯汀·赫维兹 / Justin Hurwitz
◎摄  影 莱纳斯·桑德格伦 / Linus Sandgren
◎剪  辑 汤姆·克罗斯 / Tom Cross
◎选  角 弗兰辛·梅思勒 / Francine Maisler
◎美  术 弗洛伦西亚·马丁 / Florencia Martin
      安东尼·卡尔利诺 / Anthony Carlino
◎服  装 玛丽·索弗瑞斯 / Mary Zophres
◎简  介 
  本片聚焦于1920年月的早期好莱坞,电影产业从默片成长到有声电影时代的过渡期间。本片聚焦于一对男女配角的奇迹与感情,并跟随了这一期间其他三位虚拟脚色的起升降落;他们都有各自的历史原型。
  1926年的洛杉矶,墨西哥裔移民Manny(迭戈·卡尔瓦 饰)作为打杂工来到Kinoscope制片厂高管举行的汗漫狂野的派对工作,在这里他相逢了来改过泽西底层的金发女孩Nellie LaRoy(玛格特·罗比 饰);她刚来到洛杉矶,狂放粗鲁,却又野心勃勃,希望在好莱坞成为一个电影明星,而Manny也对她一见钟情。
  加入这场派对的还有那时已申明大噪的中年男演员Jack Conard(布拉德·皮特 饰)和华裔女演员朱菲(李丽君 饰),还有尚在打拼的非裔爵士小号手Sidney(约翰·艾德坡 饰)。在派对上,Manny还结识了Jack,并在后者的举荐下来到了电影的拍摄现场工作,并因其过人的工作表示而受人欣赏。同时,在片场的另一边,Nellie也因其冷艳的舞蹈和表演而被发觉,拍摄了一部让她申明鹊起的无声电影。
  在后来的1927年,第一部有声电影《爵士歌手》上映,这永久地改变了电影产业与好莱坞的格式。Manny把握住了时代的机遇,逐步长大,成为了电影制片人;Nellie却由于自我纵容,没法再跟上有声时代的步伐,逐步沉溺,被制片厂要求强行革新。Jack因其表演才能已不再顺应有声时代,进入了备受煎熬的中年和奇迹两重危机。朱菲因其同性恋身份,没法再被日益守旧的好莱坞包容。Sidney成为了黑人爵士音乐片的演员,却被要求“把脸涂得更黑”以逢迎呆板印象。
  在此以后,五人的命运都相持不下。声貌诡异、行为变态的洛杉矶的黑帮头子James McKay(托比·马奎尔 饰)因Nellie欠下的赌债忽然介入,打断了Manny的美好人生,电影也在此时进入一种黑暗的空气。好莱坞的黄金时代,似乎在此逐步磨灭。那些已经在影史上留下自己名字的人,也在变化的阵痛中被历史抛弃,在时光流转之下被众人忘记......
◎获奖情况 
  第95届奥斯卡金像奖 (2023)
  最好艺术指导(提名) 弗洛伦西亚·马丁,安东尼·卡尔利诺
  最好打扮设想(提名) 玛丽·索弗瑞斯
  最好原创配乐(提名) 贾斯汀·赫维兹
  第80届金球奖 (2023)
  电影类 最好音乐/笑剧片(提名)
  电影类 音乐/笑剧片最好男配角(提名) 迭戈·卡尔瓦
  电影类 音乐/笑剧片最好女配角(提名) 玛格特·罗比
  电影类 最好男配角(提名) 布拉德·皮特
  电影类 最好原创配乐 贾斯汀·赫维兹
  第76届英国电影学院奖 (2023)
  电影奖 最好打扮设想(提名) 玛丽·索弗瑞斯
  电影奖 最好艺术指导 弗洛伦西亚·马丁,安东尼·卡尔利诺
  电影奖 最好原创配乐(提名) 贾斯汀·赫维兹
  第29届美国演员工会奖 (2023)
  电影奖 最好群戏(提名)
  1. Video
  2. ID : 1
  3. Format : HEVC
  4. Format/Info : High Efficiency Video Coding
  5. Format profile : Main 10@L5.1@High
  6. HDR format : Dolby Vision, Version 1.0, dvhe.08.06, BL+RPU, HDR10 compatible / SMPTE ST 2086, HDR10 compatible
  7. Codec ID : V_MPEGH/ISO/HEVC
  8. Duration : 3 h 8 min
  9. Bit rate : 32.9 Mb/s
  10. Width : 3 840 pixels
  11. Height : 1 608 pixels
  12. Display aspect ratio : 2.40:1
  13. Frame rate mode : Constant
  14. Frame rate : 23.976 (24000/1001) FPS
  15. Color space : YUV
  16. Chroma subsampling : 4:2:0 (Type 2)
  17. Bit depth : 10 bits
  18. Bits/(Pixel*Frame) : 0.223
  19. Stream size : 43.5 GiB (88%)
  20. Writing library : x265 3.5+95-38cf1c379:[Windows][MSVC 1900][64 bit] 10bit
  21. Encoding settings : cpuid=1111039 / frame-threads=5 / numa-pools=32 / wpp / no-pmode / no-pme / no-psnr / no-ssim / log-level=2 / input-csp=1 / input-res=3840x1608 / interlace=0 / total-frames=271774 / level-idc=51 / high-tier=1 / uhd-bd=0 / ref=4 / no-allow-non-conformance / repeat-headers / annexb / aud / no-eob / no-eos / hrd / info / hash=0 / temporal-layers=0 / no-open-gop / min-keyint=23 / keyint=250 / gop-lookahead=0 / bframes=4 / b-adapt=2 / b-pyramid / bframe-bias=0 / rc-lookahead=25 / lookahead-slices=4 / scenecut=40 / no-hist-scenecut / radl=0 / no-splice / no-intra-refresh / ctu=64 / min-cu-size=8 / rect / no-amp / max-tu-size=32 / tu-inter-depth=1 / tu-intra-depth=1 / limit-tu=0 / rdoq-level=2 / dynamic-rd=0.00 / no-ssim-rd / signhide / no-tskip / nr-intra=0 / nr-inter=0 / no-constrained-intra / no-strong-intra-smoothing / max-merge=3 / limit-refs=3 / limit-modes / me=3 / subme=3 / merange=57 / temporal-mvp / no-frame-dup / no-hme / weightp / no-weightb / no-analyze-src-pics / deblock=-3:-3 / no-sao / no-sao-non-deblock / rd=4 / selective-sao=0 / no-early-skip / rskip / no-fast-intra / no-tskip-fast / no-cu-lossless / no-b-intra / no-splitrd-skip / rdpenalty=0 / psy-rd=2.00 / psy-rdoq=1.00 / no-rd-refine / no-lossless / cbqpoffs=0 / crqpoffs=0 / rc=crf / crf=15.0 / qcomp=0.60 / qpstep=4 / stats-write=0 / stats-read=0 / vbv-maxrate=160000 / vbv-bufsize=160000 / vbv-init=0.9 / min-vbv-fullness=50.0 / max-vbv-fullness=80.0 / crf-max=0.0 / crf-min=0.0 / ipratio=1.40 / pbratio=1.30 / aq-mode=2 / aq-strength=1.00 / cutree / zone-count=0 / no-strict-cbr / qg-size=32 / no-rc-grain / qpmax=69 / qpmin=0 / no-const-vbv / sar=1 / overscan=0 / videoformat=5 / range=0 / colorprim=9 / transfer=16 / colormatrix=9 / chromaloc=1 / chromaloc-top=2 / chromaloc-bottom=2 / display-window=0 / master-display=G(13250,34500)B(7500,3000)R(34000,16000)WP(15635,16450)L(10000000,01) / cll=2755,400 / min-luma=0 / max-luma=1023 / log2-max-poc-lsb=8 / vui-timing-info / vui-hrd-info / slices=1 / no-opt-qp-pps / no-opt-ref-list-length-pps / no-multi-pass-opt-rps / scenecut-bias=0.05 / no-opt-cu-delta-qp / no-aq-motion / hdr10 / hdr10-opt / no-dhdr10-opt / no-idr-recovery-sei / analysis-reuse-level=0 / analysis-save-reuse-level=0 / analysis-load-reuse-level=0 / scale-factor=0 / refine-intra=0 / refine-inter=0 / refine-mv=1 / refine-ctu-distortion=0 / no-limit-sao / ctu-info=0 / no-lowpass-dct / refine-analysis-type=0 / copy-pic=1 / max-ausize-factor=1.0 / no-dynamic-refine / no-single-sei / no-hevc-aq / no-svt / no-field / qp-adaptation-range=1.00 / scenecut-aware-qp=0conformance-window-offsets / right=0 / bottom=0 / decoder-max-rate=0 / no-vbv-live-multi-pass / no-mcstf / no-sbrc
  22. Default : Yes
  23. Forced : No
  24. Color range : Limited
  25. Color primaries : BT.2020
  26. Transfer characteristics : PQ
  27. Matrix coefficients : BT.2020 non-constant
  28. Mastering display color primaries : Display P3
  29. Mastering display luminance : min: 0.0001 cd/m2, max: 1000 cd/m2
  30. Maximum Content Light Level : 2755 cd/m2
  31. Maximum Frame-Average Light Level : 400 cd/m2
  32. Audio #1
  33. ID : 2
  34. ID in the original source medium : 4352 (0x1100)
  35. Format : MLP FBA 16-ch
  36. Format/Info : Meridian Lossless Packing FBA with 16-channel presentation
  37. Commercial name : Dolby TrueHD with Dolby Atmos
  38. Codec ID : A_TRUEHD
  39. Duration : 3 h 8 min
  40. Bit rate mode : Variable
  41. Bit rate : 3 526 kb/s
  42. Maximum bit rate : 6 429 kb/s
  43. Channel(s) : 8 channels
  44. Channel layout : L R C LFE Ls Rs Lb Rb
  45. Sampling rate : 48.0 kHz
  46. Frame rate : 1 200.000 FPS (40 SPF)
  47. Bit depth : 24 bits
  48. Compression mode : Lossless
  49. Stream size : 4.65 GiB (9%)
  50. Title : Surround 7.1
  51. Language : English
  52. Default : Yes
  53. Forced : No
  54. Original source medium : Blu-ray
  55. Number of dynamic objects : 11
  56. Bed channel count : 1 channel
  57. Bed channel configuration : LFE
  58. Audio #2
  59. ID : 3
  60. ID in the original source medium : 4352 (0x1100)
  61. Format : AC-3
  62. Format/Info : Audio Coding 3
  63. Commercial name : Dolby Digital
  64. Format settings : Dolby Surround EX
  65. Codec ID : A_AC3
  66. Duration : 3 h 8 min
  67. Bit rate mode : Constant
  68. Bit rate : 640 kb/s
  69. Channel(s) : 6 channels
  70. Channel layout : L R C LFE Ls Rs
  71. Sampling rate : 48.0 kHz
  72. Frame rate : 31.250 FPS (1536 SPF)
  73. Compression mode : Lossy
  74. Stream size : 865 MiB (2%)
  75. Title : Surround 5.1
  76. Language : English
  77. Service kind : Complete Main
  78. Default : No
  79. Forced : No
  80. Original source medium : Blu-ray
  81. Text #1
  82. ID : 4
  83. Format : UTF-8
  84. Codec ID : S_TEXT/UTF8
  85. Codec ID/Info : UTF-8 Plain Text
  86. Duration : 2 h 48 min
  87. Bit rate : 0 b/s
  88. Frame rate : 0.004 FPS
  89. Count of elements : 43
  90. Stream size : 983 Bytes (0%)
  91. Title : forced srt
  92. Language : English
  93. Default : Yes
  94. Forced : Yes
  95. Text #2
  96. ID : 5
  97. ID in the original source medium : 4768 (0x12A0)
  98. Format : PGS
  99. Muxing mode : zlib
  100. Codec ID : S_HDMV/PGS
  101. Codec ID/Info : Picture based subtitle format used on BDs/HD-DVDs
  102. Duration : 2 h 57 min
  103. Bit rate : 39.2 kb/s
  104. Frame rate : 0.416 FPS
  105. Count of elements : 4427
  106. Stream size : 49.7 MiB (0%)
  107. Language : English
  108. Default : No
  109. Forced : No
  110. Original source medium : Blu-ray
  111. Text #3
  112. ID : 6
  113. ID in the original source medium : 4768 (0x12A0)
  114. Format : PGS
  115. Muxing mode : zlib
  116. Codec ID : S_HDMV/PGS
  117. Codec ID/Info : Picture based subtitle format used on BDs/HD-DVDs
  118. Duration : 2 h 48 min
  119. Bit rate : 499 b/s
  120. Frame rate : 0.007 FPS
  121. Count of elements : 71
  122. Stream size : 618 KiB (0%)
  123. Title : forced
  124. Language : English
  125. Default : No
  126. Forced : No
  127. Original source medium : Blu-ray
  128. Text #4
  129. ID : 7
  130. ID in the original source medium : 4769 (0x12A1)
  131. Format : PGS
  132. Muxing mode : zlib
  133. Codec ID : S_HDMV/PGS
  134. Codec ID/Info : Picture based subtitle format used on BDs/HD-DVDs
  135. Duration : 2 h 57 min
  136. Bit rate : 46.2 kb/s
  137. Frame rate : 0.507 FPS
  138. Count of elements : 5409
  139. Stream size : 58.8 MiB (0%)
  140. Language : English
  141. Default : No
  142. Forced : No
  143. Original source medium : Blu-ray
  144. Text #5
  145. ID : 8
  146. ID in the original source medium : 4770 (0x12A2)
  147. Format : PGS
  148. Muxing mode : zlib
  149. Codec ID : S_HDMV/PGS
  150. Codec ID/Info : Picture based subtitle format used on BDs/HD-DVDs
  151. Duration : 3 h 8 min
  152. Bit rate : 29.5 kb/s
  153. Frame rate : 0.402 FPS
  154. Count of elements : 4550
  155. Stream size : 39.8 MiB (0%)
  156. Language : Chinese
  157. Default : No
  158. Forced : No
  159. Original source medium : Blu-ray
  160. Text #6
  161. ID : 9
  162. ID in the original source medium : 4771 (0x12A3)
  163. Format : PGS
  164. Muxing mode : zlib
  165. Codec ID : S_HDMV/PGS
  166. Codec ID/Info : Picture based subtitle format used on BDs/HD-DVDs
  167. Duration : 3 h 8 min
  168. Bit rate : 32.4 kb/s
  169. Frame rate : 0.396 FPS
  170. Count of elements : 4477
  171. Stream size : 43.7 MiB (0%)
  172. Language : Danish
  173. Default : No
  174. Forced : No
  175. Original source medium : Blu-ray
  176. Text #7
  177. ID : 10
  178. ID in the original source medium : 4772 (0x12A4)
  179. Format : PGS
  180. Muxing mode : zlib
  181. Codec ID : S_HDMV/PGS
  182. Codec ID/Info : Picture based subtitle format used on BDs/HD-DVDs
  183. Duration : 3 h 8 min
  184. Bit rate : 33.1 kb/s
  185. Frame rate : 0.376 FPS
  186. Count of elements : 4259
  187. Stream size : 44.6 MiB (0%)
  188. Language : Spanish
  189. Default : No
  190. Forced : No
  191. Original source medium : Blu-ray
  192. Text #8
  193. ID : 11
  194. ID in the original source medium : 4772 (0x12A4)
  195. Format : PGS
  196. Muxing mode : zlib
  197. Codec ID : S_HDMV/PGS
  198. Codec ID/Info : Picture based subtitle format used on BDs/HD-DVDs
  199. Duration : 3 h 8 min
  200. Bit rate : 960 b/s
  201. Frame rate : 0.011 FPS
  202. Count of elements : 123
  203. Stream size : 1.30 MiB (0%)
  204. Language : Spanish
  205. Default : No
  206. Forced : No
  207. Original source medium : Blu-ray
  208. Text #9
  209. ID : 12
  210. ID in the original source medium : 4773 (0x12A5)
  211. Format : PGS
  212. Muxing mode : zlib
  213. Codec ID : S_HDMV/PGS
  214. Codec ID/Info : Picture based subtitle format used on BDs/HD-DVDs
  215. Duration : 3 h 8 min
  216. Bit rate : 34.8 kb/s
  217. Frame rate : 0.399 FPS
  218. Count of elements : 4513
  219. Stream size : 47.0 MiB (0%)
  220. Language : French
  221. Default : No
  222. Forced : No
  223. Original source medium : Blu-ray
  224. Text #10
  225. ID : 13
  226. ID in the original source medium : 4773 (0x12A5)
  227. Format : PGS
  228. Muxing mode : zlib
  229. Codec ID : S_HDMV/PGS
  230. Codec ID/Info : Picture based subtitle format used on BDs/HD-DVDs
  231. Duration : 3 h 8 min
  232. Bit rate : 1 320 b/s
  233. Frame rate : 0.018 FPS
  234. Count of elements : 205
  235. Stream size : 1.78 MiB (0%)
  236. Language : French
  237. Default : No
  238. Forced : No
  239. Original source medium : Blu-ray
  240. Text #11
  241. ID : 14
  242. ID in the original source medium : 4774 (0x12A6)
  243. Format : PGS
  244. Muxing mode : zlib
  245. Codec ID : S_HDMV/PGS
  246. Codec ID/Info : Picture based subtitle format used on BDs/HD-DVDs
  247. Duration : 3 h 8 min
  248. Bit rate : 24.2 kb/s
  249. Frame rate : 0.399 FPS
  250. Count of elements : 4516
  251. Stream size : 32.6 MiB (0%)
  252. Language : Korean
  253. Default : No
  254. Forced : No
  255. Original source medium : Blu-ray
  256. Text #12
  257. ID : 15
  258. ID in the original source medium : 4775 (0x12A7)
  259. Format : PGS
  260. Muxing mode : zlib
  261. Codec ID : S_HDMV/PGS
  262. Codec ID/Info : Picture based subtitle format used on BDs/HD-DVDs
  263. Duration : 3 h 8 min
  264. Bit rate : 28.9 kb/s
  265. Frame rate : 0.400 FPS
  266. Count of elements : 4532
  267. Stream size : 39.0 MiB (0%)
  268. Language : Chinese
  269. Default : No
  270. Forced : No
  271. Original source medium : Blu-ray
  272. Text #13
  273. ID : 16
  274. ID in the original source medium : 4776 (0x12A8)
  275. Format : PGS
  276. Muxing mode : zlib
  277. Codec ID : S_HDMV/PGS
  278. Codec ID/Info : Picture based subtitle format used on BDs/HD-DVDs
  279. Duration : 3 h 8 min
  280. Bit rate : 31.6 kb/s
  281. Frame rate : 0.389 FPS
  282. Count of elements : 4401
  283. Stream size : 42.7 MiB (0%)
  284. Language : Norwegian
  285. Default : No
  286. Forced : No
  287. Original source medium : Blu-ray
  288. Text #14
  289. ID : 17
  290. ID in the original source medium : 4777 (0x12A9)
  291. Format : PGS
  292. Muxing mode : zlib
  293. Codec ID : S_HDMV/PGS
  294. Codec ID/Info : Picture based subtitle format used on BDs/HD-DVDs
  295. Duration : 3 h 8 min
  296. Bit rate : 34.9 kb/s
  297. Frame rate : 0.392 FPS
  298. Count of elements : 4421
  299. Stream size : 47.0 MiB (0%)
  300. Language : Finnish
  301. Default : No
  302. Forced : No
  303. Original source medium : Blu-ray
  304. Text #15
  305. ID : 18
  306. ID in the original source medium : 4778 (0x12AA)
  307. Format : PGS
  308. Muxing mode : zlib
  309. Codec ID : S_HDMV/PGS
  310. Codec ID/Info : Picture based subtitle format used on BDs/HD-DVDs
  311. Duration : 3 h 8 min
  312. Bit rate : 27.5 kb/s
  313. Frame rate : 0.328 FPS
  314. Count of elements : 3713
  315. Stream size : 37.1 MiB (0%)
  316. Language : Swedish
  317. Default : No
  318. Forced : No
  319. Original source medium : Blu-ray
  320. Text #16
  321. ID : 19
  322. ID in the original source medium : 4779 (0x12AB)
  323. Format : PGS
  324. Muxing mode : zlib
  325. Codec ID : S_HDMV/PGS
  326. Codec ID/Info : Picture based subtitle format used on BDs/HD-DVDs
  327. Duration : 3 h 8 min
  328. Bit rate : 29.7 kb/s
  329. Frame rate : 0.401 FPS
  330. Count of elements : 4536
  331. Stream size : 40.1 MiB (0%)
  332. Language : Thai
  333. Default : No
  334. Forced : No
  335. Original source medium : Blu-ray
  336. Menu
  337. 00:00:00.000 : en:Chapter 01
  338. 00:08:33.179 : en:Chapter 02
  339. 00:14:09.306 : en:Chapter 03
  340. 00:24:44.941 : en:Chapter 04
  341. 00:31:52.201 : en:Chapter 05
  342. 00:40:23.003 : en:Chapter 06
  343. 00:54:44.531 : en:Chapter 07
  344. 01:00:53.232 : en:Chapter 08
  345. 01:11:45.968 : en:Chapter 09
  346. 01:23:12.487 : en:Chapter 10
  347. 01:37:00.147 : en:Chapter 11
  348. 01:48:28.126 : en:Chapter 12
  349. 01:58:41.781 : en:Chapter 13
  350. 02:07:15.252 : en:Chapter 14
  351. 02:12:12.674 : en:Chapter 15
  352. 02:19:42.832 : en:Chapter 16
  353. 02:33:13.893 : en:Chapter 17
  354. 02:38:30.334 : en:Chapter 18
  355. 02:50:08.239 : en:Chapter 19
  356. 03:00:47.878 : en:Chapter 20
复制代码











Babylon.2022.2160p.UHD.BluRay.x265.10bit.HDR.TrueHD.7.1.Atmos-STRiKES.torrent (62.95 KB, 下载次数: 2, 售价: 2 枚蓝光币)
回复

使用道具 举报

懒得打字嘛,点击右侧快捷回复 【右侧内容,后台自定义】
您需要登录后才可以回帖 登录 | 立即注册

本版积分规则

Archiver|手机版|小黑屋| 中国高清网  |网站地图

GMT+8, 2024-4-13 20:29 , Processed in 0.498946 second(s), 27 queries .

Powered by HDchina X3.4

Copyright 2017-2019©HDchina.All right reserved

返回顶部 联系我们