查看: 833|回复: 0

[2160p] 血战钢锯岭.Hacksaw.Ridge.2016.2160p.UHD.BluRay.x265.10bit.HDR.DDP5.1.Atmos-RARBG 8.55GB

[复制链接]
蓝光币
8414 枚
发表于 2023-3-19 07:26:01 | 显示全部楼层 |阅读模式


◎译  名 血战钢锯岭 / 钢铁豪杰(台) / 钢锯岭 / The Conscientious Objector
◎片  名 Hacksaw Ridge
◎年  代 2016
◎产  地 澳大利亚 / 美国
◎类  别 剧情 / 列传 / 历史 / 战争
◎语  言 英语 / 日语
◎上映日期 2016-09-04(威尼斯电影节) / 2016-11-04(美国) / 2016-12-08(中国大陆)
◎IMDb评星  ★★★★★★★★☆☆
◎IMDb评分  8.1/10 from 540,192 users
◎IMDb链接  https://www.imdb.com/title/tt2119532/
◎豆瓣评星 ★★★★✦
◎豆瓣评分 8.7/10 from 767,644 users
◎豆瓣链接 https://movie.douban.com/subject/26325320/
◎片  长 139分钟(中国大陆) / 140分钟(美国)
◎导  演 梅尔·吉布森 / Mel Gibson
◎演  员 安德鲁·加菲尔德 / Andrew Garfield | 饰 Desmond Doss
      萨姆·沃辛顿 / Sam Worthington | 饰 Captain Glover
      文斯·沃恩 / Vince Vaughn | 饰 Sgt Howell
      雨果·维文 / Hugo Weaving | 饰 Tom Doss
      卢克·布雷西 / Luke Bracey | 饰 Smitty Ryker
      泰莉莎·帕尔墨 / Teresa Palmer
      瑞切尔·格里菲斯 / Rachel Griffiths | 饰 Bertha Doss
      内森奈尔·布佐里克 / Nathaniel Buzolic | 饰 Harold 'Hal' Doss
      理查德·劳斯伯格 / Richard Roxburgh | 饰 Colonel Stelzer
      马特·纳夫莱 / Matt Nable | 饰 Lt Colonel Cooney
      费拉斯·迪拉尼 / Firass Dirani | 饰 Vito Rinnelli
      瑞安·柯尔 / Ryan Corr | 饰 Lieutenant Manville
      卢克·佩格勒 / Luke Pegler | 饰 Hollywood Zane
      詹姆斯·麦凯 / James Mackay
      罗伯特·摩根 / Robert Morgan
      麦克·西斯比 / Michael Sheasby
      拉斐尔·杜布瓦 / Raphael Dubois
      托马斯·昂格 / Thomas Unger | 饰 Stretcher Bearer
      米洛·吉布森 / Milo Gibson | 饰 Lucky Ford
      亚当·鲍斯 / Adam Bowes
      赫尔穆特·巴凯蒂斯 / Helmut Bakaitis | 饰 Minister
      戈兰·D·克鲁特 / Goran D. Kleut | 饰 Ghoul
      哈里·格林伍德 / Harry Greenwood | 饰 Henry Brown
      本·奥图尔 / Ben O'Toole | 饰 Corporal Jessop
◎编  剧 安德鲁·奈特 / Andrew Knight
      罗伯特·申坎 / Robert Schenkkan
◎制  片  人 大卫·佩穆特 / David Permut
      韩薇 / Wei Han
◎音  乐 鲁伯特·格雷格森-威廉姆斯 / Rupert Gregson-Williams
◎摄  影 西蒙·达根 / Simon Duggan
◎服  装 丽兹·加德纳 / Lizzy Gardiner
◎化  妆 夏恩·托马斯 / Shane Thomas
◎音  效 凯文·奥康奈尔 / Kevin O'Connell
◎简  介 
  1945年,第二次天下大战接近序幕,作为邪恶轴心重要成员的日本,其猖狂态势已成强弩之末。是年,决议战局走向的冲绳岛战争拉开序幕,不计其数斗志高昂的美国大兵被派往冲绳,期待他们的则是敌军重兵戍守、凶恶异常的钢锯岭。在这群人中心,却有一个不愿拿起兵器的军医。他名叫戴斯蒙德·道斯(安德鲁·加菲尔德 Andrew Garfield 饰),来自美国的弗吉尼亚。承平洋爆发之际,消瘦的戴斯蒙德自愿成为治病救人的军医而应征参军。可因童年和家庭的缘由,他始终不愿拿起枪枝练习,为此宁愿背上拒服兵役的罪名被送上军事法庭。几经周折,戴斯蒙德终极和战友来到了钢锯岭。枪林弹雨,转眼之间无数人回声倒地。在信仰和信心的支持下,戴斯蒙德仅凭一己之力拯救了数十条濒死的生命……
  本片按照真人真事改编。
◎获奖情况 
  第89届奥斯卡金像奖 (2017)
  最好影片(提名) 比尔·麦克尼柯,大卫·佩穆特
  最好导演(提名) 梅尔·吉布森
  最好男配角(提名) 安德鲁·加菲尔德
  最好剪辑 约翰·吉尔伯特
  最好混音 彼得·格雷斯,安迪·赖特,凯文·奥康奈尔,罗伯特·麦肯齐
  最好音效剪辑(提名) 安迪·赖特,罗伯特·麦肯齐
  第74届金球奖 (2017)
  电影类 最好剧情片(提名)
  电影类 最好导演(提名) 梅尔·吉布森
  电影类 剧情片最好男配角(提名) 安德鲁·加菲尔德
  第70届英国电影学院奖 (2017)
  电影奖 最好男配角(提名) 安德鲁·加菲尔德
  电影奖 最好改编剧本(提名) 罗伯特·申坎,安德鲁·奈特
  电影奖 最好剪辑 约翰·吉尔伯特
  电影奖 最好化装/发型(提名) 夏恩·托马斯
  电影奖 最好音效(提名) 凯文·奥康奈尔,安迪·赖特,彼得·格雷斯,罗伯特·麦肯齐
  第37届金酸莓奖 (2017)
  最好赎莓奖 梅尔·吉布森
  第23届美国演员工会奖 (2017)
  电影奖 最好男配角(提名) 安德鲁·加菲尔德
  电影最好特技群戏
  第28届美国制片野生会奖 (2017)
  最好电影制片人奖(提名)
  第67届美国剪辑工会奖 (2017)
  剧情片最好剪辑(提名)
  第21届美国艺术指导工会奖 (2017)
  电影奖 最好历史电影艺术指导(提名)
  第53届美国声音结果协会奖 (2017)
  真人电影最好音效(提名)
  第88届美国国家批评协会奖 (2016)
  年度佳片(提名)
  第22届美国批评家挑选电影奖 (2017)
  最好影片(提名)
  最好导演(提名) 梅尔·吉布森
  最好男配角(提名) 安德鲁·加菲尔德
  最好行动片
  行动片最好男配角 安德鲁·加菲尔德
  最好剪辑(提名)
  最好发型化装(提名)
  第17届美国电影学会奖 (2016)
  年度佳片
  第21届金卫星奖 (2017)
  电影部分 最好剧情片(提名)
  电影部分 最好导演(提名) 梅尔·吉布森
  电影部分 剧情片最好男配角 安德鲁·加菲尔德
  电影部分 最好改编剧本(提名) 罗伯特·申坎,安德鲁·奈特
  电影部分 最好原创配乐(提名) 鲁伯特·格雷格森-威廉姆斯
  电影部分 最好摄影(提名) 西蒙·达根
  电影部分 最好剪辑 约翰·吉尔伯特
  电影部分 最好音效 凯文·奥康奈尔,安迪·赖特,彼得·格雷斯,罗伯特·麦肯齐
  电影部分 最好美术指导(提名) 巴里·罗比森
  第20届好莱坞电影奖 (2016)
  年度导演 梅尔·吉布森
  年度剪辑 约翰·吉尔伯特
  年度化装
  第15届华盛顿影评人协会奖 (2016)
  最好男配角(提名) 安德鲁·加菲尔德
  第37届伦敦影评人协会奖 (2017)
  年度男配角(提名) 安德鲁·加菲尔德
  年度英国/爱尔兰男演员 安德鲁·加菲尔德
  1. Video
  2. ID : 1
  3. Format : HEVC
  4. Format/Info : High Efficiency Video Coding
  5. Format profile : Main 10@L5.1@Main
  6. HDR format : SMPTE ST 2086, HDR10 compatible
  7. Codec ID : V_MPEGH/ISO/HEVC
  8. Duration : 2 h 19 min
  9. Bit rate : 8 018 kb/s
  10. Width : 3 840 pixels
  11. Height : 1 612 pixels
  12. Display aspect ratio : 2.40:1
  13. Frame rate mode : Constant
  14. Frame rate : 23.976 (24000/1001) FPS
  15. Color space : YUV
  16. Chroma subsampling : 4:2:0
  17. Bit depth : 10 bits
  18. Bits/(Pixel*Frame) : 0.054
  19. Stream size : 7.80 GiB (91%)
  20. Writing library : x265 3.5+rarbg-HDR-38-20255e6:[Linux][clang 16.0.0][64 bit] 10bit
  21. Encoding settings : cpuid=1111039 / frame-threads=6 / wpp / no-pmode / no-pme / no-psnr / no-ssim / log-level=2 / input-csp=1 / input-res=3840x1612 / interlace=0 / total-frames=0 / level-idc=51 / high-tier=1 / uhd-bd=0 / ref=4 / no-allow-non-conformance / repeat-headers / annexb / aud / no-eob / no-eos / no-hrd / info / hash=0 / no-temporal-layers / no-open-gop / min-keyint=1 / keyint=24 / gop-lookahead=0 / bframes=4 / b-adapt=2 / b-pyramid / bframe-bias=0 / rc-lookahead=25 / lookahead-slices=4 / scenecut=40 / no-hist-scenecut / radl=0 / no-splice / no-intra-refresh / ctu=64 / min-cu-size=8 / rect / no-amp / max-tu-size=32 / tu-inter-depth=1 / tu-intra-depth=1 / limit-tu=0 / rdoq-level=2 / dynamic-rd=0.00 / no-ssim-rd / signhide / no-tskip / nr-intra=0 / nr-inter=0 / no-constrained-intra / strong-intra-smoothing / max-merge=3 / limit-refs=3 / no-limit-modes / me=3 / subme=3 / merange=57 / temporal-mvp / no-frame-dup / no-hme / weightp / no-weightb / no-analyze-src-pics / deblock=0:0 / no-sao / no-sao-non-deblock / rd=4 / selective-sao=0 / no-early-skip / rskip / no-fast-intra / no-tskip-fast / no-cu-lossless / no-b-intra / no-splitrd-skip / rdpenalty=0 / psy-rd=2.00 / psy-rdoq=1.00 / no-rd-refine / no-lossless / cbqpoffs=0 / crqpoffs=0 / rc=abr / bitrate=8000 / qcomp=0.60 / qpstep=4 / stats-write=0 / stats-read=2 / cplxblur=20.0 / qblur=0.5 / ipratio=1.40 / pbratio=1.30 / aq-mode=1 / aq-strength=1.00 / cutree / zone-count=0 / no-strict-cbr / qg-size=32 / no-rc-grain / qpmax=69 / qpmin=0 / no-const-vbv / sar=1 / overscan=0 / videoformat=5 / range=0 / colorprim=9 / transfer=16 / colormatrix=9 / chromaloc=0 / display-window=0 / master-display=G(13250,34500)B(7500,3000)R(34000,16000)WP(15635,16450)L(10000000,0) / cll=1000,321 / min-luma=0 / max-luma=1023 / log2-max-poc-lsb=8 / vui-timing-info / vui-hrd-info / slices=1 / no-opt-qp-pps / no-opt-ref-list-length-pps / no-multi-pass-opt-rps / scenecut-bias=0.05 / hist-threshold=0.03 / no-opt-cu-delta-qp / no-aq-motion / hdr10 / hdr10-opt / no-dhdr10-opt / no-idr-recovery-sei / analysis-reuse-level=0 / analysis-save-reuse-level=0 / analysis-load-reuse-level=0 / scale-factor=0 / refine-intra=0 / refine-inter=0 / refine-mv=1 / refine-ctu-distortion=0 / no-limit-sao / ctu-info=0 / no-lowpass-dct / refine-analysis-type=0 / copy-pic=1 / max-ausize-factor=1.0 / no-dynamic-refine / no-single-sei / no-hevc-aq / no-svt / no-field / qp-adaptation-range=1.00 / scenecut-aware-qp=0conformance-window-offsets / right=0 / bottom=0 / decoder-max-rate=0 / no-vbv-live-multi-pass
  22. Default : Yes
  23. Forced : No
  24. Color range : Limited
  25. Color primaries : BT.2020
  26. Transfer characteristics : PQ
  27. Matrix coefficients : BT.2020 non-constant
  28. Mastering display color primaries : Display P3
  29. Mastering display luminance : min: 0.0000 cd/m2, max: 1000 cd/m2
  30. Maximum Content Light Level : 1000 cd/m2
  31. Maximum Frame-Average Light Level : 321 cd/m2
  32. Audio
  33. ID : 2
  34. Format : E-AC-3 JOC
  35. Format/Info : Enhanced AC-3 with Joint Object Coding
  36. Commercial name : Dolby Digital Plus with Dolby Atmos
  37. Codec ID : A_EAC3
  38. Duration : 2 h 19 min
  39. Bit rate mode : Constant
  40. Bit rate : 768 kb/s
  41. Channel(s) : 6 channels
  42. Channel layout : L R C LFE Ls Rs
  43. Sampling rate : 48.0 kHz
  44. Frame rate : 31.250 FPS (1536 SPF)
  45. Compression mode : Lossy
  46. Stream size : 765 MiB (9%)
  47. Title : English DDP Atmos 5.1
  48. Language : English
  49. Service kind : Complete Main
  50. Default : Yes
  51. Forced : No
  52. Complexity index : 16
  53. Number of dynamic objects : 15
  54. Bed channel count : 1 channel
  55. Bed channel configuration : LFE
  56. Text #1
  57. ID : 3
  58. Format : UTF-8
  59. Codec ID : S_TEXT/UTF8
  60. Codec ID/Info : UTF-8 Plain Text
  61. Duration : 2 h 10 min
  62. Bit rate : 47 b/s
  63. Frame rate : 0.169 FPS
  64. Count of elements : 1326
  65. Stream size : 45.7 KiB (0%)
  66. Title : English SRT
  67. Language : English
  68. Default : Yes
  69. Forced : No
  70. Text #2
  71. ID : 4
  72. Format : UTF-8
  73. Codec ID : S_TEXT/UTF8
  74. Codec ID/Info : UTF-8 Plain Text
  75. Duration : 2 h 10 min
  76. Bit rate : 55 b/s
  77. Frame rate : 0.209 FPS
  78. Count of elements : 1639
  79. Stream size : 52.8 KiB (0%)
  80. Title : English SDH SRT
  81. Language : English
  82. Default : No
  83. Forced : No
  84. Menu
  85. 00:00:00.000 : en:Chapter 01
  86. 00:09:18.766 : en:Chapter 02
  87. 00:18:41.995 : en:Chapter 03
  88. 00:26:34.509 : en:Chapter 04
  89. 00:33:00.561 : en:Chapter 05
  90. 00:40:04.151 : en:Chapter 06
  91. 00:50:07.212 : en:Chapter 07
  92. 00:57:01.543 : en:Chapter 08
  93. 01:04:21.649 : en:Chapter 09
  94. 01:17:49.956 : en:Chapter 10
  95. 01:23:58.700 : en:Chapter 11
  96. 01:31:21.726 : en:Chapter 12
  97. 01:39:02.811 : en:Chapter 13
  98. 01:46:07.569 : en:Chapter 14
  99. 01:59:48.306 : en:Chapter 15
  100. 02:07:13.292 : en:Chapter 16
  101. 02:19:18.391 : en:Chapter 17
复制代码











Hacksaw.Ridge.2016.2160p.UHD.BluRay.x265.10bit.HDR.DDP5.1.Atmos-RARBG.torrent (11.35 KB, 下载次数: 15, 售价: 2 枚蓝光币)
回复

使用道具 举报

懒得打字嘛,点击右侧快捷回复 【右侧内容,后台自定义】
您需要登录后才可以回帖 登录 | 立即注册

本版积分规则

Archiver|手机版|小黑屋| 中国高清网  |网站地图

GMT+8, 2024-4-13 22:39 , Processed in 0.471430 second(s), 27 queries .

Powered by HDchina X3.4

Copyright 2017-2019©HDchina.All right reserved

返回顶部 联系我们