查看: 764|回复: 0

[2160p] 死亡幻觉.Donnie.Darko.2001.DC.2160p.UHD.BluRay.x265.10bit.HDR.DDP5.1-RARBG 8.10GB

[复制链接]
蓝光币
8414 枚
发表于 2023-3-19 07:25:46 | 显示全部楼层 |阅读模式


◎译  名 灭亡幻觉 / 怵目惊魂28天(台) / 唐尼・达克
◎片  名 Donnie Darko
◎年  代 2001
◎产  地 美国
◎类  别 剧情 / 科幻 / 悬疑 / 惊悚
◎语  言 英语
◎上映日期 2001-01-19(圣丹斯电影节) / 2001-10-26(美国)
◎IMDb评星  ★★★★★★★★☆☆
◎IMDb评分  8.0/10 from 812,649 users
◎IMDb链接  https://www.imdb.com/title/tt0246578/
◎豆瓣评星 ★★★✦☆
◎豆瓣评分 7.3/10 from 79,778 users
◎豆瓣链接 https://movie.douban.com/subject/1306662/
◎片  长 113分钟 / 133分钟(导演剪辑版)
◎导  演 理查德·凯利 / Richard Kelly
◎演  员 杰克·吉伦哈尔 / Jake Gyllenhaal | 饰 丹尼•达可
      霍尔姆斯·奥斯本 / Holmes Osborne
      玛吉·吉伦哈尔 / Maggie Gyllenhaal
      黛维·切斯 / Daveigh Chase
      玛丽·麦克唐纳 / Mary McDonnell
      詹姆斯·杜瓦尔 / James Duval
      亚瑟·塔谢尔 / Arthur Taxier
      帕特里克·斯威兹 / Patrick Swayze
      大卫·圣.詹姆斯 / David St. James
      Tom Tangen Tom Tangen
      茱莲妮·普迪 / Jolene Purdy
      Alex Greenwald Alex Greenwald
      贝丝·格兰特 / Beth Grant
      吉娜·马隆 / Jena Malone | 饰 Gretchen Ross
      塞斯·罗根 / Seth Rogen
      诺亚·怀尔 / Noah Wyle
      德鲁·巴里摩尔 / Drew Barrymore
      Kristina Malota Kristina Malota
      Marina Malota Marina Malota
      泰勒·佩克 / Tiler Peck
      Patience Cleveland Patience Cleveland
      凯瑟琳·罗斯 / Katharine Ross | 饰 Dr. Lilian Thurman
      Jack Salvatore Jr. Jack Salvatore Jr.
      李韦弗 / Lee Weaver
      菲利斯·里昂斯 / Phyllis Lyons
      阿什丽·提斯代尔 / Ashley Tisdale
      杰瑞·特雷纳 / Jerry Trainor
      琼·布莱尔 / Joan Blair
      弗兰·克朗茨 / Fran Kranz
      史考蒂·莱文沃斯 / Scotty Leavenworth
      乔治·布什 / George Bush
      Michael Dukakis Michael Dukakis
      菲尔霍恩 / Phil Hawn
      南希·朱沃南 / Nancy Juvonen
      迪伊·奥斯汀·罗伯逊 / Dee Austin Robertson
      Jack Truman Jack Truman
◎编  剧 理查德·凯利 / Richard Kelly
◎制  片  人 德鲁·巴里摩尔 / Drew Barrymore
      南希·朱沃南 / Nancy Juvonen
◎音  乐 迈克尔·安德鲁斯 / Michael Andrews
◎摄  影 Steven Poster Steven Poster
◎选  角 约瑟夫·米德尔顿 / Joseph Middleton
      Michelle Morris Michelle Morris
◎服  装 艾珀尔·费里 / April Ferry
◎化  妆 Cammy R. Langer Cammy R. Langer
      洛瑞·麦考伊-贝尔 / Lori McCoy-Bell
      芭芭拉·奥尔维拉 / Barbara Olvera
      林恩·巴伯 / Lynn Barber
      金伯利·格雷尼 / Kimberly Greene
◎视觉殊效 Dennis Fitzsimmons Dennis Fitzsimmons
      Christopher Dusendschon Christopher Dusendschon
      D·瓦尔特·卡梅伦 / D. Walt Cameron
      David Alexander David Alexander
      Ken Locsmandi Ken Locsmandi
      R. Christopher Biggs R. Christopher Biggs
      Kelly Carlton Kelly Carlton
◎其  它 丹尼·艾夫曼 / Danny Elfman
◎简  介 
  丹尼•达可(杰克•盖伦霍尔 饰)得了精神疾病,某天晚  上他遭到莫名的呼唤,梦游,也是以回避了一架飞机坠落在他房间天花板上,这样匪夷所思的变乱。
  自此今后,他的生活就发生了变化,频频出现幻觉,他经常看见一个兔人弗兰克,后者告诉他天下将在28天6小时48分12秒今后扑灭;他获得了一本书,《时空观光奥义书》,对书中提到的时空观光、离线宇宙发生了激烈的猎奇。
  随着天下末日的邻近,杰克的生活越来约诡异,他新熟悉的女朋友和家人也被卷了进去。看来,杰克想实现拯救天下的愿望,需要支出更多的价格。
◎幕后揭秘
  一部诡异的电影,不到影片最初一刻观众是底子没法猜测到终局。影片描写了16岁的唐尼在一次飞机引擎坠毁在家中后,眼前便经常出现一只凶眼兔人,奉告天下末日在28天后到临,唐尼自此天天惶惑不安,眼前经常出现幻觉,举止行为也变的希奇起来。随着天下末日的邻近,唐尼决议寻觅时光地道回到不会令他恐惧的曩昔。本片是一部没有答案的电影,片中留下了很多的悬念和疑问留待观众自己去档次,也可算是一部超现实题材的影片。
  1. Video
  2. ID : 1
  3. Format : HEVC
  4. Format/Info : High Efficiency Video Coding
  5. Format profile : Main 10@L5.1@Main
  6. HDR format : SMPTE ST 2086, HDR10 compatible
  7. Codec ID : V_MPEGH/ISO/HEVC
  8. Duration : 2 h 13 min
  9. Bit rate : 8 020 kb/s
  10. Width : 3 840 pixels
  11. Height : 1 632 pixels
  12. Display aspect ratio : 2.35:1
  13. Frame rate mode : Constant
  14. Frame rate : 23.976 (24000/1001) FPS
  15. Color space : YUV
  16. Chroma subsampling : 4:2:0
  17. Bit depth : 10 bits
  18. Bits/(Pixel*Frame) : 0.053
  19. Stream size : 7.50 GiB (93%)
  20. Writing library : x265 3.5+rarbg-HDR-38-20255e6:[Linux][clang 16.0.0][64 bit] 10bit
  21. Encoding settings : cpuid=1111039 / frame-threads=6 / wpp / no-pmode / no-pme / no-psnr / no-ssim / log-level=2 / input-csp=1 / input-res=3840x1632 / interlace=0 / total-frames=0 / level-idc=51 / high-tier=1 / uhd-bd=0 / ref=4 / no-allow-non-conformance / repeat-headers / annexb / aud / no-eob / no-eos / no-hrd / info / hash=0 / no-temporal-layers / no-open-gop / min-keyint=1 / keyint=24 / gop-lookahead=0 / bframes=4 / b-adapt=2 / b-pyramid / bframe-bias=0 / rc-lookahead=25 / lookahead-slices=4 / scenecut=40 / no-hist-scenecut / radl=0 / no-splice / no-intra-refresh / ctu=64 / min-cu-size=8 / rect / no-amp / max-tu-size=32 / tu-inter-depth=1 / tu-intra-depth=1 / limit-tu=0 / rdoq-level=2 / dynamic-rd=0.00 / no-ssim-rd / signhide / no-tskip / nr-intra=0 / nr-inter=0 / no-constrained-intra / strong-intra-smoothing / max-merge=3 / limit-refs=3 / no-limit-modes / me=3 / subme=3 / merange=57 / temporal-mvp / no-frame-dup / no-hme / weightp / no-weightb / no-analyze-src-pics / deblock=0:0 / no-sao / no-sao-non-deblock / rd=4 / selective-sao=0 / no-early-skip / rskip / no-fast-intra / no-tskip-fast / no-cu-lossless / no-b-intra / no-splitrd-skip / rdpenalty=0 / psy-rd=2.00 / psy-rdoq=1.00 / no-rd-refine / no-lossless / cbqpoffs=0 / crqpoffs=0 / rc=abr / bitrate=8000 / qcomp=0.60 / qpstep=4 / stats-write=0 / stats-read=2 / cplxblur=20.0 / qblur=0.5 / ipratio=1.40 / pbratio=1.30 / aq-mode=1 / aq-strength=1.00 / cutree / zone-count=0 / no-strict-cbr / qg-size=32 / no-rc-grain / qpmax=69 / qpmin=0 / no-const-vbv / sar=1 / overscan=0 / videoformat=5 / range=0 / colorprim=9 / transfer=16 / colormatrix=9 / chromaloc=0 / display-window=0 / master-display=G(8500,39850)B(6550,2300)R(35400,14600)WP(15635,16450)L(10000000,1) / cll=0,0 / min-luma=0 / max-luma=1023 / log2-max-poc-lsb=8 / vui-timing-info / vui-hrd-info / slices=1 / no-opt-qp-pps / no-opt-ref-list-length-pps / no-multi-pass-opt-rps / scenecut-bias=0.05 / hist-threshold=0.03 / no-opt-cu-delta-qp / no-aq-motion / hdr10 / hdr10-opt / no-dhdr10-opt / no-idr-recovery-sei / analysis-reuse-level=0 / analysis-save-reuse-level=0 / analysis-load-reuse-level=0 / scale-factor=0 / refine-intra=0 / refine-inter=0 / refine-mv=1 / refine-ctu-distortion=0 / no-limit-sao / ctu-info=0 / no-lowpass-dct / refine-analysis-type=0 / copy-pic=1 / max-ausize-factor=1.0 / no-dynamic-refine / no-single-sei / no-hevc-aq / no-svt / no-field / qp-adaptation-range=1.00 / scenecut-aware-qp=0conformance-window-offsets / right=0 / bottom=0 / decoder-max-rate=0 / no-vbv-live-multi-pass
  22. Default : Yes
  23. Forced : No
  24. Color range : Limited
  25. Color primaries : BT.2020
  26. Transfer characteristics : PQ
  27. Matrix coefficients : BT.2020 non-constant
  28. Mastering display color primaries : BT.2020
  29. Mastering display luminance : min: 0.0001 cd/m2, max: 1000 cd/m2
  30. Audio
  31. ID : 2
  32. Format : E-AC-3
  33. Format/Info : Enhanced AC-3
  34. Commercial name : Dolby Digital Plus
  35. Codec ID : A_EAC3
  36. Duration : 2 h 13 min
  37. Bit rate mode : Constant
  38. Bit rate : 640 kb/s
  39. Channel(s) : 6 channels
  40. Channel layout : L R C LFE Ls Rs
  41. Sampling rate : 48.0 kHz
  42. Frame rate : 31.250 FPS (1536 SPF)
  43. Compression mode : Lossy
  44. Stream size : 613 MiB (7%)
  45. Title : English DDP 5.1
  46. Language : English
  47. Service kind : Complete Main
  48. Default : Yes
  49. Forced : No
  50. Text #1
  51. ID : 3
  52. Format : UTF-8
  53. Codec ID : S_TEXT/UTF8
  54. Codec ID/Info : UTF-8 Plain Text
  55. Duration : 2 h 13 min
  56. Bit rate : 42 b/s
  57. Frame rate : 0.127 FPS
  58. Count of elements : 1017
  59. Stream size : 41.3 KiB (0%)
  60. Title : English SRT
  61. Language : English
  62. Default : Yes
  63. Forced : No
  64. Text #2
  65. ID : 4
  66. Format : UTF-8
  67. Codec ID : S_TEXT/UTF8
  68. Codec ID/Info : UTF-8 Plain Text
  69. Duration : 2 h 13 min
  70. Bit rate : 43 b/s
  71. Frame rate : 0.134 FPS
  72. Count of elements : 1074
  73. Stream size : 42.9 KiB (0%)
  74. Title : English SDH SRT
  75. Language : English
  76. Default : No
  77. Forced : No
  78. Menu
  79. 00:00:00.000 : en:Chapter 01
  80. 00:09:38.035 : en:Chapter 02
  81. 00:18:11.882 : en:Chapter 03
  82. 00:27:07.792 : en:Chapter 04
  83. 00:38:41.402 : en:Chapter 05
  84. 00:50:58.096 : en:Chapter 06
  85. 01:05:16.996 : en:Chapter 07
  86. 01:18:40.090 : en:Chapter 08
  87. 01:29:48.966 : en:Chapter 09
  88. 01:44:39.064 : en:Chapter 10
  89. 01:51:09.371 : en:Chapter 11
  90. 02:03:17.431 : en:Chapter 12
复制代码











Donnie.Darko.2001.DC.2160p.UHD.BluRay.x265.10bit.HDR.DDP5.1-RARBG.torrent (10.77 KB, 下载次数: 1, 售价: 2 枚蓝光币)
回复

使用道具 举报

懒得打字嘛,点击右侧快捷回复 【右侧内容,后台自定义】
您需要登录后才可以回帖 登录 | 立即注册

本版积分规则

Archiver|手机版|小黑屋| 中国高清网  |网站地图

GMT+8, 2024-4-13 22:19 , Processed in 0.425976 second(s), 27 queries .

Powered by HDchina X3.4

Copyright 2017-2019©HDchina.All right reserved

返回顶部 联系我们