查看: 580|回复: 0

[2160p-WEB] 波士顿绞杀手.Boston.Strangler.2023.2160p.HULU.WEB-DL.x265.10bit.SDR.DDP5.1-CUPCAKES 11.96GB

[复制链接]
蓝光币
7086 枚
发表于 2023-3-18 08:19:03 | 显示全部楼层 |阅读模式


◎译  名 波士顿绞杀手 / 波士顿绞杀手(台) / The Boston Strangler
◎片  名 Boston Strangler
◎年  代 2023
◎产  地 美国
◎类  别 剧情 / 惊悚 / 历史 / 犯罪
◎语  言 英语
◎上映日期 2023-03-17(美国收集)
◎IMDb链接  https://www.imdb.com/title/tt2560078/
◎豆瓣链接 https://movie.douban.com/subject/35614661/
◎片  长 112分钟
◎导  演 马特·罗斯金 / Matt Ruskin
◎演  员 凯拉·奈特莉 / Keira Knightley | 饰 Loretta McLaughlin
      凯莉·库恩 / Carrie Coon | 饰 Jean Cole
      亚历桑德罗·尼沃拉 / Alessandro Nivola
      大卫·达斯马齐连 / David Dastmalchian
      克里斯·库珀 / Chris Cooper
      罗利·科奇瑞恩 / Rory Cochrane | 饰 Detective Deline
      摩根·斯佩克特 / Morgan Spector
      罗伯特·约翰·伯克 / Robert John Burke | 饰 Eddie Holland
      克里斯·西德贝里 / Kris Sidberry | 饰 Sophie Clark
      乔·林德斯特伦 / Jon Lindstrom | 饰 Doug Berman
      欧文·伯克 / Owen Burke | 饰 Officer Shanley
      詹姆斯·西科内 / James Ciccone | 饰 Det. Linski
      罗布·勒维克 / Rob Lévesque | 饰 Private Club Waiter
      维克多·沃伦 / Victor Warren | 饰 The Director
      玛丽·安·绍布 / Mary Ann Schaub | 饰 Courthouse Clerk
      内森·里奇曼 / Nate Richman | 饰 Patrolman
      查利·瑟斯顿 / Charlie Thurston | 饰 Fritz
      迈克·巴什 / Mike Bash | 饰 Tony Curtis
      约翰·李·艾姆斯 / John Lee Ames | 饰 Harrison
      Josh Drennen Josh Drennen | 饰 Burke
      Ian Lyons Ian Lyons | 饰 Gordon Nielson
      马科·查卡 / Marko Caka | 饰 Waiter
      迈克尔·马尔韦斯蒂 / Michael Malvesti | 饰 Detective Donovan
      比尔·索普 / Bill Thorpe | 饰 Interrogation Detective
      Danielle Perry Danielle Perry | 饰 Nurse Deb McNulty
      罗伯特·C·柯克 / Robert C. Kirk | 饰 Arthur Gully
      托马斯·马里亚诺 / Thomas Mariano | 饰 Prison Guard
      约翰·哈威 / John Hawe | 饰 Copy Boy
      亚美利哥·普雷休蒂 / Americo Presciutti | 饰 City Official
      大卫·布肯德尔 / David Bookbinder | 饰 Reporter
◎编  剧 马特·罗斯金 / Matt Ruskin
◎制  片  人 玛格特·罗比 / Margot Robbie
◎音  乐 保罗·伦纳德·摩根 / Paul Leonard-Morgan
◎摄  影 本·库钦 / Ben Kutchins
◎服  装 阿尔俊·巴辛 / Arjun Bhasin
◎简  介 
  影片聚焦污名昭著的波士顿抹杀者谋杀案:1962年到1964年,13名单身女性在公寓被攻击、性侵、勒死,警方经观察锁定嫌犯Albert DeS alvo,后者认罪被判毕生禁锢,以后在牢狱被人杀死。此案存在诸多疑点,实在的连环杀手和杀戮DeSalvo之人至今还是谜。
  1. Video
  2. ID : 1
  3. Format : HEVC
  4. Format/Info : High Efficiency Video Coding
  5. Format profile : Main [email protected]@Main
  6. Codec ID : V_MPEGH/ISO/HEVC
  7. Duration : 1 h 52 min
  8. Bit rate : 14.7 Mb/s
  9. Width : 3 840 pixels
  10. Height : 2 160 pixels
  11. Display aspect ratio : 16:9
  12. Frame rate mode : Constant
  13. Frame rate : 24.000 FPS
  14. Color space : YUV
  15. Chroma subsampling : 4:2:0
  16. Bit depth : 10 bits
  17. Bits/(Pixel*Frame) : 0.074
  18. Stream size : 11.5 GiB (96%)
  19. Default : Yes
  20. Forced : No
  21. Audio
  22. ID : 2
  23. Format : E-AC-3
  24. Format/Info : Enhanced AC-3
  25. Commercial name : Dolby Digital Plus
  26. Codec ID : A_EAC3
  27. Duration : 1 h 52 min
  28. Bit rate mode : Constant
  29. Bit rate : 256 kb/s
  30. Channel(s) : 6 channels
  31. Channel layout : L R C LFE Ls Rs
  32. Sampling rate : 48.0 kHz
  33. Frame rate : 31.250 FPS (1536 SPF)
  34. Compression mode : Lossy
  35. Stream size : 206 MiB (2%)
  36. Language : English
  37. Service kind : Complete Main
  38. Default : Yes
  39. Forced : No
  40. Text #1
  41. ID : 3
  42. Format : UTF-8
  43. Codec ID : S_TEXT/UTF8
  44. Codec ID/Info : UTF-8 Plain Text
  45. Title : English [SDH]
  46. Language : English
  47. Default : No
  48. Forced : No
  49. Text #2
  50. ID : 4
  51. Format : UTF-8
  52. Codec ID : S_TEXT/UTF8
  53. Codec ID/Info : UTF-8 Plain Text
  54. Title : Spanish [SDH]
  55. Language : Spanish
  56. Default : No
  57. Forced : No
复制代码











Boston.Strangler.2023.2160p.HULU.WEB-DL.x265.10bit.SDR.DDP5.1-CUPCAKES.torrent (15.67 KB, 下载次数: 1, 售价: 2 枚蓝光币)
回复

使用道具 举报

懒得打字嘛,点击右侧快捷回复 【右侧内容,后台自定义】
您需要登录后才可以回帖 登录 | 立即注册

本版积分规则

Archiver|手机版|小黑屋| 中国高清网  |网站地图

GMT+8, 2024-2-23 14:49 , Processed in 0.111874 second(s), 27 queries .

Powered by HDchina X3.4

Copyright 2017-2019©HDchina.All right reserved

返回顶部 联系我们