查看: 152|回复: 3

[2160p-WEB] 死亡笔记[中文字幕].Death.Note.2017.2160p.NF.WEB-DL.x265.10bit.HDR.DDP5.1.Atmos-XEBEC 13.92GB

[复制链接]
蓝光币
78 枚
发表于 2023-1-19 19:36:18 | 显示全部楼层 |阅读模式


◎标  题 灭亡笔记
◎译  名 灭亡笔记真人版 / 灭亡笔记美国版
◎片  名 Death Note
◎年  代 2017
◎产  地 美国
◎类  别 剧情 / 悬疑 / 惊悚 / 犯罪
◎语  言 英语
◎上映日期 2017-08-25(美国)
◎IMDb评分 4.4/10 (81710人评价)
◎IMDb链接 https://www.imdb.com/title/tt1241317/
◎豆瓣评分 4.2/10 (7298人评价)
◎豆瓣链接 https://movie.douban.com/subject/5920220/
◎片  长 101分钟
◎导  演 亚当·温加德 Adam Wingard
◎编  剧 查理·帕拉伯尼得斯 Charley Parlapanides
       维拉斯·帕拉伯尼得斯 Vlas Parlapanides
       杰瑞米·斯莱特 Jeremy Slater
       大场鸫 Tsugumi Ohba
       小畑健 Takeshi Obata
◎演  员 纳特·沃尔夫 Nat Wolff
       勒凯斯·斯坦菲尔德 Lakeith Stanfield
       玛格丽特·库里 Margaret Qualley
       谢伊·惠格姆 Shea Whigham
       威廉·达福 Willem Dafoe
       杰森·莱尔斯 Jason Liles
       保罗·纳高奇 Paul Nakauchi
       杰克·埃特林格 Jack Ettlinger
       马修·凯文·安德森 Matthew Kevin Anderson
       克里斯·布里顿 Chris Britton
       科维西·阿梅扬 Kwesi Ameyaw
       贾斯汀·斯通 Justin Stone
       克里斯蒂安·斯隆 Christian Sloan
       阿汀·约翰 Artin John
       大卫·S·郑 David S. Jung
       杰西卡·麦丽奥德 Jessica McLeod
       保罗·麦克吉莱恩 Paul McGillion
       迈克尔·肖姆斯·维尔斯 Michael Shamus Wiles
       道恩·楚拜 Dawn Chubai
       特伦特·雷诺 Trent Reznor
◎标  签 美国 / 灭亡笔记 / 漫画改编 / 悬疑 / 翻拍 / 2017 / 惊悚 / 奇异
◎简  介
  凭仗《纸上城市》(Paper Towns)而展露头脚的新人纳特·沃尔夫(Nat Wolff)比来正洽商主演可骇片《灭亡笔记》(Death Note),该片由华纳兄弟公司出品,按照同名热门日本漫画改编。                                       
                                    《灭亡笔记》为大场鸫(Tsugumi Ohba)创作、小畑健(Takeshi Obata)绘画,是一套于2003年12月至2006年5月连载于集英社《周刊少年Jump》的心理悬疑推理漫画。故事配角是一个高中生,他无意中捡到了一个笔记本,发现自己只要把一小我的名字写在笔记本上,那小我就会立即死去。                                       
                                    这名高中生制造的一系列奥秘灭亡事务引发了一位侦察的留意,他起头追踪凶手,并试图解开工作的真相。                                       
                                    《灭亡笔记》在日本曾被改编成一套动画电视剧、两部真人电影和一套视频游戏。华纳几年前就买下了美版电影的版权,直到今年头才定下让《不速之客》(The Guest)的导演...
  1. Video
  2. ID                                       : 1
  3. Format                                   : HEVC
  4. Format/Info                              : High Efficiency Video Coding
  5. Format profile                           : Main [email protected]@Main
  6. HDR format                               : Dolby Vision, Version 1.0, dvhe.08.06, BL+RPU, HDR10 compatible / SMPTE ST 2086, HDR10 compatible
  7. Codec ID                                 : V_MPEGH/ISO/HEVC
  8. Duration                                 : 1 h 39 min
  9. Bit rate                                 : 19.2 Mb/s
  10. Width                                    : 3 840 pixels
  11. Height                                   : 2 160 pixels
  12. Display aspect ratio                     : 16:9
  13. Frame rate mode                          : Constant
  14. Frame rate                               : 23.976 (24000/1001) FPS
  15. Color space                              : YUV
  16. Chroma subsampling                       : 4:2:0 (Type 2)
  17. Bit depth                                : 10 bits
  18. Bits/(Pixel*Frame)                       : 0.096
  19. Stream size                              : 13.4 GiB (96%)
  20. Default                                  : Yes
  21. Forced                                   : No
  22. Color range                              : Limited
  23. Color primaries                          : BT.2020
  24. Transfer characteristics                 : PQ
  25. Matrix coefficients                      : BT.2020 non-constant
  26. Mastering display color primaries        : Display P3
  27. Mastering display luminance              : min: 0.0050 cd/m2, max: 4000 cd/m2
  28. Maximum Content Light Level              : 1267 cd/m2
  29. Maximum Frame-Average Light Level        : 790 cd/m2
  30. Audio
  31. ID                                       : 2
  32. Format                                   : E-AC-3 JOC
  33. Format/Info                              : Enhanced AC-3 with Joint Object Coding
  34. Commercial name                          : Dolby Digital Plus with Dolby Atmos
  35. Codec ID                                 : A_EAC3
  36. Duration                                 : 1 h 40 min
  37. Bit rate mode                            : Constant
  38. Bit rate                                 : 768 kb/s
  39. Channel(s)                               : 6 channels
  40. Channel layout                           : L R C LFE Ls Rs
  41. Sampling rate                            : 48.0 kHz
  42. Frame rate                               : 31.250 FPS (1536 SPF)
  43. Compression mode                         : Lossy
  44. Stream size                              : 551 MiB (4%)
  45. Title                                    : English
  46. Language                                 : English
  47. Service kind                             : Complete Main
  48. Default                                  : Yes
  49. Forced                                   : No
  50. Complexity index                         : 16
  51. Number of dynamic objects                : 15
  52. Bed channel count                        : 1 channel
  53. Bed channel configuration                : LFE
  54. Text #1
  55. ID                                       : 3
  56. Format                                   : UTF-8
  57. Codec ID                                 : S_TEXT/UTF8
  58. Codec ID/Info                            : UTF-8 Plain Text
  59. Duration                                 : 2 min 11 s
  60. Bit rate                                 : 44 b/s
  61. Frame rate                               : 0.129 FPS
  62. Count of elements                        : 17
  63. Stream size                              : 737 Bytes (0%)
  64. Title                                    : English (Forced)
  65. Language                                 : English
  66. Default                                  : Yes
  67. Forced                                   : Yes
  68. Text #2
  69. ID                                       : 4
  70. Format                                   : UTF-8
  71. Codec ID                                 : S_TEXT/UTF8
  72. Codec ID/Info                            : UTF-8 Plain Text
  73. Duration                                 : 1 h 39 min
  74. Bit rate                                 : 86 b/s
  75. Frame rate                               : 0.182 FPS
  76. Count of elements                        : 1085
  77. Stream size                              : 63.1 KiB (0%)
  78. Title                                    : Arabic
  79. Language                                 : Arabic
  80. Default                                  : No
  81. Forced                                   : No
  82. Text #3
  83. ID                                       : 5
  84. Format                                   : UTF-8
  85. Codec ID                                 : S_TEXT/UTF8
  86. Codec ID/Info                            : UTF-8 Plain Text
  87. Duration                                 : 1 h 39 min
  88. Bit rate                                 : 46 b/s
  89. Frame rate                               : 0.174 FPS
  90. Count of elements                        : 1040
  91. Stream size                              : 33.9 KiB (0%)
  92. Title                                    : Danish
  93. Language                                 : Danish
  94. Default                                  : No
  95. Forced                                   : No
  96. Text #4
  97. ID                                       : 6
  98. Format                                   : UTF-8
  99. Codec ID                                 : S_TEXT/UTF8
  100. Codec ID/Info                            : UTF-8 Plain Text
  101. Duration                                 : 1 h 39 min
  102. Bit rate                                 : 46 b/s
  103. Frame rate                               : 0.168 FPS
  104. Count of elements                        : 1001
  105. Stream size                              : 34.1 KiB (0%)
  106. Title                                    : German
  107. Language                                 : German
  108. Default                                  : No
  109. Forced                                   : No
  110. Text #5
  111. ID                                       : 7
  112. Format                                   : UTF-8
  113. Codec ID                                 : S_TEXT/UTF8
  114. Codec ID/Info                            : UTF-8 Plain Text
  115. Duration                                 : 1 h 34 min
  116. Bit rate                                 : 88 b/s
  117. Frame rate                               : 0.198 FPS
  118. Count of elements                        : 1119
  119. Stream size                              : 61.3 KiB (0%)
  120. Title                                    : Modern Greek (1453-)
  121. Language                                 : Greek
  122. Default                                  : No
  123. Forced                                   : No
  124. Text #6
  125. ID                                       : 8
  126. Format                                   : UTF-8
  127. Codec ID                                 : S_TEXT/UTF8
  128. Codec ID/Info                            : UTF-8 Plain Text
  129. Duration                                 : 1 h 39 min
  130. Bit rate                                 : 64 b/s
  131. Frame rate                               : 0.212 FPS
  132. Count of elements                        : 1267
  133. Stream size                              : 47.0 KiB (0%)
  134. Title                                    : English (SDH)
  135. Language                                 : English
  136. Default                                  : No
  137. Forced                                   : No
  138. Text #7
  139. ID                                       : 9
  140. Format                                   : UTF-8
  141. Codec ID                                 : S_TEXT/UTF8
  142. Codec ID/Info                            : UTF-8 Plain Text
  143. Duration                                 : 1 h 32 min
  144. Bit rate                                 : 47 b/s
  145. Frame rate                               : 0.189 FPS
  146. Count of elements                        : 1053
  147. Stream size                              : 32.5 KiB (0%)
  148. Title                                    : Spanish
  149. Language                                 : Spanish
  150. Default                                  : No
  151. Forced                                   : No
  152. Text #8
  153. ID                                       : 10
  154. Format                                   : UTF-8
  155. Codec ID                                 : S_TEXT/UTF8
  156. Codec ID/Info                            : UTF-8 Plain Text
  157. Duration                                 : 1 h 39 min
  158. Bit rate                                 : 51 b/s
  159. Frame rate                               : 0.178 FPS
  160. Count of elements                        : 1060
  161. Stream size                              : 37.7 KiB (0%)
  162. Title                                    : Spanish
  163. Language                                 : Spanish
  164. Default                                  : No
  165. Forced                                   : No
  166. Text #9
  167. ID                                       : 11
  168. Format                                   : UTF-8
  169. Codec ID                                 : S_TEXT/UTF8
  170. Codec ID/Info                            : UTF-8 Plain Text
  171. Duration                                 : 1 h 39 min
  172. Bit rate                                 : 43 b/s
  173. Frame rate                               : 0.154 FPS
  174. Count of elements                        : 921
  175. Stream size                              : 31.9 KiB (0%)
  176. Title                                    : Finnish
  177. Language                                 : Finnish
  178. Default                                  : No
  179. Forced                                   : No
  180. Text #10
  181. ID                                       : 12
  182. Format                                   : UTF-8
  183. Codec ID                                 : S_TEXT/UTF8
  184. Codec ID/Info                            : UTF-8 Plain Text
  185. Duration                                 : 1 h 39 min
  186. Bit rate                                 : 47 b/s
  187. Frame rate                               : 0.173 FPS
  188. Count of elements                        : 1033
  189. Stream size                              : 34.3 KiB (0%)
  190. Title                                    : French
  191. Language                                 : French
  192. Default                                  : No
  193. Forced                                   : No
  194. Text #11
  195. ID                                       : 13
  196. Format                                   : UTF-8
  197. Codec ID                                 : S_TEXT/UTF8
  198. Codec ID/Info                            : UTF-8 Plain Text
  199. Duration                                 : 1 h 34 min
  200. Bit rate                                 : 78 b/s
  201. Frame rate                               : 0.190 FPS
  202. Count of elements                        : 1070
  203. Stream size                              : 54.3 KiB (0%)
  204. Title                                    : Hebrew
  205. Language                                 : Hebrew
  206. Default                                  : No
  207. Forced                                   : No
  208. Text #12
  209. ID                                       : 14
  210. Format                                   : UTF-8
  211. Codec ID                                 : S_TEXT/UTF8
  212. Codec ID/Info                            : UTF-8 Plain Text
  213. Duration                                 : 1 h 39 min
  214. Bit rate                                 : 48 b/s
  215. Frame rate                               : 0.175 FPS
  216. Count of elements                        : 1043
  217. Stream size                              : 35.6 KiB (0%)
  218. Title                                    : Italian
  219. Language                                 : Italian
  220. Default                                  : No
  221. Forced                                   : No
  222. Text #13
  223. ID                                       : 15
  224. Format                                   : UTF-8
  225. Codec ID                                 : S_TEXT/UTF8
  226. Codec ID/Info                            : UTF-8 Plain Text
  227. Duration                                 : 1 h 39 min
  228. Bit rate                                 : 43 b/s
  229. Frame rate                               : 0.168 FPS
  230. Count of elements                        : 1003
  231. Stream size                              : 31.6 KiB (0%)
  232. Title                                    : Japanese
  233. Language                                 : Japanese
  234. Default                                  : No
  235. Forced                                   : No
  236. Text #14
  237. ID                                       : 16
  238. Format                                   : UTF-8
  239. Codec ID                                 : S_TEXT/UTF8
  240. Codec ID/Info                            : UTF-8 Plain Text
  241. Duration                                 : 1 h 39 min
  242. Bit rate                                 : 54 b/s
  243. Frame rate                               : 0.181 FPS
  244. Count of elements                        : 1079
  245. Stream size                              : 39.6 KiB (0%)
  246. Title                                    : Korean
  247. Language                                 : Korean
  248. Default                                  : No
  249. Forced                                   : No
  250. Text #15
  251. ID                                       : 17
  252. Format                                   : UTF-8
  253. Codec ID                                 : S_TEXT/UTF8
  254. Codec ID/Info                            : UTF-8 Plain Text
  255. Duration                                 : 1 h 39 min
  256. Bit rate                                 : 42 b/s
  257. Frame rate                               : 0.165 FPS
  258. Count of elements                        : 987
  259. Stream size                              : 31.3 KiB (0%)
  260. Title                                    : Norwegian Bokm?l
  261. Language                                 : Norwegian Bokmal
  262. Default                                  : No
  263. Forced                                   : No
  264. Text #16
  265. ID                                       : 18
  266. Format                                   : UTF-8
  267. Codec ID                                 : S_TEXT/UTF8
  268. Codec ID/Info                            : UTF-8 Plain Text
  269. Duration                                 : 1 h 39 min
  270. Bit rate                                 : 46 b/s
  271. Frame rate                               : 0.157 FPS
  272. Count of elements                        : 938
  273. Stream size                              : 34.0 KiB (0%)
  274. Title                                    : Dutch
  275. Language                                 : Dutch
  276. Default                                  : No
  277. Forced                                   : No
  278. Text #17
  279. ID                                       : 19
  280. Format                                   : UTF-8
  281. Codec ID                                 : S_TEXT/UTF8
  282. Codec ID/Info                            : UTF-8 Plain Text
  283. Duration                                 : 1 h 39 min
  284. Bit rate                                 : 44 b/s
  285. Frame rate                               : 0.172 FPS
  286. Count of elements                        : 1028
  287. Stream size                              : 32.1 KiB (0%)
  288. Title                                    : Polish
  289. Language                                 : Polish
  290. Default                                  : No
  291. Forced                                   : No
  292. Text #18
  293. ID                                       : 20
  294. Format                                   : UTF-8
  295. Codec ID                                 : S_TEXT/UTF8
  296. Codec ID/Info                            : UTF-8 Plain Text
  297. Duration                                 : 1 h 39 min
  298. Bit rate                                 : 51 b/s
  299. Frame rate                               : 0.178 FPS
  300. Count of elements                        : 1063
  301. Stream size                              : 37.6 KiB (0%)
  302. Title                                    : Portuguese
  303. Language                                 : Portuguese
  304. Default                                  : No
  305. Forced                                   : No
  306. Text #19
  307. ID                                       : 21
  308. Format                                   : UTF-8
  309. Codec ID                                 : S_TEXT/UTF8
  310. Codec ID/Info                            : UTF-8 Plain Text
  311. Duration                                 : 1 h 39 min
  312. Bit rate                                 : 51 b/s
  313. Frame rate                               : 0.177 FPS
  314. Count of elements                        : 1054
  315. Stream size                              : 37.5 KiB (0%)
  316. Title                                    : Portuguese
  317. Language                                 : Portuguese
  318. Default                                  : No
  319. Forced                                   : No
  320. Text #20
  321. ID                                       : 22
  322. Format                                   : UTF-8
  323. Codec ID                                 : S_TEXT/UTF8
  324. Codec ID/Info                            : UTF-8 Plain Text
  325. Duration                                 : 1 h 39 min
  326. Bit rate                                 : 51 b/s
  327. Frame rate                               : 0.177 FPS
  328. Count of elements                        : 1059
  329. Stream size                              : 37.7 KiB (0%)
  330. Title                                    : Romanian
  331. Language                                 : Romanian
  332. Default                                  : No
  333. Forced                                   : No
  334. Text #21
  335. ID                                       : 23
  336. Format                                   : UTF-8
  337. Codec ID                                 : S_TEXT/UTF8
  338. Codec ID/Info                            : UTF-8 Plain Text
  339. Duration                                 : 1 h 32 min
  340. Bit rate                                 : 83 b/s
  341. Frame rate                               : 0.190 FPS
  342. Count of elements                        : 1058
  343. Stream size                              : 56.6 KiB (0%)
  344. Title                                    : Russian
  345. Language                                 : Russian
  346. Default                                  : No
  347. Forced                                   : No
  348. Text #22
  349. ID                                       : 24
  350. Format                                   : UTF-8
  351. Codec ID                                 : S_TEXT/UTF8
  352. Codec ID/Info                            : UTF-8 Plain Text
  353. Duration                                 : 1 h 39 min
  354. Bit rate                                 : 48 b/s
  355. Frame rate                               : 0.168 FPS
  356. Count of elements                        : 1002
  357. Stream size                              : 35.1 KiB (0%)
  358. Title                                    : Swedish
  359. Language                                 : Swedish
  360. Default                                  : No
  361. Forced                                   : No
  362. Text #23
  363. ID                                       : 25
  364. Format                                   : UTF-8
  365. Codec ID                                 : S_TEXT/UTF8
  366. Codec ID/Info                            : UTF-8 Plain Text
  367. Duration                                 : 1 h 39 min
  368. Bit rate                                 : 119 b/s
  369. Frame rate                               : 0.180 FPS
  370. Count of elements                        : 1075
  371. Stream size                              : 87.3 KiB (0%)
  372. Title                                    : Thai
  373. Language                                 : Thai
  374. Default                                  : No
  375. Forced                                   : No
  376. Text #24
  377. ID                                       : 26
  378. Format                                   : UTF-8
  379. Codec ID                                 : S_TEXT/UTF8
  380. Codec ID/Info                            : UTF-8 Plain Text
  381. Duration                                 : 1 h 39 min
  382. Bit rate                                 : 54 b/s
  383. Frame rate                               : 0.175 FPS
  384. Count of elements                        : 1046
  385. Stream size                              : 40.1 KiB (0%)
  386. Title                                    : Turkish
  387. Language                                 : Turkish
  388. Default                                  : No
  389. Forced                                   : No
  390. Text #25
  391. ID                                       : 27
  392. Format                                   : UTF-8
  393. Codec ID                                 : S_TEXT/UTF8
  394. Codec ID/Info                            : UTF-8 Plain Text
  395. Duration                                 : 1 h 39 min
  396. Bit rate                                 : 68 b/s
  397. Frame rate                               : 0.180 FPS
  398. Count of elements                        : 1073
  399. Stream size                              : 49.6 KiB (0%)
  400. Title                                    : Vietnamese
  401. Language                                 : Vietnamese
  402. Default                                  : No
  403. Forced                                   : No
  404. Text #26
  405. ID                                       : 28
  406. Format                                   : UTF-8
  407. Codec ID                                 : S_TEXT/UTF8
  408. Codec ID/Info                            : UTF-8 Plain Text
  409. Duration                                 : 1 h 39 min
  410. Bit rate                                 : 51 b/s
  411. Frame rate                               : 0.180 FPS
  412. Count of elements                        : 1073
  413. Stream size                              : 37.8 KiB (0%)
  414. Title                                    : Simplified, Chinese
  415. Language                                 : Chinese
  416. Default                                  : No
  417. Forced                                   : No
  418. Text #27
  419. ID                                       : 29
  420. Format                                   : UTF-8
  421. Codec ID                                 : S_TEXT/UTF8
  422. Codec ID/Info                            : UTF-8 Plain Text
  423. Duration                                 : 1 h 39 min
  424. Bit rate                                 : 51 b/s
  425. Frame rate                               : 0.181 FPS
  426. Count of elements                        : 1078
  427. Stream size                              : 37.9 KiB (0%)
  428. Title                                    : Traditional, Chinese
  429. Language                                 : Chinese
  430. Default                                  : No
  431. Forced                                   : No
  432. Menu
  433. 00:00:00.000                             : en:Part 01
  434. 01:34:25.450                             : en:Credits
复制代码











Death.Note.2017.2160p.NF.WEB-DL.x265.10bit.HDR.DDP5.1.Atmos-XEBEC.torrent (18.05 KB, 下载次数: 1)
回复

使用道具 举报

蓝光币
2332 枚
发表于 3 天前 | 显示全部楼层

这东西我收了!谢谢楼主!中国高清电影网真好!
回复

使用道具 举报

蓝光币
0 枚
QQ
发表于 16 小时前 | 显示全部楼层


QQ   1814 993993 售  站~~街   会~~所  学  妹  各   种    类  型   资  料

QQ   1814 993993 售  站~~街   会~~所  学  妹  各   种    类  型   资  料



回复

使用道具 举报

蓝光币
52 枚
发表于 13 小时前 | 显示全部楼层
谢谢发贴,辛苦了。
回复

使用道具 举报

懒得打字嘛,点击右侧快捷回复 【右侧内容,后台自定义】
您需要登录后才可以回帖 登录 | 立即注册

本版积分规则

Archiver|手机版|小黑屋| 中国高清网 |网站地图 

GMT+8, 2023-1-29 23:51 , Processed in 0.138769 second(s), 27 queries .

Powered by HDchina X3.4

Copyright 2017-2019©HDchina.All right reserved

返回顶部 联系我们