查看: 128|回复: 1

[2160p-WEB] 死亡笔记[中文字幕].Death.Note.2017.PROPER.2160p.NF.WEB-DL.DDP5.1.Atmos.DV.MP4.x265-DVSUX 14.00GB

[复制链接]
蓝光币
78 枚
发表于 2023-1-19 19:36:18 | 显示全部楼层 |阅读模式


◎标  题 灭亡笔记
◎译  名 灭亡笔记真人版 / 灭亡笔记美国版
◎片  名 Death Note
◎年  代 2017
◎产  地 美国
◎类  别 剧情 / 悬疑 / 惊悚 / 犯罪
◎语  言 英语
◎上映日期 2017-08-25(美国)
◎IMDb评分 4.4/10 (81710人评价)
◎IMDb链接 https://www.imdb.com/title/tt1241317/
◎豆瓣评分 4.2/10 (7298人评价)
◎豆瓣链接 https://movie.douban.com/subject/5920220/
◎片  长 101分钟
◎导  演 亚当·温加德 Adam Wingard
◎编  剧 查理·帕拉伯尼得斯 Charley Parlapanides
       维拉斯·帕拉伯尼得斯 Vlas Parlapanides
       杰瑞米·斯莱特 Jeremy Slater
       大场鸫 Tsugumi Ohba
       小畑健 Takeshi Obata
◎演  员 纳特·沃尔夫 Nat Wolff
       勒凯斯·斯坦菲尔德 Lakeith Stanfield
       玛格丽特·库里 Margaret Qualley
       谢伊·惠格姆 Shea Whigham
       威廉·达福 Willem Dafoe
       杰森·莱尔斯 Jason Liles
       保罗·纳高奇 Paul Nakauchi
       杰克·埃特林格 Jack Ettlinger
       马修·凯文·安德森 Matthew Kevin Anderson
       克里斯·布里顿 Chris Britton
       科维西·阿梅扬 Kwesi Ameyaw
       贾斯汀·斯通 Justin Stone
       克里斯蒂安·斯隆 Christian Sloan
       阿汀·约翰 Artin John
       大卫·S·郑 David S. Jung
       杰西卡·麦丽奥德 Jessica McLeod
       保罗·麦克吉莱恩 Paul McGillion
       迈克尔·肖姆斯·维尔斯 Michael Shamus Wiles
       道恩·楚拜 Dawn Chubai
       特伦特·雷诺 Trent Reznor
◎标  签 美国 / 灭亡笔记 / 漫画改编 / 悬疑 / 翻拍 / 2017 / 惊悚 / 奇异
◎简  介
  凭仗《纸上城市》(Paper Towns)而展露头脚的新人纳特·沃尔夫(Nat Wolff)比来正洽商主演可骇片《灭亡笔记》(Death Note),该片由华纳兄弟公司出品,按照同名热门日本漫画改编。                                       
                                    《灭亡笔记》为大场鸫(Tsugumi Ohba)创作、小畑健(Takeshi Obata)绘画,是一套于2003年12月至2006年5月连载于集英社《周刊少年Jump》的心理悬疑推理漫画。故事配角是一个高中生,他无意中捡到了一个笔记本,发现自己只要把一小我的名字写在笔记本上,那小我就会立即死去。                                       
                                    这名高中生制造的一系列奥秘灭亡事务引发了一位侦察的留意,他起头追踪凶手,并试图解开工作的真相。                                       
                                    《灭亡笔记》在日本曾被改编成一套动画电视剧、两部真人电影和一套视频游戏。华纳几年前就买下了美版电影的版权,直到今年头才定下让《不速之客》(The Guest)的导演...
  1. Video
  2. ID                                       : 1
  3. Format                                   : HEVC
  4. Format/Info                              : High Efficiency Video Coding
  5. Format profile                           : Main [email protected]@Main
  6. HDR format                               : Dolby Vision, Version 1.0, dvhe.05.06, BL+RPU
  7. Codec ID                                 : dvhe
  8. Codec ID/Info                            : High Efficiency Video Coding with Dolby Vision
  9. Duration                                 : 1 h 40 min
  10. Bit rate                                 : 19.2 Mb/s
  11. Width                                    : 3 840 pixels
  12. Height                                   : 2 160 pixels
  13. Display aspect ratio                     : 16:9
  14. Frame rate mode                          : Constant
  15. Frame rate                               : 23.976 (24000/1001) FPS
  16. Color space                              : YUV
  17. Chroma subsampling                       : 4:2:0
  18. Bit depth                                : 10 bits
  19. Bits/(Pixel*Frame)                       : 0.097
  20. Stream size                              : 13.5 GiB (96%)
  21. Default                                  : Yes
  22. Alternate group                          : 1
  23. Encoded date                             : UTC 2023-01-06 10:23:56
  24. Tagged date                              : UTC 2023-01-06 10:25:34
  25. Color range                              : Full
  26. Codec configuration box                  : hvcC+dvcC
  27. Audio
  28. ID                                       : 2
  29. Format                                   : E-AC-3 JOC
  30. Format/Info                              : Enhanced AC-3 with Joint Object Coding
  31. Commercial name                          : Dolby Digital Plus with Dolby Atmos
  32. Codec ID                                 : ec-3
  33. Duration                                 : 1 h 40 min
  34. Bit rate mode                            : Constant
  35. Bit rate                                 : 768 kb/s
  36. Maximum bit rate                         : 811 kb/s
  37. Channel(s)                               : 6 channels
  38. Channel layout                           : L R C LFE Ls Rs
  39. Sampling rate                            : 48.0 kHz
  40. Frame rate                               : 31.250 FPS (1536 SPF)
  41. Compression mode                         : Lossy
  42. Stream size                              : 551 MiB (4%)
  43. Title                                    : English
  44. Language                                 : English
  45. Service kind                             : Complete Main
  46. Default                                  : Yes
  47. Alternate group                          : 1
  48. Tagged date                              : UTC 2023-01-06 10:25:34
  49. Complexity index                         : Not present / 16
  50. Number of dynamic objects                : 15
  51. Bed channel count                        : 1 channel
  52. Bed channel configuration                : LFE
  53. Text #1
  54. ID                                       : 3
  55. Format                                   : Timed Text
  56. Codec ID                                 : tx3g
  57. Duration                                 : 30 min 56 s
  58. Bit rate mode                            : Variable
  59. Bit rate                                 : 3 b/s
  60. Frame rate                               : 0.018 FPS
  61. Stream size                              : 796 Bytes (0%)
  62. Title                                    : English
  63. Language                                 : English
  64. Forced                                   : No
  65. Encoded date                             : UTC 2023-01-06 10:25:32
  66. Tagged date                              : UTC 2023-01-06 10:25:34
  67. Text #2
  68. ID                                       : 4
  69. Format                                   : Timed Text
  70. Codec ID                                 : tx3g
  71. Duration                                 : 1 h 39 min
  72. Bit rate mode                            : Variable
  73. Bit rate                                 : 70 b/s
  74. Frame rate                               : 0.424 FPS
  75. Stream size                              : 51.4 KiB (0%)
  76. Title                                    : English
  77. Language                                 : English
  78. Forced                                   : No
  79. Encoded date                             : UTC 2023-01-06 10:25:32
  80. Tagged date                              : UTC 2023-01-06 10:25:34
  81. Text #3
  82. ID                                       : 5
  83. Format                                   : Timed Text
  84. Codec ID                                 : tx3g
  85. Duration                                 : 1 h 39 min
  86. Bit rate mode                            : Variable
  87. Bit rate                                 : 92 b/s
  88. Frame rate                               : 0.363 FPS
  89. Stream size                              : 66.9 KiB (0%)
  90. Title                                    : Arabic
  91. Language                                 : Arabic
  92. Forced                                   : No
  93. Encoded date                             : UTC 2023-01-06 10:25:32
  94. Tagged date                              : UTC 2023-01-06 10:25:34
  95. Text #4
  96. ID                                       : 6
  97. Format                                   : Timed Text
  98. Codec ID                                 : tx3g
  99. Duration                                 : 1 h 39 min
  100. Bit rate mode                            : Variable
  101. Bit rate                                 : 57 b/s
  102. Frame rate                               : 0.358 FPS
  103. Stream size                              : 41.6 KiB (0%)
  104. Title                                    : Chinese-Simplified
  105. Language                                 : Chinese (Simplied)
  106. Forced                                   : No
  107. Encoded date                             : UTC 2023-01-06 10:25:32
  108. Tagged date                              : UTC 2023-01-06 10:25:34
  109. Text #5
  110. ID                                       : 7
  111. Format                                   : Timed Text
  112. Codec ID                                 : tx3g
  113. Duration                                 : 1 h 39 min
  114. Bit rate mode                            : Variable
  115. Bit rate                                 : 57 b/s
  116. Frame rate                               : 0.360 FPS
  117. Stream size                              : 41.8 KiB (0%)
  118. Title                                    : Chinese-Traditional
  119. Language                                 : Chinese (Traditional)
  120. Forced                                   : No
  121. Encoded date                             : UTC 2023-01-06 10:25:32
  122. Tagged date                              : UTC 2023-01-06 10:25:34
  123. Text #6
  124. ID                                       : 8
  125. Format                                   : Timed Text
  126. Codec ID                                 : tx3g
  127. Duration                                 : 1 h 39 min
  128. Bit rate mode                            : Variable
  129. Bit rate                                 : 51 b/s
  130. Frame rate                               : 0.348 FPS
  131. Stream size                              : 37.6 KiB (0%)
  132. Title                                    : Danish
  133. Language                                 : Danish
  134. Forced                                   : No
  135. Encoded date                             : UTC 2023-01-06 10:25:32
  136. Tagged date                              : UTC 2023-01-06 10:25:34
  137. Text #7
  138. ID                                       : 9
  139. Format                                   : Timed Text
  140. Codec ID                                 : tx3g
  141. Duration                                 : 1 h 39 min
  142. Bit rate mode                            : Variable
  143. Bit rate                                 : 51 b/s
  144. Frame rate                               : 0.313 FPS
  145. Stream size                              : 37.3 KiB (0%)
  146. Title                                    : Dutch
  147. Language                                 : Dutch
  148. Forced                                   : No
  149. Encoded date                             : UTC 2023-01-06 10:25:32
  150. Tagged date                              : UTC 2023-01-06 10:25:34
  151. Text #8
  152. ID                                       : 10
  153. Format                                   : Timed Text
  154. Codec ID                                 : tx3g
  155. Duration                                 : 1 h 39 min
  156. Bit rate mode                            : Variable
  157. Bit rate                                 : 48 b/s
  158. Frame rate                               : 0.308 FPS
  159. Stream size                              : 35.1 KiB (0%)
  160. Title                                    : Finnish
  161. Language                                 : Finnish
  162. Forced                                   : No
  163. Encoded date                             : UTC 2023-01-06 10:25:33
  164. Tagged date                              : UTC 2023-01-06 10:25:34
  165. Text #9
  166. ID                                       : 11
  167. Format                                   : Timed Text
  168. Codec ID                                 : tx3g
  169. Duration                                 : 1 h 39 min
  170. Bit rate mode                            : Variable
  171. Bit rate                                 : 52 b/s
  172. Frame rate                               : 0.345 FPS
  173. Stream size                              : 38.0 KiB (0%)
  174. Title                                    : French
  175. Language                                 : French
  176. Forced                                   : No
  177. Encoded date                             : UTC 2023-01-06 10:25:33
  178. Tagged date                              : UTC 2023-01-06 10:25:34
  179. Text #10
  180. ID                                       : 12
  181. Format                                   : Timed Text
  182. Codec ID                                 : tx3g
  183. Duration                                 : 1 h 39 min
  184. Bit rate mode                            : Variable
  185. Bit rate                                 : 51 b/s
  186. Frame rate                               : 0.334 FPS
  187. Stream size                              : 37.6 KiB (0%)
  188. Title                                    : German
  189. Language                                 : German
  190. Forced                                   : No
  191. Encoded date                             : UTC 2023-01-06 10:25:33
  192. Tagged date                              : UTC 2023-01-06 10:25:34
  193. Text #11
  194. ID                                       : 13
  195. Format                                   : Timed Text
  196. Codec ID                                 : tx3g
  197. Duration                                 : 1 h 34 min
  198. Bit rate mode                            : Variable
  199. Bit rate                                 : 94 b/s
  200. Frame rate                               : 0.395 FPS
  201. Stream size                              : 65.3 KiB (0%)
  202. Title                                    : Greek
  203. Language                                 : Greek
  204. Forced                                   : No
  205. Encoded date                             : UTC 2023-01-06 10:25:33
  206. Tagged date                              : UTC 2023-01-06 10:25:34
  207. Text #12
  208. ID                                       : 14
  209. Format                                   : Timed Text
  210. Codec ID                                 : tx3g
  211. Duration                                 : 1 h 34 min
  212. Bit rate mode                            : Variable
  213. Bit rate                                 : 84 b/s
  214. Frame rate                               : 0.378 FPS
  215. Stream size                              : 58.2 KiB (0%)
  216. Title                                    : Hebrew
  217. Language                                 : Hebrew
  218. Forced                                   : No
  219. Encoded date                             : UTC 2023-01-06 10:25:33
  220. Tagged date                              : UTC 2023-01-06 10:25:34
  221. Text #13
  222. ID                                       : 15
  223. Format                                   : Timed Text
  224. Codec ID                                 : tx3g
  225. Duration                                 : 1 h 39 min
  226. Bit rate mode                            : Variable
  227. Bit rate                                 : 54 b/s
  228. Frame rate                               : 0.348 FPS
  229. Stream size                              : 39.2 KiB (0%)
  230. Title                                    : Italian
  231. Language                                 : Italian
  232. Forced                                   : No
  233. Encoded date                             : UTC 2023-01-06 10:25:33
  234. Tagged date                              : UTC 2023-01-06 10:25:34
  235. Text #14
  236. ID                                       : 16
  237. Format                                   : Timed Text
  238. Codec ID                                 : tx3g
  239. Duration                                 : 1 h 39 min
  240. Bit rate mode                            : Variable
  241. Bit rate                                 : 48 b/s
  242. Frame rate                               : 0.329 FPS
  243. Stream size                              : 35.2 KiB (0%)
  244. Title                                    : Japanese
  245. Language                                 : Japanese
  246. Forced                                   : No
  247. Encoded date                             : UTC 2023-01-06 10:25:33
  248. Tagged date                              : UTC 2023-01-06 10:25:34
  249. Text #15
  250. ID                                       : 17
  251. Format                                   : Timed Text
  252. Codec ID                                 : tx3g
  253. Duration                                 : 1 h 39 min
  254. Bit rate mode                            : Variable
  255. Bit rate                                 : 59 b/s
  256. Frame rate                               : 0.360 FPS
  257. Stream size                              : 43.3 KiB (0%)
  258. Title                                    : Korean
  259. Language                                 : Korean
  260. Forced                                   : No
  261. Encoded date                             : UTC 2023-01-06 10:25:33
  262. Tagged date                              : UTC 2023-01-06 10:25:34
  263. Text #16
  264. ID                                       : 18
  265. Format                                   : Timed Text
  266. Codec ID                                 : tx3g
  267. Duration                                 : 1 h 39 min
  268. Bit rate mode                            : Variable
  269. Bit rate                                 : 48 b/s
  270. Frame rate                               : 0.330 FPS
  271. Stream size                              : 34.8 KiB (0%)
  272. Title                                    : Norwegian
  273. Language                                 : Norwegian Bokmal
  274. Forced                                   : No
  275. Encoded date                             : UTC 2023-01-06 10:25:33
  276. Tagged date                              : UTC 2023-01-06 10:25:34
  277. Text #17
  278. ID                                       : 19
  279. Format                                   : Timed Text
  280. Codec ID                                 : tx3g
  281. Duration                                 : 1 h 39 min
  282. Bit rate mode                            : Variable
  283. Bit rate                                 : 49 b/s
  284. Frame rate                               : 0.343 FPS
  285. Stream size                              : 35.9 KiB (0%)
  286. Title                                    : Polish
  287. Language                                 : Polish
  288. Forced                                   : No
  289. Encoded date                             : UTC 2023-01-06 10:25:33
  290. Tagged date                              : UTC 2023-01-06 10:25:34
  291. Text #18
  292. ID                                       : 20
  293. Format                                   : Timed Text
  294. Codec ID                                 : tx3g
  295. Duration                                 : 1 h 39 min
  296. Bit rate mode                            : Variable
  297. Bit rate                                 : 57 b/s
  298. Frame rate                               : 0.355 FPS
  299. Stream size                              : 41.4 KiB (0%)
  300. Title                                    : Portuguese
  301. Language                                 : Portuguese
  302. Forced                                   : No
  303. Encoded date                             : UTC 2023-01-06 10:25:33
  304. Tagged date                              : UTC 2023-01-06 10:25:34
  305. Text #19
  306. ID                                       : 21
  307. Format                                   : Timed Text
  308. Codec ID                                 : tx3g
  309. Duration                                 : 1 h 39 min
  310. Bit rate mode                            : Variable
  311. Bit rate                                 : 56 b/s
  312. Frame rate                               : 0.352 FPS
  313. Stream size                              : 41.2 KiB (0%)
  314. Title                                    : Portuguese
  315. Language                                 : Portuguese
  316. Forced                                   : No
  317. Encoded date                             : UTC 2023-01-06 10:25:33
  318. Tagged date                              : UTC 2023-01-06 10:25:34
  319. Text #20
  320. ID                                       : 22
  321. Format                                   : Timed Text
  322. Codec ID                                 : tx3g
  323. Duration                                 : 1 h 39 min
  324. Bit rate mode                            : Variable
  325. Bit rate                                 : 57 b/s
  326. Frame rate                               : 0.354 FPS
  327. Stream size                              : 41.4 KiB (0%)
  328. Title                                    : Romanian
  329. Language                                 : Romanian
  330. Forced                                   : No
  331. Encoded date                             : UTC 2023-01-06 10:25:33
  332. Tagged date                              : UTC 2023-01-06 10:25:34
  333. Text #21
  334. ID                                       : 23
  335. Format                                   : Timed Text
  336. Codec ID                                 : tx3g
  337. Duration                                 : 1 h 32 min
  338. Bit rate mode                            : Variable
  339. Bit rate                                 : 89 b/s
  340. Frame rate                               : 0.379 FPS
  341. Stream size                              : 60.4 KiB (0%)
  342. Title                                    : Russian
  343. Language                                 : Russian
  344. Forced                                   : No
  345. Encoded date                             : UTC 2023-01-06 10:25:33
  346. Tagged date                              : UTC 2023-01-06 10:25:34
  347. Text #22
  348. ID                                       : 24
  349. Format                                   : Timed Text
  350. Codec ID                                 : tx3g
  351. Duration                                 : 1 h 39 min
  352. Bit rate mode                            : Variable
  353. Bit rate                                 : 57 b/s
  354. Frame rate                               : 0.354 FPS
  355. Stream size                              : 41.4 KiB (0%)
  356. Title                                    : Spanish-EU
  357. Language                                 : Spanish
  358. Forced                                   : No
  359. Encoded date                             : UTC 2023-01-06 10:25:33
  360. Tagged date                              : UTC 2023-01-06 10:25:34
  361. Text #23
  362. ID                                       : 25
  363. Format                                   : Timed Text
  364. Codec ID                                 : tx3g
  365. Duration                                 : 1 h 32 min
  366. Bit rate mode                            : Variable
  367. Bit rate                                 : 53 b/s
  368. Frame rate                               : 0.377 FPS
  369. Stream size                              : 36.3 KiB (0%)
  370. Title                                    : Spanish-EU
  371. Language                                 : Spanish
  372. Forced                                   : No
  373. Encoded date                             : UTC 2023-01-06 10:25:33
  374. Tagged date                              : UTC 2023-01-06 10:25:34
  375. Text #24
  376. ID                                       : 26
  377. Format                                   : Timed Text
  378. Codec ID                                 : tx3g
  379. Duration                                 : 1 h 39 min
  380. Bit rate mode                            : Variable
  381. Bit rate                                 : 53 b/s
  382. Frame rate                               : 0.335 FPS
  383. Stream size                              : 38.7 KiB (0%)
  384. Title                                    : Swedish
  385. Language                                 : Swedish
  386. Forced                                   : No
  387. Encoded date                             : UTC 2023-01-06 10:25:33
  388. Tagged date                              : UTC 2023-01-06 10:25:34
  389. Text #25
  390. ID                                       : 27
  391. Format                                   : Timed Text
  392. Codec ID                                 : tx3g
  393. Duration                                 : 1 h 39 min
  394. Bit rate mode                            : Variable
  395. Bit rate                                 : 125 b/s
  396. Frame rate                               : 0.359 FPS
  397. Stream size                              : 91.2 KiB (0%)
  398. Title                                    : Thai
  399. Language                                 : Thai
  400. Forced                                   : No
  401. Encoded date                             : UTC 2023-01-06 10:25:34
  402. Tagged date                              : UTC 2023-01-06 10:25:34
  403. Text #26
  404. ID                                       : 28
  405. Format                                   : Timed Text
  406. Codec ID                                 : tx3g
  407. Duration                                 : 1 h 39 min
  408. Bit rate mode                            : Variable
  409. Bit rate                                 : 60 b/s
  410. Frame rate                               : 0.349 FPS
  411. Stream size                              : 43.7 KiB (0%)
  412. Title                                    : Turkish
  413. Language                                 : Turkish
  414. Forced                                   : No
  415. Encoded date                             : UTC 2023-01-06 10:25:34
  416. Tagged date                              : UTC 2023-01-06 10:25:34
  417. Text #27
  418. ID                                       : 29
  419. Format                                   : Timed Text
  420. Codec ID                                 : tx3g
  421. Duration                                 : 1 h 39 min
  422. Bit rate mode                            : Variable
  423. Bit rate                                 : 73 b/s
  424. Frame rate                               : 0.358 FPS
  425. Stream size                              : 53.4 KiB (0%)
  426. Title                                    : Vietnamese
  427. Language                                 : Vietnamese
  428. Forced                                   : No
  429. Encoded date                             : UTC 2023-01-06 10:25:34
  430. Tagged date                              : UTC 2023-01-06 10:25:34
复制代码











Death.Note.2017.PROPER.2160p.NF.WEB-DL.DDP5.1.Atmos.DV.MP4.x265-DVSUX.torrent (18.16 KB, 下载次数: 12)
回复

使用道具 举报

蓝光币
2332 枚
发表于 2023-1-20 21:34:07 | 显示全部楼层

这东西我收了!谢谢楼主!中国高清电影网真好!
回复

使用道具 举报

懒得打字嘛,点击右侧快捷回复 【右侧内容,后台自定义】
您需要登录后才可以回帖 登录 | 立即注册

本版积分规则

Archiver|手机版|小黑屋| 中国高清网 |网站地图 

GMT+8, 2023-1-29 23:41 , Processed in 0.134187 second(s), 26 queries .

Powered by HDchina X3.4

Copyright 2017-2019©HDchina.All right reserved

返回顶部 联系我们