查看: 79|回复: 0

[2160p-WEB] 恋爱好滋味[中文字幕].Thats.Amor.2022.2160p.NF.WEB-DL.x265.10bit.HDR.DDP5.1-PiCCiNiNO 8.74GB

[复制链接]
蓝光币
80 枚
发表于 2023-1-19 19:36:14 | 显示全部楼层 |阅读模式


◎标  题 恋爱好滋味
◎片  名 That's Amor
◎年  代 2022
◎产  地 美国
◎类  别 恋爱
◎语  言 英语 / 西班牙语
◎上映日期 2022-08-25(美国)
◎IMDb评分 5.3/10 (148人评价)
◎IMDb链接 https://www.imdb.com/title/tt21388556/
◎豆瓣链接 https://movie.douban.com/subject/36072464/
◎片  长 96分钟
◎编  剧 阿里·阿夫沙尔 Ali Afshar
       约翰·杜西 John Ducey
       蒂凡尼·多庞特 Tiffany Dupont
◎演  员 保罗‧威滕 Paul Witten
        Gregory Zarian
       约翰·杜西 John Ducey
       苏丽卡·马修 Suleka Mathew
       克里斯蒂娜·摩尔 Christina Moore
       金柏莉·德拉蒙德 Kimberley Drummond
       布莱恩·克雷格 Bryan Craig
       南希·利内翰 Nancy Lenehan
◎简  介
  After her job and relationship implode on the same day, Sofia starts from scratch and meets a dashing Spanish chef who might be her missing ingredient.
  1. Video
  2. ID                                       : 1
  3. Format                                   : HEVC
  4. Format/Info                              : High Efficiency Video Coding
  5. Format profile                           : Main [email protected]@Main
  6. HDR format                               : Dolby Vision, Version 1.0, dvhe.08.06, BL+RPU, HDR10 compatible / SMPTE ST 2086, HDR10 compatible
  7. Codec ID                                 : V_MPEGH/ISO/HEVC
  8. Duration                                 : 1 h 34 min
  9. Bit rate                                 : 12.6 Mb/s
  10. Width                                    : 3 840 pixels
  11. Height                                   : 2 160 pixels
  12. Display aspect ratio                     : 16:9
  13. Frame rate mode                          : Constant
  14. Frame rate                               : 23.976 (24000/1001) FPS
  15. Color space                              : YUV
  16. Chroma subsampling                       : 4:2:0 (Type 2)
  17. Bit depth                                : 10 bits
  18. Bits/(Pixel*Frame)                       : 0.063
  19. Stream size                              : 8.30 GiB (95%)
  20. Language                                 : English
  21. Default                                  : Yes
  22. Forced                                   : No
  23. Color range                              : Limited
  24. Color primaries                          : BT.2020
  25. Transfer characteristics                 : PQ
  26. Matrix coefficients                      : BT.2020 non-constant
  27. Mastering display color primaries        : Display P3
  28. Mastering display luminance              : min: 0.0001 cd/m2, max: 1000 cd/m2
  29. Maximum Content Light Level              : 1111 cd/m2
  30. Maximum Frame-Average Light Level        : 129 cd/m2
  31. Audio
  32. ID                                       : 2
  33. Format                                   : E-AC-3
  34. Format/Info                              : Enhanced AC-3
  35. Commercial name                          : Dolby Digital Plus
  36. Codec ID                                 : A_EAC3
  37. Duration                                 : 1 h 36 min
  38. Bit rate mode                            : Constant
  39. Bit rate                                 : 640 kb/s
  40. Channel(s)                               : 6 channels
  41. Channel layout                           : L R C LFE Ls Rs
  42. Sampling rate                            : 48.0 kHz
  43. Frame rate                               : 31.250 FPS (1536 SPF)
  44. Compression mode                         : Lossy
  45. Stream size                              : 441 MiB (5%)
  46. Language                                 : English
  47. Service kind                             : Complete Main
  48. Default                                  : Yes
  49. Forced                                   : No
  50. Text #1
  51. ID                                       : 3
  52. Format                                   : UTF-8
  53. Codec ID                                 : S_TEXT/UTF8
  54. Codec ID/Info                            : UTF-8 Plain Text
  55. Duration                                 : 32 min 55 s
  56. Bit rate                                 : 0 b/s
  57. Frame rate                               : 0.001 FPS
  58. Count of elements                        : 2
  59. Stream size                              : 51.0 Bytes (0%)
  60. Title                                    : Forced
  61. Language                                 : English
  62. Default                                  : Yes
  63. Forced                                   : Yes
  64. Text #2
  65. ID                                       : 4
  66. Format                                   : UTF-8
  67. Codec ID                                 : S_TEXT/UTF8
  68. Codec ID/Info                            : UTF-8 Plain Text
  69. Duration                                 : 1 h 30 min
  70. Bit rate                                 : 78 b/s
  71. Frame rate                               : 0.293 FPS
  72. Count of elements                        : 1582
  73. Stream size                              : 51.5 KiB (0%)
  74. Language                                 : English
  75. Default                                  : No
  76. Forced                                   : No
  77. Text #3
  78. ID                                       : 5
  79. Format                                   : UTF-8
  80. Codec ID                                 : S_TEXT/UTF8
  81. Codec ID/Info                            : UTF-8 Plain Text
  82. Duration                                 : 1 h 34 min
  83. Bit rate                                 : 91 b/s
  84. Frame rate                               : 0.331 FPS
  85. Count of elements                        : 1872
  86. Stream size                              : 63.1 KiB (0%)
  87. Title                                    : SDH
  88. Language                                 : English
  89. Default                                  : No
  90. Forced                                   : No
  91. Text #4
  92. ID                                       : 6
  93. Format                                   : UTF-8
  94. Codec ID                                 : S_TEXT/UTF8
  95. Codec ID/Info                            : UTF-8 Plain Text
  96. Duration                                 : 1 h 34 min
  97. Bit rate                                 : 117 b/s
  98. Frame rate                               : 0.258 FPS
  99. Count of elements                        : 1463
  100. Stream size                              : 80.9 KiB (0%)
  101. Language                                 : Arabic
  102. Default                                  : No
  103. Forced                                   : No
  104. Text #5
  105. ID                                       : 7
  106. Format                                   : UTF-8
  107. Codec ID                                 : S_TEXT/UTF8
  108. Codec ID/Info                            : UTF-8 Plain Text
  109. Duration                                 : 1 h 34 min
  110. Bit rate                                 : 62 b/s
  111. Frame rate                               : 0.256 FPS
  112. Count of elements                        : 1449
  113. Stream size                              : 43.1 KiB (0%)
  114. Language                                 : Czech
  115. Default                                  : No
  116. Forced                                   : No
  117. Text #6
  118. ID                                       : 8
  119. Format                                   : UTF-8
  120. Codec ID                                 : S_TEXT/UTF8
  121. Codec ID/Info                            : UTF-8 Plain Text
  122. Duration                                 : 1 h 34 min
  123. Bit rate                                 : 61 b/s
  124. Frame rate                               : 0.233 FPS
  125. Count of elements                        : 1319
  126. Stream size                              : 42.6 KiB (0%)
  127. Language                                 : Danish
  128. Default                                  : No
  129. Forced                                   : No
  130. Text #7
  131. ID                                       : 9
  132. Format                                   : UTF-8
  133. Codec ID                                 : S_TEXT/UTF8
  134. Codec ID/Info                            : UTF-8 Plain Text
  135. Duration                                 : 1 h 34 min
  136. Bit rate                                 : 67 b/s
  137. Frame rate                               : 0.249 FPS
  138. Count of elements                        : 1408
  139. Stream size                              : 46.7 KiB (0%)
  140. Language                                 : German
  141. Default                                  : No
  142. Forced                                   : No
  143. Text #8
  144. ID                                       : 10
  145. Format                                   : UTF-8
  146. Codec ID                                 : S_TEXT/UTF8
  147. Codec ID/Info                            : UTF-8 Plain Text
  148. Duration                                 : 1 h 34 min
  149. Bit rate                                 : 107 b/s
  150. Frame rate                               : 0.252 FPS
  151. Count of elements                        : 1425
  152. Stream size                              : 74.4 KiB (0%)
  153. Language                                 : Greek
  154. Default                                  : No
  155. Forced                                   : No
  156. Text #9
  157. ID                                       : 11
  158. Format                                   : UTF-8
  159. Codec ID                                 : S_TEXT/UTF8
  160. Codec ID/Info                            : UTF-8 Plain Text
  161. Duration                                 : 1 h 31 min
  162. Bit rate                                 : 72 b/s
  163. Frame rate                               : 0.298 FPS
  164. Count of elements                        : 1636
  165. Stream size                              : 48.9 KiB (0%)
  166. Title                                    : Latin American
  167. Language                                 : Spanish (Latin America)
  168. Default                                  : No
  169. Forced                                   : No
  170. Text #10
  171. ID                                       : 12
  172. Format                                   : UTF-8
  173. Codec ID                                 : S_TEXT/UTF8
  174. Codec ID/Info                            : UTF-8 Plain Text
  175. Duration                                 : 1 h 34 min
  176. Bit rate                                 : 59 b/s
  177. Frame rate                               : 0.255 FPS
  178. Count of elements                        : 1441
  179. Stream size                              : 41.3 KiB (0%)
  180. Title                                    : Latin American
  181. Language                                 : Spanish (Latin America)
  182. Default                                  : No
  183. Forced                                   : No
  184. Text #11
  185. ID                                       : 13
  186. Format                                   : UTF-8
  187. Codec ID                                 : S_TEXT/UTF8
  188. Codec ID/Info                            : UTF-8 Plain Text
  189. Duration                                 : 1 h 34 min
  190. Bit rate                                 : 59 b/s
  191. Frame rate                               : 0.254 FPS
  192. Count of elements                        : 1438
  193. Stream size                              : 41.2 KiB (0%)
  194. Language                                 : Spanish (ES)
  195. Default                                  : No
  196. Forced                                   : No
  197. Text #12
  198. ID                                       : 14
  199. Format                                   : UTF-8
  200. Codec ID                                 : S_TEXT/UTF8
  201. Codec ID/Info                            : UTF-8 Plain Text
  202. Duration                                 : 1 h 34 min
  203. Bit rate                                 : 57 b/s
  204. Frame rate                               : 0.232 FPS
  205. Count of elements                        : 1316
  206. Stream size                              : 39.7 KiB (0%)
  207. Language                                 : Finnish
  208. Default                                  : No
  209. Forced                                   : No
  210. Text #13
  211. ID                                       : 15
  212. Format                                   : UTF-8
  213. Codec ID                                 : S_TEXT/UTF8
  214. Codec ID/Info                            : UTF-8 Plain Text
  215. Duration                                 : 1 h 34 min
  216. Bit rate                                 : 65 b/s
  217. Frame rate                               : 0.254 FPS
  218. Count of elements                        : 1439
  219. Stream size                              : 45.0 KiB (0%)
  220. Language                                 : fil
  221. Default                                  : No
  222. Forced                                   : No
  223. Text #14
  224. ID                                       : 16
  225. Format                                   : UTF-8
  226. Codec ID                                 : S_TEXT/UTF8
  227. Codec ID/Info                            : UTF-8 Plain Text
  228. Duration                                 : 1 h 34 min
  229. Bit rate                                 : 65 b/s
  230. Frame rate                               : 0.233 FPS
  231. Count of elements                        : 1317
  232. Stream size                              : 45.1 KiB (0%)
  233. Language                                 : French
  234. Default                                  : No
  235. Forced                                   : No
  236. Text #15
  237. ID                                       : 17
  238. Format                                   : UTF-8
  239. Codec ID                                 : S_TEXT/UTF8
  240. Codec ID/Info                            : UTF-8 Plain Text
  241. Duration                                 : 1 h 31 min
  242. Bit rate                                 : 105 b/s
  243. Frame rate                               : 0.263 FPS
  244. Count of elements                        : 1444
  245. Stream size                              : 71.0 KiB (0%)
  246. Language                                 : Hebrew
  247. Default                                  : No
  248. Forced                                   : No
  249. Text #16
  250. ID                                       : 18
  251. Format                                   : UTF-8
  252. Codec ID                                 : S_TEXT/UTF8
  253. Codec ID/Info                            : UTF-8 Plain Text
  254. Duration                                 : 1 h 34 min
  255. Bit rate                                 : 57 b/s
  256. Frame rate                               : 0.241 FPS
  257. Count of elements                        : 1366
  258. Stream size                              : 39.8 KiB (0%)
  259. Language                                 : Croatian
  260. Default                                  : No
  261. Forced                                   : No
  262. Text #17
  263. ID                                       : 19
  264. Format                                   : UTF-8
  265. Codec ID                                 : S_TEXT/UTF8
  266. Codec ID/Info                            : UTF-8 Plain Text
  267. Duration                                 : 1 h 34 min
  268. Bit rate                                 : 65 b/s
  269. Frame rate                               : 0.255 FPS
  270. Count of elements                        : 1444
  271. Stream size                              : 45.3 KiB (0%)
  272. Language                                 : Hungarian
  273. Default                                  : No
  274. Forced                                   : No
  275. Text #18
  276. ID                                       : 20
  277. Format                                   : UTF-8
  278. Codec ID                                 : S_TEXT/UTF8
  279. Codec ID/Info                            : UTF-8 Plain Text
  280. Duration                                 : 1 h 34 min
  281. Bit rate                                 : 61 b/s
  282. Frame rate                               : 0.259 FPS
  283. Count of elements                        : 1463
  284. Stream size                              : 42.6 KiB (0%)
  285. Language                                 : Indonesian
  286. Default                                  : No
  287. Forced                                   : No
  288. Text #19
  289. ID                                       : 21
  290. Format                                   : UTF-8
  291. Codec ID                                 : S_TEXT/UTF8
  292. Codec ID/Info                            : UTF-8 Plain Text
  293. Duration                                 : 1 h 34 min
  294. Bit rate                                 : 60 b/s
  295. Frame rate                               : 0.256 FPS
  296. Count of elements                        : 1450
  297. Stream size                              : 41.5 KiB (0%)
  298. Language                                 : Italian
  299. Default                                  : No
  300. Forced                                   : No
  301. Text #20
  302. ID                                       : 22
  303. Format                                   : UTF-8
  304. Codec ID                                 : S_TEXT/UTF8
  305. Codec ID/Info                            : UTF-8 Plain Text
  306. Duration                                 : 1 h 34 min
  307. Bit rate                                 : 66 b/s
  308. Frame rate                               : 0.271 FPS
  309. Count of elements                        : 1533
  310. Stream size                              : 45.7 KiB (0%)
  311. Language                                 : Japanese
  312. Default                                  : No
  313. Forced                                   : No
  314. Text #21
  315. ID                                       : 23
  316. Format                                   : UTF-8
  317. Codec ID                                 : S_TEXT/UTF8
  318. Codec ID/Info                            : UTF-8 Plain Text
  319. Duration                                 : 1 h 34 min
  320. Bit rate                                 : 84 b/s
  321. Frame rate                               : 0.260 FPS
  322. Count of elements                        : 1474
  323. Stream size                              : 58.5 KiB (0%)
  324. Language                                 : Korean
  325. Default                                  : No
  326. Forced                                   : No
  327. Text #22
  328. ID                                       : 24
  329. Format                                   : UTF-8
  330. Codec ID                                 : S_TEXT/UTF8
  331. Codec ID/Info                            : UTF-8 Plain Text
  332. Duration                                 : 1 h 34 min
  333. Bit rate                                 : 63 b/s
  334. Frame rate                               : 0.251 FPS
  335. Count of elements                        : 1420
  336. Stream size                              : 43.9 KiB (0%)
  337. Language                                 : Malay
  338. Default                                  : No
  339. Forced                                   : No
  340. Text #23
  341. ID                                       : 25
  342. Format                                   : UTF-8
  343. Codec ID                                 : S_TEXT/UTF8
  344. Codec ID/Info                            : UTF-8 Plain Text
  345. Duration                                 : 1 h 34 min
  346. Bit rate                                 : 61 b/s
  347. Frame rate                               : 0.251 FPS
  348. Count of elements                        : 1419
  349. Stream size                              : 42.2 KiB (0%)
  350. Language                                 : Norwegian Bokmal
  351. Default                                  : No
  352. Forced                                   : No
  353. Text #24
  354. ID                                       : 26
  355. Format                                   : UTF-8
  356. Codec ID                                 : S_TEXT/UTF8
  357. Codec ID/Info                            : UTF-8 Plain Text
  358. Duration                                 : 1 h 34 min
  359. Bit rate                                 : 55 b/s
  360. Frame rate                               : 0.178 FPS
  361. Count of elements                        : 1006
  362. Stream size                              : 38.4 KiB (0%)
  363. Language                                 : Dutch
  364. Default                                  : No
  365. Forced                                   : No
  366. Text #25
  367. ID                                       : 27
  368. Format                                   : UTF-8
  369. Codec ID                                 : S_TEXT/UTF8
  370. Codec ID/Info                            : UTF-8 Plain Text
  371. Duration                                 : 1 h 34 min
  372. Bit rate                                 : 57 b/s
  373. Frame rate                               : 0.253 FPS
  374. Count of elements                        : 1434
  375. Stream size                              : 39.7 KiB (0%)
  376. Language                                 : Polish
  377. Default                                  : No
  378. Forced                                   : No
  379. Text #26
  380. ID                                       : 28
  381. Format                                   : UTF-8
  382. Codec ID                                 : S_TEXT/UTF8
  383. Codec ID/Info                            : UTF-8 Plain Text
  384. Duration                                 : 1 h 31 min
  385. Bit rate                                 : 77 b/s
  386. Frame rate                               : 0.297 FPS
  387. Count of elements                        : 1631
  388. Stream size                              : 51.8 KiB (0%)
  389. Title                                    : Brazilian
  390. Language                                 : Portuguese (BR)
  391. Default                                  : No
  392. Forced                                   : No
  393. Text #27
  394. ID                                       : 29
  395. Format                                   : UTF-8
  396. Codec ID                                 : S_TEXT/UTF8
  397. Codec ID/Info                            : UTF-8 Plain Text
  398. Duration                                 : 1 h 34 min
  399. Bit rate                                 : 64 b/s
  400. Frame rate                               : 0.256 FPS
  401. Count of elements                        : 1447
  402. Stream size                              : 44.5 KiB (0%)
  403. Title                                    : Brazilian
  404. Language                                 : Portuguese (BR)
  405. Default                                  : No
  406. Forced                                   : No
  407. Text #28
  408. ID                                       : 30
  409. Format                                   : UTF-8
  410. Codec ID                                 : S_TEXT/UTF8
  411. Codec ID/Info                            : UTF-8 Plain Text
  412. Duration                                 : 1 h 34 min
  413. Bit rate                                 : 59 b/s
  414. Frame rate                               : 0.255 FPS
  415. Count of elements                        : 1444
  416. Stream size                              : 41.1 KiB (0%)
  417. Language                                 : Portuguese (PT)
  418. Default                                  : No
  419. Forced                                   : No
  420. Text #29
  421. ID                                       : 31
  422. Format                                   : UTF-8
  423. Codec ID                                 : S_TEXT/UTF8
  424. Codec ID/Info                            : UTF-8 Plain Text
  425. Duration                                 : 1 h 34 min
  426. Bit rate                                 : 70 b/s
  427. Frame rate                               : 0.256 FPS
  428. Count of elements                        : 1448
  429. Stream size                              : 48.6 KiB (0%)
  430. Language                                 : Romanian
  431. Default                                  : No
  432. Forced                                   : No
  433. Text #30
  434. ID                                       : 32
  435. Format                                   : UTF-8
  436. Codec ID                                 : S_TEXT/UTF8
  437. Codec ID/Info                            : UTF-8 Plain Text
  438. Duration                                 : 1 h 34 min
  439. Bit rate                                 : 99 b/s
  440. Frame rate                               : 0.259 FPS
  441. Count of elements                        : 1469
  442. Stream size                              : 68.6 KiB (0%)
  443. Language                                 : Russian
  444. Default                                  : No
  445. Forced                                   : No
  446. Text #31
  447. ID                                       : 33
  448. Format                                   : UTF-8
  449. Codec ID                                 : S_TEXT/UTF8
  450. Codec ID/Info                            : UTF-8 Plain Text
  451. Duration                                 : 1 h 34 min
  452. Bit rate                                 : 63 b/s
  453. Frame rate                               : 0.238 FPS
  454. Count of elements                        : 1348
  455. Stream size                              : 44.0 KiB (0%)
  456. Language                                 : Swedish
  457. Default                                  : No
  458. Forced                                   : No
  459. Text #32
  460. ID                                       : 34
  461. Format                                   : UTF-8
  462. Codec ID                                 : S_TEXT/UTF8
  463. Codec ID/Info                            : UTF-8 Plain Text
  464. Duration                                 : 1 h 34 min
  465. Bit rate                                 : 169 b/s
  466. Frame rate                               : 0.259 FPS
  467. Count of elements                        : 1464
  468. Stream size                              : 117 KiB (0%)
  469. Language                                 : Thai
  470. Default                                  : No
  471. Forced                                   : No
  472. Text #33
  473. ID                                       : 35
  474. Format                                   : UTF-8
  475. Codec ID                                 : S_TEXT/UTF8
  476. Codec ID/Info                            : UTF-8 Plain Text
  477. Duration                                 : 1 h 34 min
  478. Bit rate                                 : 64 b/s
  479. Frame rate                               : 0.252 FPS
  480. Count of elements                        : 1425
  481. Stream size                              : 44.5 KiB (0%)
  482. Language                                 : Turkish
  483. Default                                  : No
  484. Forced                                   : No
  485. Text #34
  486. ID                                       : 36
  487. Format                                   : UTF-8
  488. Codec ID                                 : S_TEXT/UTF8
  489. Codec ID/Info                            : UTF-8 Plain Text
  490. Duration                                 : 1 h 34 min
  491. Bit rate                                 : 96 b/s
  492. Frame rate                               : 0.260 FPS
  493. Count of elements                        : 1470
  494. Stream size                              : 66.3 KiB (0%)
  495. Language                                 : Ukrainian
  496. Default                                  : No
  497. Forced                                   : No
  498. Text #35
  499. ID                                       : 37
  500. Format                                   : UTF-8
  501. Codec ID                                 : S_TEXT/UTF8
  502. Codec ID/Info                            : UTF-8 Plain Text
  503. Duration                                 : 1 h 34 min
  504. Bit rate                                 : 91 b/s
  505. Frame rate                               : 0.237 FPS
  506. Count of elements                        : 1344
  507. Stream size                              : 63.2 KiB (0%)
  508. Language                                 : Vietnamese
  509. Default                                  : No
  510. Forced                                   : No
  511. Text #36
  512. ID                                       : 38
  513. Format                                   : UTF-8
  514. Codec ID                                 : S_TEXT/UTF8
  515. Codec ID/Info                            : UTF-8 Plain Text
  516. Duration                                 : 1 h 34 min
  517. Bit rate                                 : 64 b/s
  518. Frame rate                               : 0.263 FPS
  519. Count of elements                        : 1488
  520. Stream size                              : 44.7 KiB (0%)
  521. Title                                    : Simplified
  522. Language                                 : Chinese (Simplied)
  523. Default                                  : No
  524. Forced                                   : No
  525. Text #37
  526. ID                                       : 39
  527. Format                                   : UTF-8
  528. Codec ID                                 : S_TEXT/UTF8
  529. Codec ID/Info                            : UTF-8 Plain Text
  530. Duration                                 : 1 h 34 min
  531. Bit rate                                 : 67 b/s
  532. Frame rate                               : 0.260 FPS
  533. Count of elements                        : 1473
  534. Stream size                              : 46.8 KiB (0%)
  535. Title                                    : Traditional
  536. Language                                 : Chinese (Traditional)
  537. Default                                  : No
  538. Forced                                   : No
  539. Menu
  540. 01:32:08.000                             : en:End Credits
复制代码











Thats.Amor.2022.2160p.NF.WEB-DL.x265.10bit.HDR.DDP5.1-PiCCiNiNO.torrent (22.5 KB, 下载次数: 2)
回复

使用道具 举报

懒得打字嘛,点击右侧快捷回复 【右侧内容,后台自定义】
您需要登录后才可以回帖 登录 | 立即注册

本版积分规则

Archiver|手机版|小黑屋| 中国高清网 |网站地图 

GMT+8, 2023-1-31 17:52 , Processed in 0.133267 second(s), 26 queries .

Powered by HDchina X3.4

Copyright 2017-2019©HDchina.All right reserved

返回顶部 联系我们