查看: 62|回复: 0

[2160p-WEB] 房子[中文字幕].The.House.2022.2160p.NF.WEB-DL.DDP5.1.Atmos.DV.MP4.x265-DVSUX 7.29GB

[复制链接]
蓝光币
80 枚
发表于 2023-1-19 19:36:10 | 显示全部楼层 |阅读模式


◎标  题 屋子
◎译  名 屋子里的故事 / 一屋三故(港) / A Casa
◎片  名 The House
◎年  代 2022
◎产  地 美国 / 英国
◎类  别 剧情 / 笑剧 / 动画 / 悬疑 / 惊悚
◎语  言 英语
◎上映日期 2022-01-14(美国收集)
◎IMDb评分 6.8/10 (12883人评价)
◎IMDb链接 https://www.imdb.com/title/tt11703050/
◎豆瓣评分 7.6/10 (5831人评价)
◎豆瓣链接 https://movie.douban.com/subject/35496211/
◎片  长 30分钟
◎导  演 艾玛·德斯沃夫 Emma De Swaef
       马克·詹姆斯·罗斯 Marc James Roels
       妮奇·林卓丝·冯巴 Niki Lindroth von Bahr
       帕洛玛·巴尔扎 Paloma Baeza
◎编  剧 恩达·沃尔什 Enda Walsh
◎演  员 马修·古迪 Matthew Goode
       海伦娜·伯翰·卡特 Helena Bonham Carter
       米娅·高斯 Mia Goth
       保罗·凯耶 Paul Kaye
       米兰达·理查森 Miranda Richardson
       克劳迪·布莱克利 Claudie Blakley
       苏珊·沃卡曼 Susan Wokoma
       福田知盛 Will Sharpe
       马克·希普 Mark Heap
       斯蒂芬妮·科尔 Stephanie Cole
       贾维斯·考科尔 Jarvis Cocker
       杰森·巴内特 Jason Barnett
       斯文·沃尔特 Sven Wollter
       阿伊莎·安托万 Ayesha Antoine
       艾玛·泰特 Emma Tate
       伊冯·隆巴德 Yvonne Lombard
       戴维·霍尔特 David Holt
       韦恩·福雷斯特 Wayne Forester
       约书亚·麦奎尔 Josh McGuire
       古斯塔沃·桑多拉拉 Gustavo Santaolalla
◎简  介
  电影由三部短片组成。                                    
                                女孩带着妹妹和怙恃一家四口遭到约请搬场来到了一幢都丽堂皇的别墅里,在这里,他们不愁吃喝,甚至不用做饭和扫除卫生。虽然新家和宽阔,但女孩更喜好本来阿谁陈旧的温馨的旧屋子。天天夜里,女孩城市在别墅里看到诡异而气象,这令她的心中布满了恐惧,似乎有什么可骇的工作正在这幢别墅、以及爸爸妈妈的身上发生。                                    
                                小鼠是一位衡宇掮客人,他将全数的履历都花在了装修屋子上面,希望这间别墅可以卖一个好代价。当一切的装璜都完成后,小鼠在屋子里震动的发现了横行的蟑螂甲虫,与此同时,想要买房的客人们已经上门了。                                    
                                珍是一位房东,而她的租客们似乎都没法按时交纳房租,这令她没有充足的钱,来改良这幢已经渐渐老化的屋子。珍很是喜好自己的屋子,她的胡想就是可以将它装璜的漂标致亮的,然后约请更多的租客进来居住,但她并没有发现,这个胡想渐渐酿成了牢笼,将她软禁。
  1. Video
  2. ID                                       : 1
  3. Format                                   : HEVC
  4. Format/Info                              : High Efficiency Video Coding
  5. Format profile                           : Main [email protected]@Main
  6. HDR format                               : Dolby Vision, Version 1.0, dvhe.05.06, BL+RPU
  7. Codec ID                                 : dvhe
  8. Codec ID/Info                            : High Efficiency Video Coding with Dolby Vision
  9. Duration                                 : 1 h 37 min
  10. Bit rate                                 : 9 954 kb/s
  11. Width                                    : 3 840 pixels
  12. Height                                   : 2 160 pixels
  13. Display aspect ratio                     : 16:9
  14. Frame rate mode                          : Constant
  15. Frame rate                               : 24.000 FPS
  16. Color space                              : YUV
  17. Chroma subsampling                       : 4:2:0
  18. Bit depth                                : 10 bits
  19. Bits/(Pixel*Frame)                       : 0.050
  20. Stream size                              : 6.77 GiB (93%)
  21. Default                                  : Yes
  22. Alternate group                          : 1
  23. Encoded date                             : UTC 2023-01-07 20:37:01
  24. Tagged date                              : UTC 2023-01-07 20:39:13
  25. Color range                              : Full
  26. Codec configuration box                  : hvcC+dvcC
  27. Audio
  28. ID                                       : 2
  29. Format                                   : E-AC-3 JOC
  30. Format/Info                              : Enhanced AC-3 with Joint Object Coding
  31. Commercial name                          : Dolby Digital Plus with Dolby Atmos
  32. Codec ID                                 : ec-3
  33. Duration                                 : 1 h 37 min
  34. Bit rate mode                            : Constant
  35. Bit rate                                 : 768 kb/s
  36. Maximum bit rate                         : 811 kb/s
  37. Channel(s)                               : 6 channels
  38. Channel layout                           : L R C LFE Ls Rs
  39. Sampling rate                            : 48.0 kHz
  40. Frame rate                               : 31.250 FPS (1536 SPF)
  41. Compression mode                         : Lossy
  42. Stream size                              : 535 MiB (7%)
  43. Title                                    : English
  44. Language                                 : English
  45. Service kind                             : Complete Main
  46. Default                                  : Yes
  47. Alternate group                          : 1
  48. Tagged date                              : UTC 2023-01-07 20:39:13
  49. Complexity index                         : Not present / 16
  50. Number of dynamic objects                : 15
  51. Bed channel count                        : 1 channel
  52. Bed channel configuration                : LFE
  53. Text #1
  54. ID                                       : 3
  55. Format                                   : Timed Text
  56. Codec ID                                 : tx3g
  57. Duration                                 : 1 h 30 min
  58. Bit rate mode                            : Variable
  59. Bit rate                                 : 48 b/s
  60. Frame rate                               : 0.350 FPS
  61. Stream size                              : 31.8 KiB (0%)
  62. Title                                    : English
  63. Language                                 : English
  64. Forced                                   : No
  65. Encoded date                             : UTC 2023-01-07 20:39:10
  66. Tagged date                              : UTC 2023-01-07 20:39:13
  67. Text #2
  68. ID                                       : 4
  69. Format                                   : Timed Text
  70. Codec ID                                 : tx3g
  71. Duration                                 : 1 h 35 min
  72. Bit rate mode                            : Variable
  73. Bit rate                                 : 68 b/s
  74. Frame rate                               : 0.514 FPS
  75. Stream size                              : 47.8 KiB (0%)
  76. Title                                    : English
  77. Language                                 : English
  78. Forced                                   : No
  79. Encoded date                             : UTC 2023-01-07 20:39:10
  80. Tagged date                              : UTC 2023-01-07 20:39:13
  81. Text #3
  82. ID                                       : 5
  83. Format                                   : Timed Text
  84. Codec ID                                 : tx3g
  85. Duration                                 : 1 h 30 min
  86. Bit rate mode                            : Variable
  87. Bit rate                                 : 68 b/s
  88. Frame rate                               : 0.331 FPS
  89. Stream size                              : 45.2 KiB (0%)
  90. Title                                    : Arabic
  91. Language                                 : Arabic
  92. Forced                                   : No
  93. Encoded date                             : UTC 2023-01-07 20:39:10
  94. Tagged date                              : UTC 2023-01-07 20:39:13
  95. Text #4
  96. ID                                       : 6
  97. Format                                   : Timed Text
  98. Codec ID                                 : tx3g
  99. Duration                                 : 1 h 35 min
  100. Bit rate mode                            : Variable
  101. Bit rate                                 : 44 b/s
  102. Frame rate                               : 0.315 FPS
  103. Stream size                              : 30.8 KiB (0%)
  104. Title                                    : Chinese-Simplified
  105. Language                                 : Chinese (Simplied)
  106. Forced                                   : No
  107. Encoded date                             : UTC 2023-01-07 20:39:10
  108. Tagged date                              : UTC 2023-01-07 20:39:13
  109. Text #5
  110. ID                                       : 7
  111. Format                                   : Timed Text
  112. Codec ID                                 : tx3g
  113. Duration                                 : 1 h 35 min
  114. Bit rate mode                            : Variable
  115. Bit rate                                 : 41 b/s
  116. Frame rate                               : 0.318 FPS
  117. Stream size                              : 28.9 KiB (0%)
  118. Title                                    : Chinese-Traditional
  119. Language                                 : Chinese (Traditional)
  120. Forced                                   : No
  121. Encoded date                             : UTC 2023-01-07 20:39:11
  122. Tagged date                              : UTC 2023-01-07 20:39:13
  123. Text #6
  124. ID                                       : 8
  125. Format                                   : Timed Text
  126. Codec ID                                 : tx3g
  127. Duration                                 : 1 h 35 min
  128. Bit rate mode                            : Variable
  129. Bit rate                                 : 38 b/s
  130. Frame rate                               : 0.313 FPS
  131. Stream size                              : 26.9 KiB (0%)
  132. Title                                    : Croatian
  133. Language                                 : Croatian
  134. Forced                                   : No
  135. Encoded date                             : UTC 2023-01-07 20:39:11
  136. Tagged date                              : UTC 2023-01-07 20:39:13
  137. Text #7
  138. ID                                       : 9
  139. Format                                   : Timed Text
  140. Codec ID                                 : tx3g
  141. Duration                                 : 1 h 35 min
  142. Bit rate mode                            : Variable
  143. Bit rate                                 : 41 b/s
  144. Frame rate                               : 0.310 FPS
  145. Stream size                              : 29.1 KiB (0%)
  146. Title                                    : Czech
  147. Language                                 : Czech
  148. Forced                                   : No
  149. Encoded date                             : UTC 2023-01-07 20:39:11
  150. Tagged date                              : UTC 2023-01-07 20:39:13
  151. Text #8
  152. ID                                       : 10
  153. Format                                   : Timed Text
  154. Codec ID                                 : tx3g
  155. Duration                                 : 1 h 35 min
  156. Bit rate mode                            : Variable
  157. Bit rate                                 : 41 b/s
  158. Frame rate                               : 0.317 FPS
  159. Stream size                              : 29.1 KiB (0%)
  160. Title                                    : Danish
  161. Language                                 : Danish
  162. Forced                                   : No
  163. Encoded date                             : UTC 2023-01-07 20:39:11
  164. Tagged date                              : UTC 2023-01-07 20:39:13
  165. Text #9
  166. ID                                       : 11
  167. Format                                   : Timed Text
  168. Codec ID                                 : tx3g
  169. Duration                                 : 1 h 31 min
  170. Bit rate mode                            : Variable
  171. Bit rate                                 : 40 b/s
  172. Frame rate                               : 0.263 FPS
  173. Stream size                              : 26.8 KiB (0%)
  174. Title                                    : Dutch
  175. Language                                 : Dutch
  176. Forced                                   : No
  177. Encoded date                             : UTC 2023-01-07 20:39:11
  178. Tagged date                              : UTC 2023-01-07 20:39:13
  179. Text #10
  180. ID                                       : 12
  181. Format                                   : Timed Text
  182. Codec ID                                 : tx3g
  183. Duration                                 : 1 h 35 min
  184. Bit rate mode                            : Variable
  185. Bit rate                                 : 38 b/s
  186. Frame rate                               : 0.287 FPS
  187. Stream size                              : 26.8 KiB (0%)
  188. Title                                    : Finnish
  189. Language                                 : Finnish
  190. Forced                                   : No
  191. Encoded date                             : UTC 2023-01-07 20:39:12
  192. Tagged date                              : UTC 2023-01-07 20:39:13
  193. Text #11
  194. ID                                       : 13
  195. Format                                   : Timed Text
  196. Codec ID                                 : tx3g
  197. Duration                                 : 1 h 35 min
  198. Bit rate mode                            : Variable
  199. Bit rate                                 : 42 b/s
  200. Frame rate                               : 0.297 FPS
  201. Stream size                              : 29.7 KiB (0%)
  202. Title                                    : French
  203. Language                                 : French
  204. Forced                                   : No
  205. Encoded date                             : UTC 2023-01-07 20:39:12
  206. Tagged date                              : UTC 2023-01-07 20:39:13
  207. Text #12
  208. ID                                       : 14
  209. Format                                   : Timed Text
  210. Codec ID                                 : tx3g
  211. Duration                                 : 1 h 35 min
  212. Bit rate mode                            : Variable
  213. Bit rate                                 : 43 b/s
  214. Frame rate                               : 0.310 FPS
  215. Stream size                              : 30.0 KiB (0%)
  216. Title                                    : German
  217. Language                                 : German
  218. Forced                                   : No
  219. Encoded date                             : UTC 2023-01-07 20:39:12
  220. Tagged date                              : UTC 2023-01-07 20:39:13
  221. Text #13
  222. ID                                       : 15
  223. Format                                   : Timed Text
  224. Codec ID                                 : tx3g
  225. Duration                                 : 1 h 35 min
  226. Bit rate mode                            : Variable
  227. Bit rate                                 : 67 b/s
  228. Frame rate                               : 0.317 FPS
  229. Stream size                              : 47.3 KiB (0%)
  230. Title                                    : Greek
  231. Language                                 : Greek
  232. Forced                                   : No
  233. Encoded date                             : UTC 2023-01-07 20:39:12
  234. Tagged date                              : UTC 2023-01-07 20:39:13
  235. Text #14
  236. ID                                       : 16
  237. Format                                   : Timed Text
  238. Codec ID                                 : tx3g
  239. Duration                                 : 1 h 30 min
  240. Bit rate mode                            : Variable
  241. Bit rate                                 : 66 b/s
  242. Frame rate                               : 0.328 FPS
  243. Stream size                              : 43.9 KiB (0%)
  244. Title                                    : Hebrew
  245. Language                                 : Hebrew
  246. Forced                                   : No
  247. Encoded date                             : UTC 2023-01-07 20:39:12
  248. Tagged date                              : UTC 2023-01-07 20:39:13
  249. Text #15
  250. ID                                       : 17
  251. Format                                   : Timed Text
  252. Codec ID                                 : tx3g
  253. Duration                                 : 1 h 35 min
  254. Bit rate mode                            : Variable
  255. Bit rate                                 : 45 b/s
  256. Frame rate                               : 0.313 FPS
  257. Stream size                              : 31.4 KiB (0%)
  258. Title                                    : Hungarian
  259. Language                                 : Hungarian
  260. Forced                                   : No
  261. Encoded date                             : UTC 2023-01-07 20:39:12
  262. Tagged date                              : UTC 2023-01-07 20:39:13
  263. Text #16
  264. ID                                       : 18
  265. Format                                   : Timed Text
  266. Codec ID                                 : tx3g
  267. Duration                                 : 1 h 35 min
  268. Bit rate mode                            : Variable
  269. Bit rate                                 : 42 b/s
  270. Frame rate                               : 0.316 FPS
  271. Stream size                              : 29.3 KiB (0%)
  272. Title                                    : Indonesian
  273. Language                                 : Indonesian
  274. Forced                                   : No
  275. Encoded date                             : UTC 2023-01-07 20:39:12
  276. Tagged date                              : UTC 2023-01-07 20:39:13
  277. Text #17
  278. ID                                       : 19
  279. Format                                   : Timed Text
  280. Codec ID                                 : tx3g
  281. Duration                                 : 1 h 35 min
  282. Bit rate mode                            : Variable
  283. Bit rate                                 : 42 b/s
  284. Frame rate                               : 0.307 FPS
  285. Stream size                              : 29.8 KiB (0%)
  286. Title                                    : Italian
  287. Language                                 : Italian
  288. Forced                                   : No
  289. Encoded date                             : UTC 2023-01-07 20:39:12
  290. Tagged date                              : UTC 2023-01-07 20:39:13
  291. Text #18
  292. ID                                       : 20
  293. Format                                   : Timed Text
  294. Codec ID                                 : tx3g
  295. Duration                                 : 1 h 35 min
  296. Bit rate mode                            : Variable
  297. Bit rate                                 : 42 b/s
  298. Frame rate                               : 0.314 FPS
  299. Stream size                              : 29.7 KiB (0%)
  300. Title                                    : Japanese
  301. Language                                 : Japanese
  302. Forced                                   : No
  303. Encoded date                             : UTC 2023-01-07 20:39:12
  304. Tagged date                              : UTC 2023-01-07 20:39:13
  305. Text #19
  306. ID                                       : 21
  307. Format                                   : Timed Text
  308. Codec ID                                 : tx3g
  309. Duration                                 : 1 h 35 min
  310. Bit rate mode                            : Variable
  311. Bit rate                                 : 53 b/s
  312. Frame rate                               : 0.316 FPS
  313. Stream size                              : 37.2 KiB (0%)
  314. Title                                    : Korean
  315. Language                                 : Korean
  316. Forced                                   : No
  317. Encoded date                             : UTC 2023-01-07 20:39:12
  318. Tagged date                              : UTC 2023-01-07 20:39:13
  319. Text #20
  320. ID                                       : 22
  321. Format                                   : Timed Text
  322. Codec ID                                 : tx3g
  323. Duration                                 : 1 h 35 min
  324. Bit rate mode                            : Variable
  325. Bit rate                                 : 39 b/s
  326. Frame rate                               : 0.318 FPS
  327. Stream size                              : 27.3 KiB (0%)
  328. Title                                    : Malay
  329. Language                                 : Malay
  330. Forced                                   : No
  331. Encoded date                             : UTC 2023-01-07 20:39:12
  332. Tagged date                              : UTC 2023-01-07 20:39:13
  333. Text #21
  334. ID                                       : 23
  335. Format                                   : Timed Text
  336. Codec ID                                 : tx3g
  337. Duration                                 : 1 h 35 min
  338. Bit rate mode                            : Variable
  339. Bit rate                                 : 40 b/s
  340. Frame rate                               : 0.307 FPS
  341. Stream size                              : 28.2 KiB (0%)
  342. Title                                    : Norwegian
  343. Language                                 : Norwegian Bokmal
  344. Forced                                   : No
  345. Encoded date                             : UTC 2023-01-07 20:39:13
  346. Tagged date                              : UTC 2023-01-07 20:39:13
  347. Text #22
  348. ID                                       : 24
  349. Format                                   : Timed Text
  350. Codec ID                                 : tx3g
  351. Duration                                 : 1 h 35 min
  352. Bit rate mode                            : Variable
  353. Bit rate                                 : 36 b/s
  354. Frame rate                               : 0.299 FPS
  355. Stream size                              : 24.9 KiB (0%)
  356. Title                                    : Polish
  357. Language                                 : Polish
  358. Forced                                   : No
  359. Encoded date                             : UTC 2023-01-07 20:39:13
  360. Tagged date                              : UTC 2023-01-07 20:39:13
  361. Text #23
  362. ID                                       : 25
  363. Format                                   : Timed Text
  364. Codec ID                                 : tx3g
  365. Duration                                 : 1 h 35 min
  366. Bit rate mode                            : Variable
  367. Bit rate                                 : 41 b/s
  368. Frame rate                               : 0.314 FPS
  369. Stream size                              : 28.9 KiB (0%)
  370. Title                                    : Portuguese
  371. Language                                 : Portuguese
  372. Forced                                   : No
  373. Encoded date                             : UTC 2023-01-07 20:39:13
  374. Tagged date                              : UTC 2023-01-07 20:39:13
  375. Text #24
  376. ID                                       : 26
  377. Format                                   : Timed Text
  378. Codec ID                                 : tx3g
  379. Duration                                 : 1 h 35 min
  380. Bit rate mode                            : Variable
  381. Bit rate                                 : 42 b/s
  382. Frame rate                               : 0.313 FPS
  383. Stream size                              : 29.2 KiB (0%)
  384. Title                                    : Portuguese-BR
  385. Language                                 : Portuguese (BR)
  386. Forced                                   : No
  387. Encoded date                             : UTC 2023-01-07 20:39:13
  388. Tagged date                              : UTC 2023-01-07 20:39:13
  389. Text #25
  390. ID                                       : 27
  391. Format                                   : Timed Text
  392. Codec ID                                 : tx3g
  393. Duration                                 : 1 h 35 min
  394. Bit rate mode                            : Variable
  395. Bit rate                                 : 47 b/s
  396. Frame rate                               : 0.314 FPS
  397. Stream size                              : 32.9 KiB (0%)
  398. Title                                    : Romanian
  399. Language                                 : Romanian
  400. Forced                                   : No
  401. Encoded date                             : UTC 2023-01-07 20:39:13
  402. Tagged date                              : UTC 2023-01-07 20:39:13
  403. Text #26
  404. ID                                       : 28
  405. Format                                   : Timed Text
  406. Codec ID                                 : tx3g
  407. Duration                                 : 1 h 35 min
  408. Bit rate mode                            : Variable
  409. Bit rate                                 : 64 b/s
  410. Frame rate                               : 0.319 FPS
  411. Stream size                              : 45.3 KiB (0%)
  412. Title                                    : Russian
  413. Language                                 : Russian
  414. Forced                                   : No
  415. Encoded date                             : UTC 2023-01-07 20:39:13
  416. Tagged date                              : UTC 2023-01-07 20:39:13
  417. Text #27
  418. ID                                       : 29
  419. Format                                   : Timed Text
  420. Codec ID                                 : tx3g
  421. Duration                                 : 1 h 35 min
  422. Bit rate mode                            : Variable
  423. Bit rate                                 : 43 b/s
  424. Frame rate                               : 0.316 FPS
  425. Stream size                              : 30.4 KiB (0%)
  426. Title                                    : Spanish
  427. Language                                 : Spanish (150)
  428. Forced                                   : No
  429. Encoded date                             : UTC 2023-01-07 20:39:13
  430. Tagged date                              : UTC 2023-01-07 20:39:13
  431. Text #28
  432. ID                                       : 30
  433. Format                                   : Timed Text
  434. Codec ID                                 : tx3g
  435. Duration                                 : 1 h 35 min
  436. Bit rate mode                            : Variable
  437. Bit rate                                 : 41 b/s
  438. Frame rate                               : 0.315 FPS
  439. Stream size                              : 28.7 KiB (0%)
  440. Title                                    : Spanish-EU
  441. Language                                 : Spanish
  442. Forced                                   : No
  443. Encoded date                             : UTC 2023-01-07 20:39:13
  444. Tagged date                              : UTC 2023-01-07 20:39:13
  445. Text #29
  446. ID                                       : 31
  447. Format                                   : Timed Text
  448. Codec ID                                 : tx3g
  449. Duration                                 : 1 h 35 min
  450. Bit rate mode                            : Variable
  451. Bit rate                                 : 41 b/s
  452. Frame rate                               : 0.302 FPS
  453. Stream size                              : 28.5 KiB (0%)
  454. Title                                    : Swedish
  455. Language                                 : Swedish
  456. Forced                                   : No
  457. Encoded date                             : UTC 2023-01-07 20:39:13
  458. Tagged date                              : UTC 2023-01-07 20:39:13
  459. Text #30
  460. ID                                       : 32
  461. Format                                   : Timed Text
  462. Codec ID                                 : tx3g
  463. Duration                                 : 1 h 35 min
  464. Bit rate mode                            : Variable
  465. Bit rate                                 : 96 b/s
  466. Frame rate                               : 0.318 FPS
  467. Stream size                              : 67.5 KiB (0%)
  468. Title                                    : Thai
  469. Language                                 : Thai
  470. Forced                                   : No
  471. Encoded date                             : UTC 2023-01-07 20:39:13
  472. Tagged date                              : UTC 2023-01-07 20:39:13
  473. Text #31
  474. ID                                       : 33
  475. Format                                   : Timed Text
  476. Codec ID                                 : tx3g
  477. Duration                                 : 1 h 35 min
  478. Bit rate mode                            : Variable
  479. Bit rate                                 : 46 b/s
  480. Frame rate                               : 0.328 FPS
  481. Stream size                              : 32.4 KiB (0%)
  482. Title                                    : Turkish
  483. Language                                 : Turkish
  484. Forced                                   : No
  485. Encoded date                             : UTC 2023-01-07 20:39:13
  486. Tagged date                              : UTC 2023-01-07 20:39:13
  487. Text #32
  488. ID                                       : 34
  489. Format                                   : Timed Text
  490. Codec ID                                 : tx3g
  491. Duration                                 : 1 h 35 min
  492. Bit rate mode                            : Variable
  493. Bit rate                                 : 67 b/s
  494. Frame rate                               : 0.315 FPS
  495. Stream size                              : 46.9 KiB (0%)
  496. Title                                    : Ukrainian
  497. Language                                 : Ukrainian
  498. Forced                                   : No
  499. Encoded date                             : UTC 2023-01-07 20:39:13
  500. Tagged date                              : UTC 2023-01-07 20:39:13
  501. Text #33
  502. ID                                       : 35
  503. Format                                   : Timed Text
  504. Codec ID                                 : tx3g
  505. Duration                                 : 1 h 35 min
  506. Bit rate mode                            : Variable
  507. Bit rate                                 : 63 b/s
  508. Frame rate                               : 0.309 FPS
  509. Stream size                              : 44.2 KiB (0%)
  510. Title                                    : Vietnamese
  511. Language                                 : Vietnamese
  512. Forced                                   : No
  513. Encoded date                             : UTC 2023-01-07 20:39:13
  514. Tagged date                              : UTC 2023-01-07 20:39:13
复制代码











The.House.2022.2160p.NF.WEB-DL.DDP5.1.Atmos.DV.MP4.x265-DVSUX.torrent (18.88 KB, 下载次数: 1)
回复

使用道具 举报

懒得打字嘛,点击右侧快捷回复 【右侧内容,后台自定义】
您需要登录后才可以回帖 登录 | 立即注册

本版积分规则

Archiver|手机版|小黑屋| 中国高清网 |网站地图 

GMT+8, 2023-1-31 18:38 , Processed in 0.138247 second(s), 26 queries .

Powered by HDchina X3.4

Copyright 2017-2019©HDchina.All right reserved

返回顶部 联系我们