查看: 362|回复: 1

[动作片] 骑劫地下铁 The.Taking.of.Pelham.One.Two.Three.1974.REMASTERED.1080p.BluRay.x264.DTS-FGT 9.48GB

[复制链接]
蓝光币
78 枚
发表于 2022-12-21 11:50:29 | 显示全部楼层 |阅读模式
[img][/img]

◎标  题 骑劫地下铁
◎片  名 The Taking of Pelham One Two Three
◎年  代 1974
◎产  地 美国
◎类  别 行动 / 惊悚 / 犯罪
◎语  言 英语 / 西班牙语
◎上映日期 1974-10-02
◎IMDb评分 7.7/10 (29336人评价)
◎IMDb链接 https://www.imdb.com/title/tt0072251/
◎豆瓣评分 7.5/10 (896人评价)
◎豆瓣链接 https://movie.douban.com/subject/1293385/
◎片  长 104分钟
◎导  演 约瑟夫·萨金特 Joseph Sargent
◎编  剧 约翰·戈迪 John Godey
       皮特·斯通 Peter Stone
◎演  员 沃尔特·马修 Walter Matthau
       罗伯特·肖 Robert Shaw
       马丁·鲍尔萨姆 Martin Balsam
       埃克托尔·埃利松多 Hector Elizondo
       厄尔·欣德曼 Earl Hindman
       詹姆斯·布罗德里克 James Broderick
       迪克·奥尼尔 Dick O'Neill
       李·华莱士 Lee Wallace
       汤姆·佩迪 Tom Pedi
       比阿特丽斯·温德 Beatrice Winde
       杰瑞·斯蒂勒 Jerry Stiller
       内森·乔治 Nathan George
       鲁迪·邦德 Rudy Bond
       肯尼思·麦克米伦 Kenneth McMillan
       多莉丝·罗伯茨 Doris Roberts
       尤利乌斯•哈里斯 Julius Harris
       辛西娅·贝尔格雷夫 Cynthia Belgrave
       卡罗尔·科尔 Carol Cole
       亚历克斯·科伦 Alex Colon
       乔·菲尔兹 Joe Fields
       马里·戈尔曼 Mari Gorman
       迈克尔·戈林 Michael Gorrin
       露西·萨罗扬 Lucy Saroyan
       罗伯特·威尔 Robert Weil
       克里斯托弗·莫尼 Christopher Murney
       蒂莫西·迈耶斯 Timothy Meyers
       露丝·阿塔韦 Ruth Attaway
       托马斯巴伯 Thomas Barbour
       尼尔·布鲁克斯·坎宁安 Neil Brooks Cunningham
       萨尔·维斯库索 Sal Viscuso
       伯特·哈里斯 Burtt Harris
       吉恩·格罗斯 Gene Gross
       约瑟夫·阿特尔斯 Joseph Attles
       伊莎贝拉·霍普斯 Isabella Hoopes
       比尔·考布斯 Bill Cobbs
       乔·塞内卡 Joe Seneca
       托尼·罗伯茨 Tony Roberts
       亨泽尔 Hy Anzell
       伊内斯·海伦德尔 Ines Hellendall
       让·保罗·海伦德尔 Jean-Paul Hellendall
       凯里·洛夫廷 Carey Loftin
       查尔斯·西尔文 Charles Silvern
       多尔夫·斯威特 Dolph Sweet
       弗兰克·文特根 Frank Ventgen
◎标  签 犯罪 / 美国 / 1970s / 美国电影 / 1974 / 悬疑 / 剧情 / 典范
◎简  介

    以罗伯特·肖为首的四名暴徒洗劫纽约市的地下铁,劫持十八个乘客作人质,威胁市政府在一小时内交一百万美圆赎金,否则起头杀戮人质。沃尔特·马修饰演的警长一边代表市府与暴徒周旋,另一边又跟地铁公司的职员怒目向相,使危机随着时候曩昔而升高。不意在四个暴徒得手以后,警长竟凭巧计看破了其中一位劫匪的身份。
  1. Video
  2. ID                                       : 1
  3. Format                                   : AVC
  4. Format/Info                              : Advanced Video Codec
  5. Format profile                           : [email protected]
  6. Format settings                          : CABAC / 4 Ref Frames
  7. Format settings, CABAC                   : Yes
  8. Format settings, Reference frames        : 4 frames
  9. Codec ID                                 : V_MPEG4/ISO/AVC
  10. Duration                                 : 1 h 44 min
  11. Bit rate                                 : 11.5 Mb/s
  12. Width                                    : 1 920 pixels
  13. Height                                   : 804 pixels
  14. Display aspect ratio                     : 2.40:1
  15. Frame rate mode                          : Constant
  16. Frame rate                               : 24.000 FPS
  17. Color space                              : YUV
  18. Chroma subsampling                       : 4:2:0
  19. Bit depth                                : 8 bits
  20. Scan type                                : Progressive
  21. Bits/(Pixel*Frame)                       : 0.310
  22. Stream size                              : 8.38 GiB (88%)
  23. Writing library                          : x264 core 148 r2795M aaa9aa8
  24. Encoding settings                        : cabac=1 / ref=4 / deblock=1:-2:-2 / analyse=0x3:0x113 / me=umh / subme=9 / psy=1 / psy_rd=1.00:0.15 / mixed_ref=1 / me_range=16 / chroma_me=1 / trellis=2 / 8x8dct=1 / cqm=0 / deadzone=21,11 / fast_pskip=1 / chroma_qp_offset=-3 / threads=72 / lookahead_threads=3 / sliced_threads=0 / nr=0 / decimate=1 / interlaced=0 / bluray_compat=0 / constrained_intra=0 / bframes=3 / b_pyramid=2 / b_adapt=1 / b_bias=0 / direct=3 / weightb=1 / open_gop=0 / weightp=2 / keyint=250 / keyint_min=25 / scenecut=40 / intra_refresh=0 / rc_lookahead=50 / rc=2pass / mbtree=1 / bitrate=11500 / ratetol=1.0 / qcomp=0.60 / qpmin=0 / qpmax=69 / qpstep=4 / cplxblur=20.0 / qblur=0.5 / vbv_maxrate=31250 / vbv_bufsize=31250 / nal_hrd=none / filler=0 / ip_ratio=1.40 / aq=1:1.00
  25. Language                                 : English
  26. Default                                  : Yes
  27. Forced                                   : No
  28. Audio
  29. ID                                       : 2
  30. Format                                   : DTS
  31. Format/Info                              : Digital Theater Systems
  32. Codec ID                                 : A_DTS
  33. Duration                                 : 1 h 44 min
  34. Bit rate mode                            : Constant
  35. Bit rate                                 : 1 509 kb/s
  36. Channel(s)                               : 6 channels
  37. Channel layout                           : C L R Ls Rs LFE
  38. Sampling rate                            : 48.0 kHz
  39. Frame rate                               : 93.750 FPS (512 SPF)
  40. Bit depth                                : 24 bits
  41. Compression mode                         : Lossy
  42. Stream size                              : 1.10 GiB (12%)
  43. Language                                 : English
  44. Default                                  : Yes
  45. Forced                                   : No
  46. Text #1
  47. ID                                       : 3
  48. Format                                   : UTF-8
  49. Codec ID                                 : S_TEXT/UTF8
  50. Codec ID/Info                            : UTF-8 Plain Text
  51. Duration                                 : 1 h 38 min
  52. Bit rate                                 : 85 b/s
  53. Frame rate                               : 0.340 FPS
  54. Count of elements                        : 2004
  55. Stream size                              : 61.2 KiB (0%)
  56. Language                                 : English
  57. Default                                  : Yes
  58. Forced                                   : No
  59. Text #2
  60. ID                                       : 4
  61. Format                                   : UTF-8
  62. Codec ID                                 : S_TEXT/UTF8
  63. Codec ID/Info                            : UTF-8 Plain Text
  64. Duration                                 : 1 h 41 min
  65. Bit rate                                 : 90 b/s
  66. Frame rate                               : 0.371 FPS
  67. Count of elements                        : 2248
  68. Stream size                              : 67.3 KiB (0%)
  69. Title                                    : SDH
  70. Language                                 : English
  71. Default                                  : No
  72. Forced                                   : No
  73. Menu
  74. 00:00:00.000                             : en:Chapter 00
  75. 00:09:33.791                             : en:Chapter 01
  76. 00:23:38.208                             : en:Chapter 02
  77. 00:33:38.500                             : en:Chapter 03
  78. 00:49:29.708                             : en:Chapter 04
  79. 01:02:18.583                             : en:Chapter 05
  80. 01:19:39.875                             : en:Chapter 06
  81. 01:32:53.916                             : en:Chapter 07
复制代码




                                       
                                       

                                       
                                       
                                       




The.Taking.of.Pelham.One.Two.Three.1974.REMASTERED.1080p.BluRay.x264.DTS-FGT.torrent (24.4 KB, 下载次数: 8)
回复

使用道具 举报

蓝光币
0 枚
发表于 2023-1-21 21:18:08 | 显示全部楼层
谢谢分享
回复

使用道具 举报

懒得打字嘛,点击右侧快捷回复 【右侧内容,后台自定义】
您需要登录后才可以回帖 登录 | 立即注册

本版积分规则

Archiver|手机版|小黑屋| 中国高清网 |网站地图 

GMT+8, 2023-1-29 23:51 , Processed in 0.095317 second(s), 26 queries .

Powered by HDchina X3.4

Copyright 2017-2019©HDchina.All right reserved

返回顶部 联系我们