查看: 26|回复: 1

[2160p] 紫心之恋 Purple.Hearts.2022.2160p.NF.WEB-DL.x265.10bit.HDR.DDP5.1.Atmos-APEX 14.36GB

[复制链接]
蓝光币
66 枚
发表于 2022-11-24 21:49:35 | 显示全部楼层 |阅读模式
[img][/img]

◎标  题 紫心之恋
◎片  名 Purple Hearts
◎年  代 2022
◎产  地 美国
◎类  别 剧情 / 恋爱 / 音乐
◎语  言 英语
◎上映日期 2022-07-29(美国收集)
◎IMDb链接 https://www.imdb.com/title/tt4614584/
◎豆瓣链接 https://movie.douban.com/subject/35955845/
◎片  长 122分钟
◎导  演 伊丽莎白·艾伦 Elizabeth Allen
◎编  剧 丽兹·加西亚 Liz W. Garcia
◎演  员 尼古拉斯·加利齐纳 Nicholas Galitzine
       索菲亚·卡尔森 Sofia Carson
       林登·阿什比 Linden Ashby
       约翰·哈伦·金 John Harlan Kim
       乔森·雅各布 Chosen Jacobs
       卡特里娜·坎宁安 Katrina Cunningham
       斯科特·德克特 Scott Deckert
       阿桑特·琼斯 Asante Jones
       黛比·范 Debbie Fan
       斯利姆·克什里 Slim Khezri
       亚历克斯·威克索 Alex Wexo
◎简  介

  虽然存在很多分歧,受精神疾病困扰的创作歌手卡西和堕入窘境的水兵陆战队员卢克赞成仅出于好处而成婚。可是当悲剧发生时,实在和子虚之间的界限起头变得模糊……
  1. Video
  2. ID                                       : 1
  3. Format                                   : HEVC
  4. Format/Info                              : High Efficiency Video Coding
  5. Format profile                           : Main [email protected]@Main
  6. HDR format                               : SMPTE ST 2086, HDR10 compatible
  7. Codec ID                                 : V_MPEGH/ISO/HEVC
  8. Duration                                 : 2 h 2 min
  9. Bit rate                                 : 16.0 Mb/s
  10. Width                                    : 3 840 pixels
  11. Height                                   : 2 160 pixels
  12. Display aspect ratio                     : 16:9
  13. Frame rate mode                          : Constant
  14. Frame rate                               : 24.000 FPS
  15. Color space                              : YUV
  16. Chroma subsampling                       : 4:2:0 (Type 2)
  17. Bit depth                                : 10 bits
  18. Bits/(Pixel*Frame)                       : 0.080
  19. Stream size                              : 13.7 GiB (95%)
  20. Default                                  : Yes
  21. Forced                                   : No
  22. Color range                              : Limited
  23. Color primaries                          : BT.2020
  24. Transfer characteristics                 : PQ
  25. Matrix coefficients                      : BT.2020 non-constant
  26. Mastering display color primaries        : Display P3
  27. Mastering display luminance              : min: 0.0001 cd/m2, max: 1000 cd/m2
  28. Maximum Content Light Level              : 756 cd/m2
  29. Maximum Frame-Average Light Level        : 209 cd/m2
  30. Audio
  31. ID                                       : 2
  32. Format                                   : E-AC-3 JOC
  33. Format/Info                              : Enhanced AC-3 with Joint Object Coding
  34. Commercial name                          : Dolby Digital Plus with Dolby Atmos
  35. Codec ID                                 : A_EAC3
  36. Duration                                 : 2 h 4 min
  37. Bit rate mode                            : Constant
  38. Bit rate                                 : 768 kb/s
  39. Channel(s)                               : 6 channels
  40. Channel layout                           : L R C LFE Ls Rs
  41. Sampling rate                            : 48.0 kHz
  42. Frame rate                               : 31.250 FPS (1536 SPF)
  43. Compression mode                         : Lossy
  44. Stream size                              : 684 MiB (5%)
  45. Language                                 : English
  46. Service kind                             : Complete Main
  47. Default                                  : Yes
  48. Forced                                   : No
  49. Complexity index                         : 16
  50. Number of dynamic objects                : 15
  51. Bed channel count                        : 1 channel
  52. Bed channel configuration                : LFE
  53. Text #1
  54. ID                                       : 3
  55. Format                                   : UTF-8
  56. Codec ID                                 : S_TEXT/UTF8
  57. Codec ID/Info                            : UTF-8 Plain Text
  58. Duration                                 : 2 h 1 min
  59. Bit rate                                 : 69 b/s
  60. Frame rate                               : 0.259 FPS
  61. Count of elements                        : 1883
  62. Stream size                              : 61.5 KiB (0%)
  63. Language                                 : English
  64. Default                                  : No
  65. Forced                                   : No
  66. Text #2
  67. ID                                       : 4
  68. Format                                   : UTF-8
  69. Codec ID                                 : S_TEXT/UTF8
  70. Codec ID/Info                            : UTF-8 Plain Text
  71. Duration                                 : 2 h 1 min
  72. Bit rate                                 : 84 b/s
  73. Frame rate                               : 0.315 FPS
  74. Count of elements                        : 2292
  75. Stream size                              : 75.4 KiB (0%)
  76. Title                                    : SDH
  77. Language                                 : English
  78. Default                                  : No
  79. Forced                                   : No
  80. Text #3
  81. ID                                       : 5
  82. Format                                   : UTF-8
  83. Codec ID                                 : S_TEXT/UTF8
  84. Codec ID/Info                            : UTF-8 Plain Text
  85. Duration                                 : 2 h 2 min
  86. Bit rate                                 : 107 b/s
  87. Frame rate                               : 0.225 FPS
  88. Count of elements                        : 1647
  89. Stream size                              : 96.1 KiB (0%)
  90. Language                                 : Arabic
  91. Default                                  : No
  92. Forced                                   : No
  93. Text #4
  94. ID                                       : 6
  95. Format                                   : UTF-8
  96. Codec ID                                 : S_TEXT/UTF8
  97. Codec ID/Info                            : UTF-8 Plain Text
  98. Duration                                 : 2 h 2 min
  99. Bit rate                                 : 51 b/s
  100. Frame rate                               : 0.217 FPS
  101. Count of elements                        : 1593
  102. Stream size                              : 45.8 KiB (0%)
  103. Language                                 : Catalan
  104. Default                                  : No
  105. Forced                                   : No
  106. Text #5
  107. ID                                       : 7
  108. Format                                   : UTF-8
  109. Codec ID                                 : S_TEXT/UTF8
  110. Codec ID/Info                            : UTF-8 Plain Text
  111. Duration                                 : 2 h 2 min
  112. Bit rate                                 : 51 b/s
  113. Frame rate                               : 0.213 FPS
  114. Count of elements                        : 1560
  115. Stream size                              : 45.9 KiB (0%)
  116. Language                                 : Czech
  117. Default                                  : No
  118. Forced                                   : No
  119. Text #6
  120. ID                                       : 8
  121. Format                                   : UTF-8
  122. Codec ID                                 : S_TEXT/UTF8
  123. Codec ID/Info                            : UTF-8 Plain Text
  124. Duration                                 : 2 h 2 min
  125. Bit rate                                 : 49 b/s
  126. Frame rate                               : 0.204 FPS
  127. Count of elements                        : 1494
  128. Stream size                              : 44.1 KiB (0%)
  129. Language                                 : Danish
  130. Default                                  : No
  131. Forced                                   : No
  132. Text #7
  133. ID                                       : 9
  134. Format                                   : UTF-8
  135. Codec ID                                 : S_TEXT/UTF8
  136. Codec ID/Info                            : UTF-8 Plain Text
  137. Duration                                 : 1 h 56 min
  138. Bit rate                                 : 75 b/s
  139. Frame rate                               : 0.282 FPS
  140. Count of elements                        : 1980
  141. Stream size                              : 64.6 KiB (0%)
  142. Title                                    : SDH
  143. Language                                 : German
  144. Default                                  : No
  145. Forced                                   : No
  146. Text #8
  147. ID                                       : 10
  148. Format                                   : UTF-8
  149. Codec ID                                 : S_TEXT/UTF8
  150. Codec ID/Info                            : UTF-8 Plain Text
  151. Duration                                 : 2 h 2 min
  152. Bit rate                                 : 53 b/s
  153. Frame rate                               : 0.209 FPS
  154. Count of elements                        : 1531
  155. Stream size                              : 47.7 KiB (0%)
  156. Language                                 : German
  157. Default                                  : No
  158. Forced                                   : No
  159. Text #9
  160. ID                                       : 11
  161. Format                                   : UTF-8
  162. Codec ID                                 : S_TEXT/UTF8
  163. Codec ID/Info                            : UTF-8 Plain Text
  164. Duration                                 : 1 h 56 min
  165. Bit rate                                 : 67 b/s
  166. Frame rate                               : 0.243 FPS
  167. Count of elements                        : 1703
  168. Stream size                              : 57.6 KiB (0%)
  169. Language                                 : German
  170. Default                                  : No
  171. Forced                                   : No
  172. Text #10
  173. ID                                       : 12
  174. Format                                   : UTF-8
  175. Codec ID                                 : S_TEXT/UTF8
  176. Codec ID/Info                            : UTF-8 Plain Text
  177. Duration                                 : 2 h 2 min
  178. Bit rate                                 : 87 b/s
  179. Frame rate                               : 0.215 FPS
  180. Count of elements                        : 1576
  181. Stream size                              : 78.2 KiB (0%)
  182. Language                                 : Greek
  183. Default                                  : No
  184. Forced                                   : No
  185. Text #11
  186. ID                                       : 13
  187. Format                                   : UTF-8
  188. Codec ID                                 : S_TEXT/UTF8
  189. Codec ID/Info                            : UTF-8 Plain Text
  190. Duration                                 : 2 h 2 min
  191. Bit rate                                 : 67 b/s
  192. Frame rate                               : 0.269 FPS
  193. Count of elements                        : 1974
  194. Stream size                              : 60.7 KiB (0%)
  195. Title                                    : SDH
  196. Language                                 : Spanish
  197. Default                                  : No
  198. Forced                                   : No
  199. Text #12
  200. ID                                       : 14
  201. Format                                   : UTF-8
  202. Codec ID                                 : S_TEXT/UTF8
  203. Codec ID/Info                            : UTF-8 Plain Text
  204. Duration                                 : 2 h 2 min
  205. Bit rate                                 : 53 b/s
  206. Frame rate                               : 0.218 FPS
  207. Count of elements                        : 1595
  208. Stream size                              : 48.2 KiB (0%)
  209. Language                                 : Spanish
  210. Default                                  : No
  211. Forced                                   : No
  212. Text #13
  213. ID                                       : 15
  214. Format                                   : UTF-8
  215. Codec ID                                 : S_TEXT/UTF8
  216. Codec ID/Info                            : UTF-8 Plain Text
  217. Duration                                 : 2 h 2 min
  218. Bit rate                                 : 49 b/s
  219. Frame rate                               : 0.215 FPS
  220. Count of elements                        : 1575
  221. Stream size                              : 44.6 KiB (0%)
  222. Language                                 : Spanish
  223. Default                                  : No
  224. Forced                                   : No
  225. Text #14
  226. ID                                       : 16
  227. Format                                   : UTF-8
  228. Codec ID                                 : S_TEXT/UTF8
  229. Codec ID/Info                            : UTF-8 Plain Text
  230. Duration                                 : 2 h 2 min
  231. Bit rate                                 : 52 b/s
  232. Frame rate                               : 0.216 FPS
  233. Count of elements                        : 1587
  234. Stream size                              : 46.9 KiB (0%)
  235. Title                                    : European
  236. Language                                 : Spanish
  237. Default                                  : No
  238. Forced                                   : No
  239. Text #15
  240. ID                                       : 17
  241. Format                                   : UTF-8
  242. Codec ID                                 : S_TEXT/UTF8
  243. Codec ID/Info                            : UTF-8 Plain Text
  244. Duration                                 : 2 h 2 min
  245. Bit rate                                 : 49 b/s
  246. Frame rate                               : 0.220 FPS
  247. Count of elements                        : 1616
  248. Stream size                              : 44.1 KiB (0%)
  249. Language                                 : Basque
  250. Default                                  : No
  251. Forced                                   : No
  252. Text #16
  253. ID                                       : 18
  254. Format                                   : UTF-8
  255. Codec ID                                 : S_TEXT/UTF8
  256. Codec ID/Info                            : UTF-8 Plain Text
  257. Duration                                 : 2 h 2 min
  258. Bit rate                                 : 44 b/s
  259. Frame rate                               : 0.152 FPS
  260. Count of elements                        : 1118
  261. Stream size                              : 39.7 KiB (0%)
  262. Language                                 : Finnish
  263. Default                                  : No
  264. Forced                                   : No
  265. Text #17
  266. ID                                       : 19
  267. Format                                   : UTF-8
  268. Codec ID                                 : S_TEXT/UTF8
  269. Codec ID/Info                            : UTF-8 Plain Text
  270. Duration                                 : 2 h 2 min
  271. Bit rate                                 : 52 b/s
  272. Frame rate                               : 0.219 FPS
  273. Count of elements                        : 1602
  274. Stream size                              : 46.7 KiB (0%)
  275. Language                                 : fil
  276. Default                                  : No
  277. Forced                                   : No
  278. Text #18
  279. ID                                       : 20
  280. Format                                   : UTF-8
  281. Codec ID                                 : S_TEXT/UTF8
  282. Codec ID/Info                            : UTF-8 Plain Text
  283. Duration                                 : 2 h 2 min
  284. Bit rate                                 : 77 b/s
  285. Frame rate                               : 0.290 FPS
  286. Count of elements                        : 2127
  287. Stream size                              : 69.2 KiB (0%)
  288. Title                                    : SDH
  289. Language                                 : French
  290. Default                                  : No
  291. Forced                                   : No
  292. Text #19
  293. ID                                       : 21
  294. Format                                   : UTF-8
  295. Codec ID                                 : S_TEXT/UTF8
  296. Codec ID/Info                            : UTF-8 Plain Text
  297. Duration                                 : 2 h 2 min
  298. Bit rate                                 : 51 b/s
  299. Frame rate                               : 0.211 FPS
  300. Count of elements                        : 1546
  301. Stream size                              : 45.9 KiB (0%)
  302. Language                                 : French
  303. Default                                  : No
  304. Forced                                   : No
  305. Text #20
  306. ID                                       : 22
  307. Format                                   : UTF-8
  308. Codec ID                                 : S_TEXT/UTF8
  309. Codec ID/Info                            : UTF-8 Plain Text
  310. Duration                                 : 2 h 1 min
  311. Bit rate                                 : 58 b/s
  312. Frame rate                               : 0.215 FPS
  313. Count of elements                        : 1575
  314. Stream size                              : 51.9 KiB (0%)
  315. Language                                 : French
  316. Default                                  : No
  317. Forced                                   : No
  318. Text #21
  319. ID                                       : 23
  320. Format                                   : UTF-8
  321. Codec ID                                 : S_TEXT/UTF8
  322. Codec ID/Info                            : UTF-8 Plain Text
  323. Duration                                 : 2 h 2 min
  324. Bit rate                                 : 47 b/s
  325. Frame rate                               : 0.219 FPS
  326. Count of elements                        : 1608
  327. Stream size                              : 42.2 KiB (0%)
  328. Language                                 : Galician
  329. Default                                  : No
  330. Forced                                   : No
  331. Text #22
  332. ID                                       : 24
  333. Format                                   : UTF-8
  334. Codec ID                                 : S_TEXT/UTF8
  335. Codec ID/Info                            : UTF-8 Plain Text
  336. Duration                                 : 2 h 2 min
  337. Bit rate                                 : 91 b/s
  338. Frame rate                               : 0.220 FPS
  339. Count of elements                        : 1615
  340. Stream size                              : 82.0 KiB (0%)
  341. Language                                 : Hebrew
  342. Default                                  : No
  343. Forced                                   : No
  344. Text #23
  345. ID                                       : 25
  346. Format                                   : UTF-8
  347. Codec ID                                 : S_TEXT/UTF8
  348. Codec ID/Info                            : UTF-8 Plain Text
  349. Duration                                 : 2 h 2 min
  350. Bit rate                                 : 46 b/s
  351. Frame rate                               : 0.213 FPS
  352. Count of elements                        : 1559
  353. Stream size                              : 41.8 KiB (0%)
  354. Language                                 : Croatian
  355. Default                                  : No
  356. Forced                                   : No
  357. Text #24
  358. ID                                       : 26
  359. Format                                   : UTF-8
  360. Codec ID                                 : S_TEXT/UTF8
  361. Codec ID/Info                            : UTF-8 Plain Text
  362. Duration                                 : 2 h 2 min
  363. Bit rate                                 : 53 b/s
  364. Frame rate                               : 0.209 FPS
  365. Count of elements                        : 1530
  366. Stream size                              : 48.2 KiB (0%)
  367. Language                                 : Hungarian
  368. Default                                  : No
  369. Forced                                   : No
  370. Text #25
  371. ID                                       : 27
  372. Format                                   : UTF-8
  373. Codec ID                                 : S_TEXT/UTF8
  374. Codec ID/Info                            : UTF-8 Plain Text
  375. Duration                                 : 2 h 2 min
  376. Bit rate                                 : 49 b/s
  377. Frame rate                               : 0.219 FPS
  378. Count of elements                        : 1604
  379. Stream size                              : 44.3 KiB (0%)
  380. Language                                 : Indonesian
  381. Default                                  : No
  382. Forced                                   : No
  383. Text #26
  384. ID                                       : 28
  385. Format                                   : UTF-8
  386. Codec ID                                 : S_TEXT/UTF8
  387. Codec ID/Info                            : UTF-8 Plain Text
  388. Duration                                 : 2 h 2 min
  389. Bit rate                                 : 50 b/s
  390. Frame rate                               : 0.206 FPS
  391. Count of elements                        : 1514
  392. Stream size                              : 45.4 KiB (0%)
  393. Language                                 : Italian
  394. Default                                  : No
  395. Forced                                   : No
  396. Text #27
  397. ID                                       : 29
  398. Format                                   : UTF-8
  399. Codec ID                                 : S_TEXT/UTF8
  400. Codec ID/Info                            : UTF-8 Plain Text
  401. Duration                                 : 2 h 2 min
  402. Bit rate                                 : 58 b/s
  403. Frame rate                               : 0.243 FPS
  404. Count of elements                        : 1785
  405. Stream size                              : 52.3 KiB (0%)
  406. Language                                 : Japanese
  407. Default                                  : No
  408. Forced                                   : No
  409. Text #28
  410. ID                                       : 30
  411. Format                                   : UTF-8
  412. Codec ID                                 : S_TEXT/UTF8
  413. Codec ID/Info                            : UTF-8 Plain Text
  414. Duration                                 : 2 h 2 min
  415. Bit rate                                 : 69 b/s
  416. Frame rate                               : 0.219 FPS
  417. Count of elements                        : 1608
  418. Stream size                              : 62.2 KiB (0%)
  419. Language                                 : Korean
  420. Default                                  : No
  421. Forced                                   : No
  422. Text #29
  423. ID                                       : 31
  424. Format                                   : UTF-8
  425. Codec ID                                 : S_TEXT/UTF8
  426. Codec ID/Info                            : UTF-8 Plain Text
  427. Duration                                 : 2 h 2 min
  428. Bit rate                                 : 52 b/s
  429. Frame rate                               : 0.214 FPS
  430. Count of elements                        : 1572
  431. Stream size                              : 46.6 KiB (0%)
  432. Language                                 : Malay
  433. Default                                  : No
  434. Forced                                   : No
  435. Text #30
  436. ID                                       : 32
  437. Format                                   : UTF-8
  438. Codec ID                                 : S_TEXT/UTF8
  439. Codec ID/Info                            : UTF-8 Plain Text
  440. Duration                                 : 2 h 2 min
  441. Bit rate                                 : 51 b/s
  442. Frame rate                               : 0.199 FPS
  443. Count of elements                        : 1458
  444. Stream size                              : 45.8 KiB (0%)
  445. Language                                 : Norwegian Bokmal
  446. Default                                  : No
  447. Forced                                   : No
  448. Text #31
  449. ID                                       : 33
  450. Format                                   : UTF-8
  451. Codec ID                                 : S_TEXT/UTF8
  452. Codec ID/Info                            : UTF-8 Plain Text
  453. Duration                                 : 1 h 56 min
  454. Bit rate                                 : 56 b/s
  455. Frame rate                               : 0.197 FPS
  456. Count of elements                        : 1381
  457. Stream size                              : 47.9 KiB (0%)
  458. Language                                 : Dutch
  459. Default                                  : No
  460. Forced                                   : No
  461. Text #32
  462. ID                                       : 34
  463. Format                                   : UTF-8
  464. Codec ID                                 : S_TEXT/UTF8
  465. Codec ID/Info                            : UTF-8 Plain Text
  466. Duration                                 : 2 h 2 min
  467. Bit rate                                 : 50 b/s
  468. Frame rate                               : 0.215 FPS
  469. Count of elements                        : 1580
  470. Stream size                              : 45.4 KiB (0%)
  471. Language                                 : Polish
  472. Default                                  : No
  473. Forced                                   : No
  474. Text #33
  475. ID                                       : 35
  476. Format                                   : UTF-8
  477. Codec ID                                 : S_TEXT/UTF8
  478. Codec ID/Info                            : UTF-8 Plain Text
  479. Duration                                 : 2 h 2 min
  480. Bit rate                                 : 49 b/s
  481. Frame rate                               : 0.212 FPS
  482. Count of elements                        : 1556
  483. Stream size                              : 44.6 KiB (0%)
  484. Language                                 : Portuguese
  485. Default                                  : No
  486. Forced                                   : No
  487. Text #34
  488. ID                                       : 36
  489. Format                                   : UTF-8
  490. Codec ID                                 : S_TEXT/UTF8
  491. Codec ID/Info                            : UTF-8 Plain Text
  492. Duration                                 : 2 h 2 min
  493. Bit rate                                 : 69 b/s
  494. Frame rate                               : 0.263 FPS
  495. Count of elements                        : 1929
  496. Stream size                              : 61.9 KiB (0%)
  497. Title                                    : SDH
  498. Language                                 : Portuguese
  499. Default                                  : No
  500. Forced                                   : No
  501. Text #35
  502. ID                                       : 37
  503. Format                                   : UTF-8
  504. Codec ID                                 : S_TEXT/UTF8
  505. Codec ID/Info                            : UTF-8 Plain Text
  506. Duration                                 : 2 h 2 min
  507. Bit rate                                 : 55 b/s
  508. Frame rate                               : 0.219 FPS
  509. Count of elements                        : 1604
  510. Stream size                              : 49.9 KiB (0%)
  511. Title                                    : Brazilian
  512. Language                                 : Portuguese
  513. Default                                  : No
  514. Forced                                   : No
  515. Text #36
  516. ID                                       : 38
  517. Format                                   : UTF-8
  518. Codec ID                                 : S_TEXT/UTF8
  519. Codec ID/Info                            : UTF-8 Plain Text
  520. Duration                                 : 2 h 2 min
  521. Bit rate                                 : 52 b/s
  522. Frame rate                               : 0.218 FPS
  523. Count of elements                        : 1597
  524. Stream size                              : 46.8 KiB (0%)
  525. Title                                    : Brazilian
  526. Language                                 : Portuguese
  527. Default                                  : No
  528. Forced                                   : No
  529. Text #37
  530. ID                                       : 39
  531. Format                                   : UTF-8
  532. Codec ID                                 : S_TEXT/UTF8
  533. Codec ID/Info                            : UTF-8 Plain Text
  534. Duration                                 : 2 h 2 min
  535. Bit rate                                 : 57 b/s
  536. Frame rate                               : 0.203 FPS
  537. Count of elements                        : 1485
  538. Stream size                              : 51.7 KiB (0%)
  539. Language                                 : Romanian
  540. Default                                  : No
  541. Forced                                   : No
  542. Text #38
  543. ID                                       : 40
  544. Format                                   : UTF-8
  545. Codec ID                                 : S_TEXT/UTF8
  546. Codec ID/Info                            : UTF-8 Plain Text
  547. Duration                                 : 2 h 2 min
  548. Bit rate                                 : 86 b/s
  549. Frame rate                               : 0.219 FPS
  550. Count of elements                        : 1604
  551. Stream size                              : 77.4 KiB (0%)
  552. Language                                 : Russian
  553. Default                                  : No
  554. Forced                                   : No
  555. Text #39
  556. ID                                       : 41
  557. Format                                   : UTF-8
  558. Codec ID                                 : S_TEXT/UTF8
  559. Codec ID/Info                            : UTF-8 Plain Text
  560. Duration                                 : 2 h 2 min
  561. Bit rate                                 : 49 b/s
  562. Frame rate                               : 0.188 FPS
  563. Count of elements                        : 1377
  564. Stream size                              : 44.3 KiB (0%)
  565. Language                                 : Swedish
  566. Default                                  : No
  567. Forced                                   : No
  568. Text #40
  569. ID                                       : 42
  570. Format                                   : UTF-8
  571. Codec ID                                 : S_TEXT/UTF8
  572. Codec ID/Info                            : UTF-8 Plain Text
  573. Duration                                 : 2 h 2 min
  574. Bit rate                                 : 157 b/s
  575. Frame rate                               : 0.222 FPS
  576. Count of elements                        : 1629
  577. Stream size                              : 141 KiB (0%)
  578. Language                                 : Thai
  579. Default                                  : No
  580. Forced                                   : No
  581. Text #41
  582. ID                                       : 43
  583. Format                                   : UTF-8
  584. Codec ID                                 : S_TEXT/UTF8
  585. Codec ID/Info                            : UTF-8 Plain Text
  586. Duration                                 : 2 h 2 min
  587. Bit rate                                 : 51 b/s
  588. Frame rate                               : 0.217 FPS
  589. Count of elements                        : 1589
  590. Stream size                              : 45.9 KiB (0%)
  591. Language                                 : Turkish
  592. Default                                  : No
  593. Forced                                   : No
  594. Text #42
  595. ID                                       : 44
  596. Format                                   : UTF-8
  597. Codec ID                                 : S_TEXT/UTF8
  598. Codec ID/Info                            : UTF-8 Plain Text
  599. Duration                                 : 2 h 2 min
  600. Bit rate                                 : 79 b/s
  601. Frame rate                               : 0.216 FPS
  602. Count of elements                        : 1583
  603. Stream size                              : 71.5 KiB (0%)
  604. Language                                 : Ukrainian
  605. Default                                  : No
  606. Forced                                   : No
  607. Text #43
  608. ID                                       : 45
  609. Format                                   : UTF-8
  610. Codec ID                                 : S_TEXT/UTF8
  611. Codec ID/Info                            : UTF-8 Plain Text
  612. Duration                                 : 2 h 2 min
  613. Bit rate                                 : 76 b/s
  614. Frame rate                               : 0.215 FPS
  615. Count of elements                        : 1576
  616. Stream size                              : 68.2 KiB (0%)
  617. Language                                 : Vietnamese
  618. Default                                  : No
  619. Forced                                   : No
  620. Text #44
  621. ID                                       : 46
  622. Format                                   : UTF-8
  623. Codec ID                                 : S_TEXT/UTF8
  624. Codec ID/Info                            : UTF-8 Plain Text
  625. Duration                                 : 2 h 2 min
  626. Bit rate                                 : 58 b/s
  627. Frame rate                               : 0.222 FPS
  628. Count of elements                        : 1628
  629. Stream size                              : 52.2 KiB (0%)
  630. Title                                    : Simplified
  631. Language                                 : Chinese
  632. Default                                  : No
  633. Forced                                   : No
  634. Text #45
  635. ID                                       : 47
  636. Format                                   : UTF-8
  637. Codec ID                                 : S_TEXT/UTF8
  638. Codec ID/Info                            : UTF-8 Plain Text
  639. Duration                                 : 2 h 2 min
  640. Bit rate                                 : 61 b/s
  641. Frame rate                               : 0.228 FPS
  642. Count of elements                        : 1675
  643. Stream size                              : 55.3 KiB (0%)
  644. Title                                    : Traditional
  645. Language                                 : Chinese
  646. Default                                  : No
  647. Forced                                   : No
复制代码




                                       
                                       

                                       
                                       
                                       




Purple.Hearts.2022.2160p.NF.WEB-DL.x265.10bit.HDR.DDP5.1.Atmos-APEX.torrent (18.61 KB, 下载次数: 0)
回复

使用道具 举报

蓝光币
0 枚
发表于 2022-11-25 10:08:43 | 显示全部楼层
楼主发贴辛苦了,谢谢楼主分享!我觉得中国高清电影网是注册对了!
回复

使用道具 举报

懒得打字嘛,点击右侧快捷回复 【右侧内容,后台自定义】
您需要登录后才可以回帖 登录 | 立即注册

本版积分规则

Archiver|手机版|小黑屋| 中国高清网 |网站地图 

GMT+8, 2022-12-4 23:12 , Processed in 0.145465 second(s), 26 queries .

Powered by HDchina X3.4

Copyright 2017-2019©HDchina.All right reserved

返回顶部 联系我们