查看: 40|回复: 2

[2160p] 约克女巫会 York.Witches.Society.2022.2160p.WEB-DL.x265.10bit.SDR.DD5.1-CM 7.56GB

[复制链接]
蓝光币
44 枚
发表于 6 天前 | 显示全部楼层 |阅读模式
[img][/img]

◎标  题 约克女巫会
◎译  名 York Witches Society
◎片  名 York Witches' Society
◎年  代 2022
◎产  地 英国
◎类  别 可骇
◎语  言 英语
◎上映日期 2022-07-05(Galway Film Fleadh)
◎IMDb评分 3.3/10 (24人评价)
◎IMDb链接 https://www.imdb.com/title/tt14772558/
◎豆瓣链接 https://movie.douban.com/subject/36092386/
◎编  剧 菲利普·马丁内斯 Philippe Martinez
◎简  介

  Amber Gray catches the attention of an elite group of students during her first semester at university. During the initiation, Amber and the York Witches' Society unintentionally awaken an ancient evil that has been waiting to finish the job it started centuries earlier.
  1. Video
  2. ID                                       : 1
  3. Format                                   : HEVC
  4. Format/Info                              : High Efficiency Video Coding
  5. Format profile                           : Main [email protected]@High
  6. Codec ID                                 : V_MPEGH/ISO/HEVC
  7. Duration                                 : 1 h 27 min
  8. Bit rate                                 : 11.9 Mb/s
  9. Width                                    : 3 832 pixels
  10. Height                                   : 1 596 pixels
  11. Display aspect ratio                     : 2.40:1
  12. Frame rate mode                          : Constant
  13. Frame rate                               : 23.976 FPS
  14. Color space                              : YUV
  15. Chroma subsampling                       : 4:2:0
  16. Bit depth                                : 10 bits
  17. Bits/(Pixel*Frame)                       : 0.081
  18. Stream size                              : 7.32 GiB (97%)
  19. Language                                 : English
  20. Default                                  : Yes
  21. Forced                                   : No
  22. Color range                              : Limited
  23. Color primaries                          : BT.709
  24. Transfer characteristics                 : BT.709
  25. Matrix coefficients                      : BT.709

  26. Audio
  27. ID                                       : 2
  28. Format                                   : AC-3
  29. Format/Info                              : Audio Coding 3
  30. Commercial name                          : Dolby Digital
  31. Codec ID                                 : A_AC3
  32. Duration                                 : 1 h 27 min
  33. Bit rate mode                            : Constant
  34. Bit rate                                 : 384 kb/s
  35. Channel(s)                               : 6 channels
  36. Channel layout                           : L R C LFE Ls Rs
  37. Sampling rate                            : 48.0 kHz
  38. Frame rate                               : 31.250 FPS (1536 SPF)
  39. Compression mode                         : Lossy
  40. Stream size                              : 242 MiB (3%)
  41. Language                                 : English
  42. Service kind                             : Complete Main
  43. Default                                  : Yes
  44. Forced                                   : No

  45. Text #1
  46. ID                                       : 3
  47. Format                                   : UTF-8
  48. Codec ID                                 : S_TEXT/UTF8
  49. Codec ID/Info                            : UTF-8 Plain Text
  50. Duration                                 : 1 h 27 min
  51. Bit rate                                 : 57 b/s
  52. Frame rate                               : 0.278 FPS
  53. Count of elements                        : 1460
  54. Stream size                              : 36.9 KiB (0%)
  55. Title                                    : SDH
  56. Language                                 : English
  57. Default                                  : No
  58. Forced                                   : No

  59. Text #2
  60. ID                                       : 4
  61. Format                                   : UTF-8
  62. Codec ID                                 : S_TEXT/UTF8
  63. Codec ID/Info                            : UTF-8 Plain Text
  64. Duration                                 : 1 h 25 min
  65. Bit rate                                 : 46 b/s
  66. Frame rate                               : 0.214 FPS
  67. Count of elements                        : 1103
  68. Stream size                              : 29.4 KiB (0%)
  69. Language                                 : English
  70. Default                                  : No
  71. Forced                                   : No

  72. Menu
  73. 00:00:00.000                             : en:Chapter 01
  74. 00:04:35.775                             : en:Chapter 02
  75. 00:16:37.580                             : en:Chapter 03
  76. 00:28:34.089                             : en:Chapter 04
  77. 00:38:21.676                             : en:Chapter 05
  78. 00:48:18.064                             : en:Chapter 06
  79. 00:58:04.609                             : en:Chapter 07
  80. 01:13:15.562                             : en:Chapter 08
  81. 01:24:25.607                             : en:Chapter 09
复制代码




                                       
                                       

                                       
                                       
                                       




York.Witches.Society.2022.2160p.WEB-DL.x265.10bit.SDR.DD5.1-CM.torrent (19.54 KB, 下载次数: 0)
回复

使用道具 举报

懒得打字嘛,点击右侧快捷回复 【右侧内容,后台自定义】
您需要登录后才可以回帖 登录 | 立即注册

本版积分规则

Archiver|手机版|小黑屋| 中国高清网 |网站地图 

GMT+8, 2022-9-29 12:56 , Processed in 0.086198 second(s), 26 queries .

Powered by HDchina X3.4

Copyright 2017-2019©HDchina.All right reserved

返回顶部 联系我们