查看: 20|回复: 1

[科幻片] 不可思议的融化人 The.Incredible.Melting.Man.1977.REMASTERED.1080p.BluRay.x264-PiGNUS 12.47GB

[复制链接]
蓝光币
44 枚
发表于 2022-9-13 14:46:55 | 显示全部楼层 |阅读模式
[img][/img]

◎标  题 不成思议的融化人
◎译  名 血怪
◎片  名 The Incredible Melting Man
◎年  代 1977
◎产  地 USA
◎类  别 科幻 / 可骇
◎语  言 English
◎上映日期 1978-08-19
◎IMDb评分 4.1/10 (4551人评价)
◎IMDb链接 https://www.imdb.com/title/tt0076191/
◎豆瓣评分 5.5/10 (217人评价)
◎豆瓣链接 https://movie.douban.com/subject/1996308/
◎片  长 84分钟
◎导  演 威廉·萨克斯 William Sachs
◎编  剧 威廉·萨克斯 William Sachs
◎演  员 伯尔·德本宁 Burr DeBenning
       莱尔·威尔逊 Lisle Wilson
       Dorothy Love Dorothy Love
       Edwin Max Edwin Max
       DeForest Covan DeForest Covan
       纽威尔·亚历山大 Newell Alexander
       迈克尔·奥尔德雷奇 Michael Alldredge
       迈伦·希里 Myron Healey
       乔纳森·戴米 Jonathan Demme
       谢里尔·史姑娘 Cheryl Smith
       Max Rosenberg Max Rosenberg
       Arlon Ober Arlon Ober
       米歇尔·利维克 Michel Levesque
       里克·贝克 Rick Baker
       格雷格·卡农 Greg Cannom
◎简  介

  宇航员马特由于在太空履利用命时被紫外线辐射,身材变的腐败不胜,其性情也狂躁起来。马特为了不受ZF约束而挑选逃出医院,随着身材不竭地融化,他必须靠吃人来补充能量,警方也下了全国通缉令,亡命天涯的背后必定是悲凉终局……(电影的最大卖点就是看一小我若何渐渐地、疾苦的死去~)                                    
                                血腥度:5                                    
                                变态度:2                                    
                                片中怪物数目:-                                    
                                怪物范例:-                                    
                                怪物特点:-                                    
                                怪物必杀技:-                                    
                                怪物恶心度:-                                    
                                -----Zombiehunter
  1. Video
  2. ID                                       : 1
  3. Format                                   : AVC
  4. Format/Info                              : Advanced Video Codec
  5. Format profile                           : [email protected]
  6. Format settings                          : CABAC / 4 Ref Frames
  7. Format settings, CABAC                   : Yes
  8. Format settings, Reference frames        : 4 frames
  9. Codec ID                                 : V_MPEG4/ISO/AVC
  10. Duration                                 : 1 h 26 min
  11. Bit rate                                 : 19.8 Mb/s
  12. Width                                    : 1 920 pixels
  13. Height                                   : 1 036 pixels
  14. Display aspect ratio                     : 1.85:1
  15. Frame rate mode                          : Constant
  16. Frame rate                               : 23.976 (24000/1001/189150) FPS
  17. Color space                              : YUV
  18. Chroma subsampling                       : 4:2:0
  19. Bit depth                                : 8 bits
  20. Scan type                                : Progressive
  21. Bits/(Pixel*Frame)                       : 0.414
  22. Stream size                              : 11.9 GiB (95%)
  23. Writing library                          : x264 core 164 r3095 baee400
  24. Encoding settings                        : cabac=1 / ref=4 / deblock=1:-3:-3 / analyse=0x3:0x133 / me=umh / subme=10 / psy=1 / psy_rd=1.00:0.00 / mixed_ref=1 / me_range=24 / chroma_me=1 / trellis=2 / 8x8dct=1 / cqm=0 / deadzone=21,11 / fast_pskip=1 / chroma_qp_offset=-2 / threads=32 / lookahead_threads=5 / sliced_threads=0 / nr=0 / decimate=1 / interlaced=0 / bluray_compat=0 / constrained_intra=0 / bframes=8 / b_pyramid=2 / b_adapt=2 / b_bias=0 / direct=3 / weightb=1 / open_gop=0 / weightp=2 / keyint=250 / keyint_min=23 / scenecut=40 / intra_refresh=0 / rc_lookahead=60 / rc=crf / mbtree=1 / crf=20.3 / qcomp=0.60 / qpmin=0 / qpmax=69 / qpstep=4 / ip_ratio=1.40 / aq=1:1.00
  25. Default                                  : Yes
  26. Forced                                   : No

  27. Audio #1
  28. ID                                       : 2
  29. Format                                   : FLAC
  30. Format/Info                              : Free Lossless Audio Codec
  31. Codec ID                                 : A_FLAC
  32. Duration                                 : 1 h 26 min
  33. Bit rate mode                            : Variable
  34. Bit rate                                 : 848 kb/s
  35. Channel(s)                               : 2 channels
  36. Channel layout                           : L R
  37. Sampling rate                            : 48.0 kHz
  38. Frame rate                               : 11.719 FPS (4096 SPF)
  39. Bit depth                                : 24 bits
  40. Compression mode                         : Lossless
  41. Stream size                              : 523 MiB (4%)
  42. Writing library                          : libFLAC 1.2.1 (UTC 2007-09-17)
  43. Language                                 : English
  44. Default                                  : Yes
  45. Forced                                   : No

  46. Audio #2
  47. ID                                       : 3
  48. Format                                   : AAC LC
  49. Format/Info                              : Advanced Audio Codec Low Complexity
  50. Codec ID                                 : A_AAC-2
  51. Duration                                 : 1 h 26 min
  52. Bit rate                                 : 87.6 kb/s
  53. Channel(s)                               : 2 channels
  54. Channel layout                           : L R
  55. Sampling rate                            : 48.0 kHz
  56. Frame rate                               : 46.875 FPS (1024 SPF)
  57. Compression mode                         : Lossy
  58. Delay relative to video                  : 9 ms
  59. Stream size                              : 54.0 MiB (0%)
  60. Title                                    : Commentary
  61. Language                                 : English
  62. Default                                  : No
  63. Forced                                   : No

  64. Text
  65. ID                                       : 4
  66. Format                                   : PGS
  67. Muxing mode                              : zlib
  68. Codec ID                                 : S_HDMV/PGS
  69. Codec ID/Info                            : Picture based subtitle format used on BDs/HD-DVDs
  70. Duration                                 : 1 h 25 min
  71. Bit rate                                 : 25.8 kb/s
  72. Count of elements                        : 2535
  73. Stream size                              : 15.7 MiB (0%)
  74. Title                                    : English SDH
  75. Language                                 : English
  76. Default                                  : No
  77. Forced                                   : No

  78. Menu
  79. 00:00:00.000                             : en:Chapter 01
  80. 00:21:47.806                             : en:Chapter 02
  81. 00:43:25.603                             : en:Chapter 03
  82. 01:04:15.852                             : en:Chapter 04
  83. 01:14:10.947                             : en:Chapter 05
  84. 01:26:15.921                             : en:Chapter 06
复制代码




                                       
                                       

                                       
                                       
                                       




The.Incredible.Melting.Man.1977.REMASTERED.1080p.BluRay.x264-PiGNUS.torrent (16.39 KB, 下载次数: 0)
回复

使用道具 举报

蓝光币
34 枚
QQ
发表于 5 天前 | 显示全部楼层

这东西我收了!谢谢楼主!中国高清电影网真好!
回复

使用道具 举报

懒得打字嘛,点击右侧快捷回复 【右侧内容,后台自定义】
您需要登录后才可以回帖 登录 | 立即注册

本版积分规则

Archiver|手机版|小黑屋| 中国高清网 |网站地图 

GMT+8, 2022-9-28 12:26 , Processed in 0.117364 second(s), 27 queries .

Powered by HDchina X3.4

Copyright 2017-2019©HDchina.All right reserved

返回顶部 联系我们