查看: 36|回复: 1

[2160p] 海绵宝宝:营救大冒险 The.SpongeBob.Movie.Sponge.on.the.Run.2020.2160p.WEB-DL.x265.10bit.HDR.DTS-HD.MA.5.1-NOGRP 11.94GB

[复制链接]
蓝光币
28 枚
发表于 2022-8-6 09:12:53 | 显示全部楼层 |阅读模式


◎标  题 海绵宝宝:救援大冒险
◎译  名 海绵宝宝3 / 海绵宝宝:奔驰吧(台) / 海绵宝宝:吃紧脚走佬(港) / SpongeBob Squarepants 3 / Spongebob Movie 3 / It's a Wonderful Sponge
◎片  名 The SpongeBob Movie: Sponge on the Run
◎年  代 2020
◎产  地 美国 / 韩国 / 墨西哥 / 日本 / 西班牙
◎类  别 笑剧 / 动画 / 冒险
◎语  言 英语 / 西班牙语 / 阿拉伯语
◎上映日期 2020-11-06(中国大陆收集) / 2020-08-14(加拿大)
◎IMDb评分 6/10 (15943人评价)
◎IMDb链接 https://www.imdb.com/title/tt4823776/
◎豆瓣评分 6.1/10 (10350人评价)
◎豆瓣链接 https://movie.douban.com/subject/26662159/
◎片  长 91分钟
◎导  演 蒂姆·希尔 Tim Hill
◎编  剧 蒂姆·希尔 Tim Hill
       乔纳森·阿贝尔 Jonathan Aibel
       格伦·伯杰 Glenn Berger
       史蒂芬·海伦伯格 Stephen Hillenburg
       保罗·提比特 Paul Tibbitt
◎演  员 基努·里维斯 Keanu Reeves
       奥卡菲娜 Awkwafina
       克兰西·布朗 Clancy Brown
       汤姆·肯尼 Tom Kenny
       比尔·法格巴克 Bill Fagerbakke
       罗里·艾伦 Lori Alan
       劳伦斯师长 Mr. Lawrence
       玛丽·乔·卡特利特 Mary Jo Catlett
       罗德格尔·邦帕斯 Rodger Bumpass
       吉尔·塔利 Jill Talley
       卡罗琳·劳伦斯 Carolyn Lawrence
       维罗妮卡·阿利奇诺 Veronica Alicino
       汉斯·季默 Hans Zimmer
       史蒂夫·马扎罗 Steve Mazzaro
        Nick Kenway Nick Kenway
       Ineke Majoor   Ineke Majoor
◎标  签 海绵宝宝 / 动画 / 笑剧 / 美国 / 2020 / 3D / 派拉蒙 / Nickelodeon
◎简  介

  《海绵宝宝:救援大冒险》报告了海绵宝宝心爱的宠物小蜗被绑架后,海绵宝宝和派大星前往失落的大西洋城展开救援冒险的故事。在这场布满危险又妙趣横生的救援行动中,海绵宝宝和他的朋友们用现实行动证实了友谊的气力无穷大!
  1. Video
  2. ID                                       : 1
  3. Format                                   : HEVC
  4. Format/Info                              : High Efficiency Video Coding
  5. Format profile                           : Main [email protected]@High
  6. HDR format                               : SMPTE ST 2086, HDR10 compatible
  7. Codec ID                                 : V_MPEGH/ISO/HEVC
  8. Duration                                 : 1 h 31 min
  9. Bit rate                                 : 14.1 Mb/s
  10. Width                                    : 3 840 pixels
  11. Height                                   : 2 076 pixels
  12. Display aspect ratio                     : 1.85:1
  13. Frame rate mode                          : Constant
  14. Frame rate                               : 23.976 FPS
  15. Color space                              : YUV
  16. Chroma subsampling                       : 4:2:0 (Type 2)
  17. Bit depth                                : 10 bits
  18. Bits/(Pixel*Frame)                       : 0.074
  19. Stream size                              : 9.02 GiB (76%)
  20. Default                                  : Yes
  21. Forced                                   : No
  22. Color range                              : Limited
  23. Color primaries                          : BT.2020
  24. Transfer characteristics                 : PQ
  25. Matrix coefficients                      : BT.2020 non-constant
  26. Mastering display color primaries        : Display P3
  27. Mastering display luminance              : min: 0.0050 cd/m2, max: 1000 cd/m2
  28. Maximum Content Light Level              : 1045 cd/m2
  29. Maximum Frame-Average Light Level        : 188 cd/m2
  30. Audio #1
  31. ID                                       : 2
  32. Format                                   : DTS XLL
  33. Format/Info                              : Digital Theater Systems
  34. Commercial name                          : DTS-HD Master Audio
  35. Codec ID                                 : A_DTS
  36. Duration                                 : 1 h 31 min
  37. Bit rate mode                            : Variable
  38. Bit rate                                 : 3 660 kb/s
  39. Channel(s)                               : 6 channels
  40. Channel layout                           : C L R Ls Rs LFE
  41. Sampling rate                            : 48.0 kHz
  42. Frame rate                               : 93.750 FPS (512 SPF)
  43. Bit depth                                : 24 bits
  44. Compression mode                         : Lossless
  45. Delay relative to video                  : 8 ms
  46. Stream size                              : 2.34 GiB (20%)
  47. Title                                    : DTS-HD MA 5.1
  48. Language                                 : English
  49. Default                                  : Yes
  50. Forced                                   : No
  51. Audio #2
  52. ID                                       : 3
  53. Format                                   : E-AC-3 JOC
  54. Format/Info                              : Enhanced AC-3 with Joint Object Coding
  55. Commercial name                          : Dolby Digital Plus with Dolby Atmos
  56. Codec ID                                 : A_EAC3
  57. Duration                                 : 1 h 31 min
  58. Bit rate mode                            : Constant
  59. Bit rate                                 : 768 kb/s
  60. Channel(s)                               : 6 channels
  61. Channel layout                           : L R C LFE Ls Rs
  62. Sampling rate                            : 48.0 kHz
  63. Frame rate                               : 31.250 FPS (1536 SPF)
  64. Compression mode                         : Lossy
  65. Stream size                              : 503 MiB (4%)
  66. Title                                    : DDP 5.1
  67. Language                                 : English
  68. Service kind                             : Complete Main
  69. Default                                  : No
  70. Forced                                   : No
  71. Complexity index                         : 16
  72. Number of dynamic objects                : 15
  73. Bed channel count                        : 1 channel
  74. Bed channel configuration                : LFE
  75. Text #1
  76. ID                                       : 4
  77. Format                                   : UTF-8
  78. Codec ID                                 : S_TEXT/UTF8
  79. Codec ID/Info                            : UTF-8 Plain Text
  80. Duration                                 : 1 h 22 min
  81. Bit rate                                 : 66 b/s
  82. Frame rate                               : 0.264 FPS
  83. Count of elements                        : 1299
  84. Stream size                              : 40.1 KiB (0%)
  85. Title                                    : English
  86. Language                                 : English
  87. Default                                  : Yes
  88. Forced                                   : No
  89. Text #2
  90. ID                                       : 5
  91. Format                                   : UTF-8
  92. Codec ID                                 : S_TEXT/UTF8
  93. Codec ID/Info                            : UTF-8 Plain Text
  94. Duration                                 : 1 h 29 min
  95. Bit rate                                 : 73 b/s
  96. Frame rate                               : 0.315 FPS
  97. Count of elements                        : 1697
  98. Stream size                              : 48.1 KiB (0%)
  99. Title                                    : English CC
  100. Language                                 : English
  101. Default                                  : No
  102. Forced                                   : No
  103. Text #3
  104. ID                                       : 6
  105. Format                                   : UTF-8
  106. Codec ID                                 : S_TEXT/UTF8
  107. Codec ID/Info                            : UTF-8 Plain Text
  108. Duration                                 : 1 h 31 min
  109. Bit rate                                 : 49 b/s
  110. Frame rate                               : 0.238 FPS
  111. Count of elements                        : 1301
  112. Stream size                              : 32.7 KiB (0%)
  113. Title                                    : Danish
  114. Language                                 : Danish
  115. Default                                  : No
  116. Forced                                   : No
  117. Text #4
  118. ID                                       : 7
  119. Format                                   : UTF-8
  120. Codec ID                                 : S_TEXT/UTF8
  121. Codec ID/Info                            : UTF-8 Plain Text
  122. Duration                                 : 1 h 31 min
  123. Bit rate                                 : 54 b/s
  124. Frame rate                               : 0.245 FPS
  125. Count of elements                        : 1337
  126. Stream size                              : 36.5 KiB (0%)
  127. Title                                    : Finnish
  128. Language                                 : Finnish
  129. Default                                  : No
  130. Forced                                   : No
  131. Text #5
  132. ID                                       : 8
  133. Format                                   : UTF-8
  134. Codec ID                                 : S_TEXT/UTF8
  135. Codec ID/Info                            : UTF-8 Plain Text
  136. Duration                                 : 1 h 31 min
  137. Bit rate                                 : 59 b/s
  138. Frame rate                               : 0.231 FPS
  139. Count of elements                        : 1264
  140. Stream size                              : 39.7 KiB (0%)
  141. Title                                    : Korean
  142. Language                                 : Korean
  143. Default                                  : No
  144. Forced                                   : No
  145. Text #6
  146. ID                                       : 9
  147. Format                                   : UTF-8
  148. Codec ID                                 : S_TEXT/UTF8
  149. Codec ID/Info                            : UTF-8 Plain Text
  150. Duration                                 : 1 h 31 min
  151. Bit rate                                 : 57 b/s
  152. Frame rate                               : 0.244 FPS
  153. Count of elements                        : 1335
  154. Stream size                              : 38.5 KiB (0%)
  155. Title                                    : Norwegian
  156. Language                                 : Norwegian
  157. Default                                  : No
  158. Forced                                   : No
  159. Text #7
  160. ID                                       : 10
  161. Format                                   : UTF-8
  162. Codec ID                                 : S_TEXT/UTF8
  163. Codec ID/Info                            : UTF-8 Plain Text
  164. Duration                                 : 1 h 31 min
  165. Bit rate                                 : 59 b/s
  166. Frame rate                               : 0.244 FPS
  167. Count of elements                        : 1333
  168. Stream size                              : 39.6 KiB (0%)
  169. Title                                    : Swedish
  170. Language                                 : Swedish
  171. Default                                  : No
  172. Forced                                   : No
  173. Text #8
  174. ID                                       : 11
  175. Format                                   : PGS
  176. Muxing mode                              : zlib
  177. Codec ID                                 : S_HDMV/PGS
  178. Codec ID/Info                            : Picture based subtitle format used on BDs/HD-DVDs
  179. Duration                                 : 1 h 22 min
  180. Bit rate                                 : 41.8 kb/s
  181. Frame rate                               : 0.527 FPS
  182. Count of elements                        : 2598
  183. Stream size                              : 24.5 MiB (0%)
  184. Language                                 : English
  185. Default                                  : No
  186. Forced                                   : No
  187. Text #9
  188. ID                                       : 12
  189. Format                                   : PGS
  190. Muxing mode                              : zlib
  191. Codec ID                                 : S_HDMV/PGS
  192. Codec ID/Info                            : Picture based subtitle format used on BDs/HD-DVDs
  193. Duration                                 : 1 h 29 min
  194. Bit rate                                 : 48.0 kb/s
  195. Frame rate                               : 0.616 FPS
  196. Count of elements                        : 3318
  197. Stream size                              : 30.8 MiB (0%)
  198. Title                                    : SDH
  199. Language                                 : English
  200. Default                                  : No
  201. Forced                                   : No
  202. Text #10
  203. ID                                       : 13
  204. Format                                   : PGS
  205. Muxing mode                              : zlib
  206. Codec ID                                 : S_HDMV/PGS
  207. Codec ID/Info                            : Picture based subtitle format used on BDs/HD-DVDs
  208. Duration                                 : 1 h 31 min
  209. Bit rate                                 : 31.1 kb/s
  210. Frame rate                               : 0.476 FPS
  211. Count of elements                        : 2602
  212. Stream size                              : 20.3 MiB (0%)
  213. Language                                 : Danish
  214. Default                                  : No
  215. Forced                                   : No
  216. Text #11
  217. ID                                       : 14
  218. Format                                   : PGS
  219. Muxing mode                              : zlib
  220. Codec ID                                 : S_HDMV/PGS
  221. Codec ID/Info                            : Picture based subtitle format used on BDs/HD-DVDs
  222. Duration                                 : 1 h 31 min
  223. Bit rate                                 : 34.6 kb/s
  224. Frame rate                               : 0.489 FPS
  225. Count of elements                        : 2674
  226. Stream size                              : 22.5 MiB (0%)
  227. Language                                 : Finnish
  228. Default                                  : No
  229. Forced                                   : No
  230. Text #12
  231. ID                                       : 15
  232. Format                                   : PGS
  233. Muxing mode                              : zlib
  234. Codec ID                                 : S_HDMV/PGS
  235. Codec ID/Info                            : Picture based subtitle format used on BDs/HD-DVDs
  236. Duration                                 : 1 h 31 min
  237. Bit rate                                 : 31.7 kb/s
  238. Frame rate                               : 0.502 FPS
  239. Count of elements                        : 2744
  240. Stream size                              : 20.6 MiB (0%)
  241. Language                                 : French
  242. Default                                  : No
  243. Forced                                   : No
  244. Text #13
  245. ID                                       : 16
  246. Format                                   : PGS
  247. Muxing mode                              : zlib
  248. Codec ID                                 : S_HDMV/PGS
  249. Codec ID/Info                            : Picture based subtitle format used on BDs/HD-DVDs
  250. Duration                                 : 1 h 31 min
  251. Bit rate                                 : 38.6 kb/s
  252. Frame rate                               : 0.479 FPS
  253. Count of elements                        : 2620
  254. Stream size                              : 25.1 MiB (0%)
  255. Language                                 : German
  256. Default                                  : No
  257. Forced                                   : No
  258. Text #14
  259. ID                                       : 17
  260. Format                                   : PGS
  261. Muxing mode                              : zlib
  262. Codec ID                                 : S_HDMV/PGS
  263. Codec ID/Info                            : Picture based subtitle format used on BDs/HD-DVDs
  264. Duration                                 : 1 h 31 min
  265. Bit rate                                 : 38.1 kb/s
  266. Frame rate                               : 0.453 FPS
  267. Count of elements                        : 2474
  268. Stream size                              : 24.8 MiB (0%)
  269. Language                                 : Italian
  270. Default                                  : No
  271. Forced                                   : No
  272. Text #15
  273. ID                                       : 18
  274. Format                                   : PGS
  275. Muxing mode                              : zlib
  276. Codec ID                                 : S_HDMV/PGS
  277. Codec ID/Info                            : Picture based subtitle format used on BDs/HD-DVDs
  278. Duration                                 : 1 h 22 min
  279. Bit rate                                 : 33.1 kb/s
  280. Frame rate                               : 0.559 FPS
  281. Count of elements                        : 2770
  282. Stream size                              : 19.6 MiB (0%)
  283. Language                                 : Japanese
  284. Default                                  : No
  285. Forced                                   : No
  286. Text #16
  287. ID                                       : 19
  288. Format                                   : PGS
  289. Muxing mode                              : zlib
  290. Codec ID                                 : S_HDMV/PGS
  291. Codec ID/Info                            : Picture based subtitle format used on BDs/HD-DVDs
  292. Duration                                 : 1 h 31 min
  293. Bit rate                                 : 36.1 kb/s
  294. Frame rate                               : 0.487 FPS
  295. Count of elements                        : 2662
  296. Stream size                              : 23.5 MiB (0%)
  297. Language                                 : Norwegian
  298. Default                                  : No
  299. Forced                                   : No
  300. Text #17
  301. ID                                       : 20
  302. Format                                   : PGS
  303. Muxing mode                              : zlib
  304. Codec ID                                 : S_HDMV/PGS
  305. Codec ID/Info                            : Picture based subtitle format used on BDs/HD-DVDs
  306. Duration                                 : 1 h 31 min
  307. Bit rate                                 : 37.0 kb/s
  308. Frame rate                               : 0.487 FPS
  309. Count of elements                        : 2660
  310. Stream size                              : 24.1 MiB (0%)
  311. Title                                    : Castilian
  312. Language                                 : Spanish
  313. Default                                  : No
  314. Forced                                   : No
  315. Text #18
  316. ID                                       : 21
  317. Format                                   : PGS
  318. Muxing mode                              : zlib
  319. Codec ID                                 : S_HDMV/PGS
  320. Codec ID/Info                            : Picture based subtitle format used on BDs/HD-DVDs
  321. Duration                                 : 1 h 31 min
  322. Bit rate                                 : 37.1 kb/s
  323. Frame rate                               : 0.452 FPS
  324. Count of elements                        : 2468
  325. Stream size                              : 24.1 MiB (0%)
  326. Title                                    : Latin American
  327. Language                                 : Spanish
  328. Default                                  : No
  329. Forced                                   : No
  330. Text #19
  331. ID                                       : 22
  332. Format                                   : PGS
  333. Muxing mode                              : zlib
  334. Codec ID                                 : S_HDMV/PGS
  335. Codec ID/Info                            : Picture based subtitle format used on BDs/HD-DVDs
  336. Duration                                 : 1 h 31 min
  337. Bit rate                                 : 36.5 kb/s
  338. Frame rate                               : 0.488 FPS
  339. Count of elements                        : 2666
  340. Stream size                              : 23.8 MiB (0%)
  341. Language                                 : Swedish
  342. Default                                  : No
  343. Forced                                   : No
  344. Menu
  345. 00:00:00.000                             : en:Chapter 01
  346. 00:05:08.683                             : en:Chapter 02
  347. 00:11:35.445                             : en:Chapter 03
  348. 00:15:03.862                             : en:Chapter 04
  349. 00:20:24.265                             : en:Chapter 05
  350. 00:24:45.777                             : en:Chapter 06
  351. 00:31:36.396                             : en:Chapter 07
  352. 00:39:54.310                             : en:Chapter 08
  353. 00:44:41.848                             : en:Chapter 09
  354. 00:52:46.166                             : en:Chapter 10
  355. 00:57:13.725                             : en:Chapter 11
  356. 01:05:12.412                             : en:Chapter 12
  357. 01:12:36.564                             : en:Chapter 13
  358. 01:21:05.699                             : en:Chapter 14
  359. 01:22:49.010                             : en:Chapter 15
复制代码




                                       
                                       

                                       
                                       
                                       




海绵宝宝:救援大冒险 The.SpongeBob.Movie.Sponge.on.the.Run.2020.2160p.WEB-DL.x265.10bit.HDR.DTS-HD.MA.5.1-NOGRP 11.94GB

The.SpongeBob.Movie.Sponge.on.the.Run.2020.2160p.WEB-DL.x265.10bit.HDR.DTS-HD.MA.torrent

15.64 KB, 下载次数: 3

回复

使用道具 举报

蓝光币
0 枚
QQ
发表于 2022-8-6 13:01:18 | 显示全部楼层

Q   10 5 2 2 2 3323 售  站~~街   会~~所  学  妹  各   种    类  型   资  料

Q   10 5 2 2 2 3323 售  站~~街   会~~所  学  妹  各   种    类  型   资  料

Q   10 5 2 2 2 3323 售  站~~街   会~~所  学  妹  各   种    类  型   资  料

Q   10 5 2 2 2 3323 售  站~~街   会~~所  学  妹  各   种    类  型   资  料
回复

使用道具 举报

懒得打字嘛,点击右侧快捷回复 【右侧内容,后台自定义】
您需要登录后才可以回帖 登录 | 立即注册

本版积分规则

Archiver|手机版|小黑屋| 中国高清网 |网站地图 

GMT+8, 2022-8-18 18:24 , Processed in 0.118782 second(s), 27 queries .

Powered by HDchina X3.4

Copyright 2017-2019©HDchina.All right reserved

返回顶部 联系我们