查看: 32|回复: 0

[剧情片] 套装[简繁英双语字幕].The.Outfit.2022.BluRay.1080p.DTS-HD.MA5.1.x265.10bit-ALT 5.02GB

[复制链接]
蓝光币
0 枚
发表于 2022-8-5 22:25:23 | 显示全部楼层 |阅读模式


◎标  题 套装
◎译  名 誓不垂头
◎片  名 The Outfit
◎年  代 2022
◎产  地 美国
◎类  别 剧情 / 惊悚 / 犯罪
◎语  言 英语
◎上映日期 2022-02-14(柏林电影节) / 2022-03-18(美国)
◎IMDb评分 7.1/10 (16993人评价)
◎IMDb链接 https://www.imdb.com/title/tt14114802/
◎豆瓣评分 7.9/10 (33146人评价)
◎豆瓣链接 https://movie.douban.com/subject/35372415/
◎片  长 106分钟
◎导  演 格拉汉姆·摩尔 Graham Moore
◎编  剧 乔纳森·麦克莱恩 Johnathan McClain
       格拉汉姆·摩尔 Graham Moore
◎演  员 马克·里朗斯 Mark Rylance
       佐伊·达奇 Zoey Deutch
       迪伦·奥布莱恩 Dylan O'Brien
       强尼·弗林 Johnny Flynn
       妮基·阿姆卡-伯德 Nikki Amuka-Bird
       西蒙·拉塞尔·比尔 Simon Russell Beale
       阿伦·梅迪扎德 Alan Mehdizadeh
       布赖恩·罗杰 Brian Rodger
       本·布朗宁 Ben Browning
◎简  介
  雷纳德(马克·里朗斯 Mark Rylance 饰)是一位技术精湛的成衣,一场火灾以后,他分开了伦敦,来到芝加哥,在这里经营着一间属于自己的成衣店。店里的员工除了雷纳德自己外,还有一个名叫梅布尔(佐伊·达奇 Zoey Deutch 饰)的姑娘,梅布尔的父亲是一个污名昭著的无赖,背负着父亲的“盛名”,梅布尔下定决心要攒够钱,去看一看这个龌龊黑暗的街区之外的天下。                                    
                                一天深夜,黑帮大佬罗伊(西蒙·拉塞尔·比尔 Simon Russell Beale 饰)的儿子里奇(迪伦·奥布莱恩 Dylan O'Brien 饰)和他的副手弗朗西斯(强尼·弗林 Johnny Flynn 饰)闯入了店中,里奇身受重伤,在弗朗西斯的威胁之下,雷纳德处置了里奇的伤口,将他从灭亡线上救了返来,但与此同时,他也被卷入了这个黑帮家属的纷争当中。
  1. ##### MediaInfo ######
  2. General
  3. Unique ID                                : 18407130324453678343507220172303173117 (0xDD91597D82501342A2DB15E18C705FD)
  4. Complete name                            : The.Outfit.2022.BluRay.1080p.DTS-HD.MA5.1.x265.10bit-ALT.mkv
  5. Format                                   : Matroska
  6. Format version                           : Version 4
  7. File size                                : 5.02 GiB
  8. Duration                                 : 1 h 44 min
  9. Overall bit rate mode                    : Variable
  10. Overall bit rate                         : 6 844 kb/s
  11. Encoded date                             : UTC 2022-04-24 12:40:27
  12. Writing application                      : mkvmerge v49.0.0 ('Sick Of Losing Soulmates') 64-bit
  13. Writing library                          : libebml v1.4.0 + libmatroska v1.6.1
  14. Video
  15. ID                                       : 1
  16. Format                                   : HEVC
  17. Format/Info                              : High Efficiency Video Coding
  18. Format profile                           : Main [email protected]@High
  19. Codec ID                                 : V_MPEGH/ISO/HEVC
  20. Duration                                 : 1 h 44 min
  21. Bit rate                                 : 3 257 kb/s
  22. Width                                    : 1 920 pixels
  23. Height                                   : 960 pixels
  24. Display aspect ratio                     : 2.000
  25. Frame rate mode                          : Constant
  26. Frame rate                               : 23.976 (24000/1001/53875) FPS
  27. Color space                              : YUV
  28. Chroma subsampling                       : 4:2:0
  29. Bit depth                                : 10 bits
  30. Bits/(Pixel*Frame)                       : 0.074
  31. Stream size                              : 2.39 GiB (48%)
  32. Title                                    : HEVC, [email protected]@High, 24/1.001 fps @ 3257 kbps
  33. Writing library                          : x265 3.5+36-1f2c8da77:[Windows][GCC 11.2.0][64 bit] 10bit
  34. Encoding settings                        : cpuid=538751111039 / frame-threads=4 / numa-pools=16 / wpp / pmode / pme / no-psnr / no-ssim / log-level=2 / input-csp=1 / input-res=1920x960 / interlace=0 / total-frames=151008 / level-idc=51 / high-tier=1 / uhd-bd=0 / ref=5 / no-allow-non-conformance / no-repeat-headers / annexb / no-aud / no-eob / no-eos / no-hrd / info / hash=0 / no-temporal-layers / open-gop / min-keyint=24 / keyint=240 / gop-lookahead=0 / bframes=6 / b-adapt=2 / b-pyramid / bframe-bias=0 / rc-lookahead=40 / lookahead-slices=0 / NTM4NzU=uuDQuD2mJt9fsCf / scenecut=40 / no-hist-scenecut / radl=0 / no-splice / no-intra-refresh / ctu=32 / min-cu-size=8 / no-rect / no-amp / max-tu-size=32 / tu-inter-depth=3 / tu-intra-depth=3 / limit-tu=4 / rdoq-level=2 / dynamic-rd=0.00 / no-ssim-rd / signhide / no-tskip / nr-intra=0 / nr-inter=0 / no-constrained-intra / no-strong-intra-smoothing / max-merge=4 / limit-refs=1 / limit-modes / me=3 / subme=4 / merange=25 / temporal-mvp / no-frame-dup / no-hme / weightp / weightb / no-analyze-src-pics / deblock=-3:-3 / no-sao / no-sao-non-deblock / rd=6 / selective-sao=0 / no-early-skip / rskip / no-fast-intra / no-tskip-fast / no-cu-lossless / b-intra / no-splitrd-skip / rdpenalty=0 / psy-rd=2.00 / psy-rdoq=1.00 / no-rd-refine / no-lossless / cbqpoffs=0 / crqpoffs=0 / rc=crf / crf=17.0 / qcomp=0.65 / qpstep=4 / stats-write=0 / stats-read=0 / vbv-maxrate=80000 / vbv-bufsize=80000 / vbv-init=0.9 / min-vbv-fullness=50.0 / max-vbv-fullness=80.0 / crf-max=0.0 / crf-min=0.0 / ipratio=1.40 / pbratio=1.30 / aq-mode=2 / aq-strength=0.85 / cutree / zone-count=0 / no-strict-cbr / qg-size=32 / no-rc-grain / qpmax=69 / qpmin=0 / no-const-vbv / sar=1 / overscan=0 / videoformat=5 / range=0 / colorprim=1 / transfer=1 / colormatrix=1 / chromaloc=0 / display-window=0 / cll=0,0 / min-luma=0 / max-luma=1023 / log2-max-poc-lsb=8 / vui-timing-info / vui-hrd-info / slices=1 / no-opt-qp-pps / no-opt-ref-list-length-pps / no-multi-pass-opt-rps / scenecut-bias=0.05 / hist-threshold=0.03 / no-opt-cu-delta-qp / no-aq-motion / no-hdr10 / no-hdr10-opt / no-dhdr10-opt / no-idr-recovery-sei / analysis-reuse-level=0 / analysis-save-reuse-level=0 / analysis-load-reuse-level=0 / scale-factor=0 / refine-intra=0 / refine-inter=0 / refine-mv=1 / refine-ctu-distortion=0 / no-limit-sao / ctu-info=0 / no-lowpass-dct / refine-analysis-type=0 / copy-pic=1 / max-ausize-factor=1.0 / no-dynamic-refine / no-single-sei / no-hevc-aq / no-svt / no-field / qp-adaptation-range=1.00 / scenecut-aware-qp=0conformance-window-offsets / right=0 / bottom=0 / NTM4NzU= / decoder-max-rate=0 / no-vbv-live-multi-pass
  35. Language                                 : English
  36. Default                                  : Yes
  37. Forced                                   : No
  38. Color range                              : Limited
  39. Color primaries                          : BT.709
  40. Transfer characteristics                 : BT.709
  41. Matrix coefficients                      : BT.709
  42. Audio
  43. ID                                       : 2
  44. Format                                   : DTS XLL
  45. Format/Info                              : Digital Theater Systems
  46. Commercial name                          : DTS-HD Master Audio
  47. Codec ID                                 : A_DTS
  48. Duration                                 : 1 h 44 min
  49. Bit rate mode                            : Variable
  50. Bit rate                                 : 3 357 kb/s
  51. Channel(s)                               : 6 channels
  52. Channel layout                           : C L R Ls Rs LFE
  53. Sampling rate                            : 48.0 kHz
  54. Frame rate                               : 93.750 FPS (512 SPF)
  55. Bit depth                                : 24 bits
  56. Compression mode                         : Lossless
  57. Stream size                              : 2.46 GiB (49%)
  58. Title                                    : English DTS-HD Master Audio 5.1 @ 3357 kbps
  59. Language                                 : English
  60. Default                                  : Yes
  61. Forced                                   : No
  62. Text #1
  63. ID                                       : 3
  64. Format                                   : PGS
  65. Codec ID                                 : S_HDMV/PGS
  66. Codec ID/Info                            : Picture based subtitle format used on BDs/HD-DVDs
  67. Duration                                 : 1 h 39 min
  68. Bit rate                                 : 43.7 kb/s
  69. Count of elements                        : 2840
  70. Stream size                              : 31.0 MiB (1%)
  71. Title                                    : Eng/SUP
  72. Language                                 : English
  73. Default                                  : No
  74. Forced                                   : No
  75. Text #2
  76. ID                                       : 4
  77. Format                                   : PGS
  78. Codec ID                                 : S_HDMV/PGS
  79. Codec ID/Info                            : Picture based subtitle format used on BDs/HD-DVDs
  80. Duration                                 : 1 h 39 min
  81. Bit rate                                 : 38.9 kb/s
  82. Count of elements                        : 2613
  83. Stream size                              : 27.5 MiB (1%)
  84. Title                                    : Chs/SUP  简体
  85. Language                                 : Chinese
  86. Default                                  : Yes
  87. Forced                                   : No
  88. Text #3
  89. ID                                       : 5
  90. Format                                   : PGS
  91. Codec ID                                 : S_HDMV/PGS
  92. Codec ID/Info                            : Picture based subtitle format used on BDs/HD-DVDs
  93. Duration                                 : 1 h 39 min
  94. Bit rate                                 : 40.3 kb/s
  95. Count of elements                        : 2613
  96. Stream size                              : 28.6 MiB (1%)
  97. Title                                    : Cht/SUP  繁体
  98. Language                                 : Chinese
  99. Default                                  : No
  100. Forced                                   : No
  101. Text #4
  102. ID                                       : 6
  103. Format                                   : PGS
  104. Codec ID                                 : S_HDMV/PGS
  105. Codec ID/Info                            : Picture based subtitle format used on BDs/HD-DVDs
  106. Duration                                 : 1 h 39 min
  107. Bit rate                                 : 58.4 kb/s
  108. Count of elements                        : 2613
  109. Stream size                              : 41.4 MiB (1%)
  110. Title                                    : Chs/SUP  简英双语
  111. Language                                 : Chinese
  112. Default                                  : No
  113. Forced                                   : No
  114. Text #5
  115. ID                                       : 7
  116. Format                                   : PGS
  117. Codec ID                                 : S_HDMV/PGS
  118. Codec ID/Info                            : Picture based subtitle format used on BDs/HD-DVDs
  119. Duration                                 : 1 h 39 min
  120. Bit rate                                 : 59.2 kb/s
  121. Count of elements                        : 2613
  122. Stream size                              : 42.0 MiB (1%)
  123. Title                                    : Cht/SUP  繁英双语
  124. Language                                 : Chinese
  125. Default                                  : No
  126. Forced                                   : No
  127. Menu
  128. 00:00:00.000                             : en:第 01 章
  129. 00:05:45.929                             : en:第 02 章
  130. 00:10:16.074                             : en:第 03 章
  131. 00:15:10.660                             : en:第 04 章
  132. 00:18:41.746                             : en:第 05 章
  133. 00:20:57.131                             : en:第 06 章
  134. 00:28:42.429                             : en:第 07 章
  135. 00:32:40.584                             : en:第 08 章
  136. 00:36:29.354                             : en:第 09 章
  137. 00:40:48.988                             : en:第 10 章
  138. 00:43:23.976                             : en:第 11 章
  139. 00:50:55.886                             : en:第 12 章
  140. 00:57:51.385                             : en:第 13 章
  141. 01:04:17.270                             : en:第 14 章
  142. 01:09:23.326                             : en:第 15 章
  143. 01:14:58.411                             : en:第 16 章
  144. 01:21:42.481                             : en:第 17 章
  145. 01:27:56.980                             : en:第 18 章
  146. 01:32:29.669                             : en:第 19 章
  147. 01:39:29.338                             : en:第 20 章
复制代码

















保举请利用qBittorrent,utorrent,transmission等标准BT软件下载!以获得最快速度。奉求保种!





套装[简繁英双语字幕].The.Outfit.2022.BluRay.1080p.DTS-HD.MA5.1.x265.10bit-ALT.torrent (13.5 KB, 下载次数: 1)
回复

使用道具 举报

懒得打字嘛,点击右侧快捷回复 【右侧内容,后台自定义】
您需要登录后才可以回帖 登录 | 立即注册

本版积分规则

Archiver|手机版|小黑屋| 中国高清网 |网站地图 

GMT+8, 2022-8-18 19:04 , Processed in 0.102777 second(s), 26 queries .

Powered by HDchina X3.4

Copyright 2017-2019©HDchina.All right reserved

返回顶部 联系我们