查看: 29|回复: 0

[2160p] 乐高星球大战:夏日假期 LEGO.Star.Wars.Summer.Vacation.2022.2160p.DSNP.WEB-DL.DDP5.1.DV.MP4.x265-DVSUX 5.27GB

[复制链接]
蓝光币
28 枚
发表于 2022-8-5 18:23:24 | 显示全部楼层 |阅读模式


◎标  题 乐高星球大战:夏日假期
◎译  名 LEGO星际大战:夏日假期(台) / The LEGO Holiday Special
◎片  名 Lego Star Wars: Summer Vacation
◎年  代 2022
◎产  地 美国
◎类  别 笑剧 / 行动 / 科幻 / 动画 / 奇异 / 冒险
◎语  言 英语
◎上映日期 2022-08-05(美国收集)
◎IMDb链接 https://www.imdb.com/title/tt20784210/
◎豆瓣链接 https://movie.douban.com/subject/35915734/
◎导  演 肯·坎宁安 Ken Cunningham
◎编  剧 大卫·谢恩 David Shayne
◎演  员 海伦·萨德勒 Helen Sadler
       杰克·格林 Jake Green
       凯莉·玛丽·陈 Kelly Marie Tran
       奥玛·本森·米勒 Omar Benson Miller
       安东尼·丹尼尔斯 Anthony Daniels
       比利·迪·威廉姆斯 Billy Dee Williams
       迪·布拉雷·贝克尔 Dee Bradley Baker
       詹姆斯·阿诺德·泰勒 James Arnold Taylor
       凯文·迈克尔·理查德森 Kevin Michael Richardson
       凯丽·卡伦 Kyliegh Curran
       马特·兰特尔 Matt Lanter
       马特·斯隆 Matt Sloan
       马修·伍德 Matthew Wood
       罗斯·马昆德 Ross Marquand
       谢尔碧·杨 Shelby Young
       特雷弗·德瓦 Trevor Devall
       托马斯·列农 Thomas Lennon
       保罗·F·汤普金斯 Paul F. Tompkins
       阿尔·杨科维克 'Weird Al' Yankovic
◎简  介

  《乐高星球大战:夏日假期》将于8月5日上线Disney+。
  1. Video
  2. ID                                       : 1
  3. Format                                   : HEVC
  4. Format/Info                              : High Efficiency Video Coding
  5. Format profile                           : Main [email protected]@High
  6. HDR format                               : Dolby Vision, Version 1.0, dvhe.05.06, BL+RPU
  7. Codec ID                                 : dvhe
  8. Codec ID/Info                            : High Efficiency Video Coding with Dolby Vision
  9. Duration                                 : 45 min 2 s
  10. Bit rate                                 : 16.5 Mb/s
  11. Width                                    : 3 840 pixels
  12. Height                                   : 2 160 pixels
  13. Display aspect ratio                     : 16:9
  14. Frame rate mode                          : Constant
  15. Frame rate                               : 24.000 FPS
  16. Color space                              : YUV
  17. Chroma subsampling                       : 4:2:0
  18. Bit depth                                : 10 bits
  19. Bits/(Pixel*Frame)                       : 0.083
  20. Stream size                              : 5.19 GiB (98%)
  21. Default                                  : Yes
  22. Alternate group                          : 1
  23. Encoded date                             : UTC 2022-08-05 08:15:13
  24. Tagged date                              : UTC 2022-08-05 08:15:49
  25. Color range                              : Full
  26. Codec configuration box                  : hvcC+dvcC
  27. Audio
  28. ID                                       : 2
  29. Format                                   : E-AC-3
  30. Format/Info                              : Enhanced AC-3
  31. Commercial name                          : Dolby Digital Plus
  32. Codec ID                                 : ec-3
  33. Duration                                 : 45 min 2 s
  34. Bit rate mode                            : Constant
  35. Bit rate                                 : 256 kb/s
  36. Maximum bit rate                         : 270 kb/s
  37. Channel(s)                               : 6 channels
  38. Channel layout                           : L R C LFE Ls Rs
  39. Sampling rate                            : 48.0 kHz
  40. Frame rate                               : 31.250 FPS (1536 SPF)
  41. Compression mode                         : Lossy
  42. Stream size                              : 82.5 MiB (2%)
  43. Title                                    : English
  44. Language                                 : English
  45. Service kind                             : Complete Main
  46. Default                                  : Yes
  47. Alternate group                          : 1
  48. Tagged date                              : UTC 2022-08-05 08:15:49
  49. Text #1
  50. ID                                       : 3
  51. Format                                   : Timed Text
  52. Codec ID                                 : tx3g
  53. Duration                                 : 44 min 33 s
  54. Bit rate mode                            : Variable
  55. Bit rate                                 : 100 b/s
  56. Frame rate                               : 0.556 FPS
  57. Stream size                              : 32.7 KiB (0%)
  58. Title                                    : English
  59. Language                                 : English
  60. Forced                                   : No
  61. Encoded date                             : UTC 2022-08-05 08:15:46
  62. Tagged date                              : UTC 2022-08-05 08:15:49
  63. Text #2
  64. ID                                       : 4
  65. Format                                   : Timed Text
  66. Codec ID                                 : tx3g
  67. Duration                                 : 44 min 58 s
  68. Bit rate mode                            : Variable
  69. Bit rate                                 : 76 b/s
  70. Frame rate                               : 0.472 FPS
  71. Stream size                              : 25.0 KiB (0%)
  72. Title                                    : Chinese-Cantonese
  73. Language                                 : Chinese
  74. Forced                                   : No
  75. Encoded date                             : UTC 2022-08-05 08:15:46
  76. Tagged date                              : UTC 2022-08-05 08:15:49
  77. Text #3
  78. ID                                       : 5
  79. Format                                   : Timed Text
  80. Codec ID                                 : tx3g
  81. Duration                                 : 44 min 58 s
  82. Bit rate mode                            : Variable
  83. Bit rate                                 : 81 b/s
  84. Frame rate                               : 0.471 FPS
  85. Stream size                              : 26.6 KiB (0%)
  86. Title                                    : Chinese-Simplified
  87. Language                                 : Chinese
  88. Forced                                   : No
  89. Encoded date                             : UTC 2022-08-05 08:15:47
  90. Tagged date                              : UTC 2022-08-05 08:15:49
  91. Text #4
  92. ID                                       : 6
  93. Format                                   : Timed Text
  94. Codec ID                                 : tx3g
  95. Duration                                 : 44 min 58 s
  96. Bit rate mode                            : Variable
  97. Bit rate                                 : 73 b/s
  98. Frame rate                               : 0.471 FPS
  99. Stream size                              : 24.0 KiB (0%)
  100. Title                                    : Chinese-Traditional
  101. Language                                 : Chinese
  102. Forced                                   : No
  103. Encoded date                             : UTC 2022-08-05 08:15:47
  104. Tagged date                              : UTC 2022-08-05 08:15:49
  105. Text #5
  106. ID                                       : 7
  107. Format                                   : Timed Text
  108. Codec ID                                 : tx3g
  109. Duration                                 : 44 min 58 s
  110. Bit rate mode                            : Variable
  111. Bit rate                                 : 85 b/s
  112. Frame rate                               : 0.469 FPS
  113. Stream size                              : 27.9 KiB (0%)
  114. Title                                    : Czech
  115. Language                                 : Czech
  116. Forced                                   : No
  117. Encoded date                             : UTC 2022-08-05 08:15:47
  118. Tagged date                              : UTC 2022-08-05 08:15:49
  119. Text #6
  120. ID                                       : 8
  121. Format                                   : Timed Text
  122. Codec ID                                 : tx3g
  123. Duration                                 : 44 min 58 s
  124. Bit rate mode                            : Variable
  125. Bit rate                                 : 84 b/s
  126. Frame rate                               : 0.393 FPS
  127. Stream size                              : 27.5 KiB (0%)
  128. Title                                    : Danish
  129. Language                                 : Danish
  130. Forced                                   : No
  131. Encoded date                             : UTC 2022-08-05 08:15:47
  132. Tagged date                              : UTC 2022-08-05 08:15:49
  133. Text #7
  134. ID                                       : 9
  135. Format                                   : Timed Text
  136. Codec ID                                 : tx3g
  137. Duration                                 : 44 min 58 s
  138. Bit rate mode                            : Variable
  139. Bit rate                                 : 76 b/s
  140. Frame rate                               : 0.421 FPS
  141. Stream size                              : 25.1 KiB (0%)
  142. Title                                    : Dutch
  143. Language                                 : Dutch
  144. Forced                                   : No
  145. Encoded date                             : UTC 2022-08-05 08:15:47
  146. Tagged date                              : UTC 2022-08-05 08:15:49
  147. Text #8
  148. ID                                       : 10
  149. Format                                   : Timed Text
  150. Codec ID                                 : tx3g
  151. Duration                                 : 44 min 58 s
  152. Bit rate mode                            : Variable
  153. Bit rate                                 : 85 b/s
  154. Frame rate                               : 0.472 FPS
  155. Stream size                              : 28.1 KiB (0%)
  156. Title                                    : Finnish
  157. Language                                 : Finnish
  158. Forced                                   : No
  159. Encoded date                             : UTC 2022-08-05 08:15:47
  160. Tagged date                              : UTC 2022-08-05 08:15:49
  161. Text #9
  162. ID                                       : 11
  163. Format                                   : Timed Text
  164. Codec ID                                 : tx3g
  165. Duration                                 : 44 min 38 s
  166. Bit rate mode                            : Variable
  167. Bit rate                                 : 94 b/s
  168. Frame rate                               : 0.580 FPS
  169. Stream size                              : 30.6 KiB (0%)
  170. Title                                    : French
  171. Language                                 : French
  172. Forced                                   : No
  173. Encoded date                             : UTC 2022-08-05 08:15:47
  174. Tagged date                              : UTC 2022-08-05 08:15:49
  175. Text #10
  176. ID                                       : 12
  177. Format                                   : Timed Text
  178. Codec ID                                 : tx3g
  179. Duration                                 : 44 min 58 s
  180. Bit rate mode                            : Variable
  181. Bit rate                                 : 95 b/s
  182. Frame rate                               : 0.472 FPS
  183. Stream size                              : 31.3 KiB (0%)
  184. Title                                    : German
  185. Language                                 : German
  186. Forced                                   : No
  187. Encoded date                             : UTC 2022-08-05 08:15:47
  188. Tagged date                              : UTC 2022-08-05 08:15:49
  189. Text #11
  190. ID                                       : 13
  191. Format                                   : Timed Text
  192. Codec ID                                 : tx3g
  193. Duration                                 : 44 min 58 s
  194. Bit rate mode                            : Variable
  195. Bit rate                                 : 150 b/s
  196. Frame rate                               : 0.471 FPS
  197. Stream size                              : 49.5 KiB (0%)
  198. Title                                    : Greek
  199. Language                                 : Greek
  200. Forced                                   : No
  201. Encoded date                             : UTC 2022-08-05 08:15:47
  202. Tagged date                              : UTC 2022-08-05 08:15:49
  203. Text #12
  204. ID                                       : 14
  205. Format                                   : Timed Text
  206. Codec ID                                 : tx3g
  207. Duration                                 : 44 min 58 s
  208. Bit rate mode                            : Variable
  209. Bit rate                                 : 90 b/s
  210. Frame rate                               : 0.472 FPS
  211. Stream size                              : 29.7 KiB (0%)
  212. Title                                    : Hungarian
  213. Language                                 : Hungarian
  214. Forced                                   : No
  215. Encoded date                             : UTC 2022-08-05 08:15:48
  216. Tagged date                              : UTC 2022-08-05 08:15:49
  217. Text #13
  218. ID                                       : 15
  219. Format                                   : Timed Text
  220. Codec ID                                 : tx3g
  221. Duration                                 : 44 min 58 s
  222. Bit rate mode                            : Variable
  223. Bit rate                                 : 89 b/s
  224. Frame rate                               : 0.471 FPS
  225. Stream size                              : 29.4 KiB (0%)
  226. Title                                    : Italian
  227. Language                                 : Italian
  228. Forced                                   : No
  229. Encoded date                             : UTC 2022-08-05 08:15:48
  230. Tagged date                              : UTC 2022-08-05 08:15:49
  231. Text #14
  232. ID                                       : 16
  233. Format                                   : Timed Text
  234. Codec ID                                 : tx3g
  235. Duration                                 : 44 min 58 s
  236. Bit rate mode                            : Variable
  237. Bit rate                                 : 85 b/s
  238. Frame rate                               : 0.518 FPS
  239. Stream size                              : 28.1 KiB (0%)
  240. Title                                    : Japanese
  241. Language                                 : Japanese
  242. Forced                                   : No
  243. Encoded date                             : UTC 2022-08-05 08:15:48
  244. Tagged date                              : UTC 2022-08-05 08:15:49
  245. Text #15
  246. ID                                       : 17
  247. Format                                   : Timed Text
  248. Codec ID                                 : tx3g
  249. Duration                                 : 44 min 58 s
  250. Bit rate mode                            : Variable
  251. Bit rate                                 : 91 b/s
  252. Frame rate                               : 0.470 FPS
  253. Stream size                              : 29.9 KiB (0%)
  254. Title                                    : Korean
  255. Language                                 : Korean
  256. Forced                                   : No
  257. Encoded date                             : UTC 2022-08-05 08:15:48
  258. Tagged date                              : UTC 2022-08-05 08:15:49
  259. Text #16
  260. ID                                       : 18
  261. Format                                   : Timed Text
  262. Codec ID                                 : tx3g
  263. Duration                                 : 44 min 58 s
  264. Bit rate mode                            : Variable
  265. Bit rate                                 : 85 b/s
  266. Frame rate                               : 0.472 FPS
  267. Stream size                              : 28.0 KiB (0%)
  268. Title                                    : Norwegian
  269. Language                                 : Norwegian
  270. Forced                                   : No
  271. Encoded date                             : UTC 2022-08-05 08:15:48
  272. Tagged date                              : UTC 2022-08-05 08:15:49
  273. Text #17
  274. ID                                       : 19
  275. Format                                   : Timed Text
  276. Codec ID                                 : tx3g
  277. Duration                                 : 44 min 58 s
  278. Bit rate mode                            : Variable
  279. Bit rate                                 : 89 b/s
  280. Frame rate                               : 0.472 FPS
  281. Stream size                              : 29.2 KiB (0%)
  282. Title                                    : Polish
  283. Language                                 : Polish
  284. Forced                                   : No
  285. Encoded date                             : UTC 2022-08-05 08:15:48
  286. Tagged date                              : UTC 2022-08-05 08:15:49
  287. Text #18
  288. ID                                       : 20
  289. Format                                   : Timed Text
  290. Codec ID                                 : tx3g
  291. Duration                                 : 44 min 58 s
  292. Bit rate mode                            : Variable
  293. Bit rate                                 : 93 b/s
  294. Frame rate                               : 0.471 FPS
  295. Stream size                              : 30.5 KiB (0%)
  296. Title                                    : Portuguese
  297. Language                                 : Portuguese
  298. Forced                                   : No
  299. Encoded date                             : UTC 2022-08-05 08:15:48
  300. Tagged date                              : UTC 2022-08-05 08:15:49
  301. Text #19
  302. ID                                       : 21
  303. Format                                   : Timed Text
  304. Codec ID                                 : tx3g
  305. Duration                                 : 44 min 58 s
  306. Bit rate mode                            : Variable
  307. Bit rate                                 : 94 b/s
  308. Frame rate                               : 0.472 FPS
  309. Stream size                              : 31.1 KiB (0%)
  310. Title                                    : Portuguese
  311. Language                                 : Portuguese
  312. Forced                                   : No
  313. Encoded date                             : UTC 2022-08-05 08:15:48
  314. Tagged date                              : UTC 2022-08-05 08:15:49
  315. Text #20
  316. ID                                       : 22
  317. Format                                   : Timed Text
  318. Codec ID                                 : tx3g
  319. Duration                                 : 44 min 58 s
  320. Bit rate mode                            : Variable
  321. Bit rate                                 : 95 b/s
  322. Frame rate                               : 0.473 FPS
  323. Stream size                              : 31.2 KiB (0%)
  324. Title                                    : Romanian
  325. Language                                 : Romanian
  326. Forced                                   : No
  327. Encoded date                             : UTC 2022-08-05 08:15:48
  328. Tagged date                              : UTC 2022-08-05 08:15:49
  329. Text #21
  330. ID                                       : 23
  331. Format                                   : Timed Text
  332. Codec ID                                 : tx3g
  333. Duration                                 : 44 min 58 s
  334. Bit rate mode                            : Variable
  335. Bit rate                                 : 87 b/s
  336. Frame rate                               : 0.472 FPS
  337. Stream size                              : 28.8 KiB (0%)
  338. Title                                    : Slovak
  339. Language                                 : Slovak
  340. Forced                                   : No
  341. Encoded date                             : UTC 2022-08-05 08:15:48
  342. Tagged date                              : UTC 2022-08-05 08:15:49
  343. Text #22
  344. ID                                       : 24
  345. Format                                   : Timed Text
  346. Codec ID                                 : tx3g
  347. Duration                                 : 44 min 58 s
  348. Bit rate mode                            : Variable
  349. Bit rate                                 : 89 b/s
  350. Frame rate                               : 0.472 FPS
  351. Stream size                              : 29.5 KiB (0%)
  352. Title                                    : Spanish-EU
  353. Language                                 : Spanish
  354. Forced                                   : No
  355. Encoded date                             : UTC 2022-08-05 08:15:48
  356. Tagged date                              : UTC 2022-08-05 08:15:49
  357. Text #23
  358. ID                                       : 25
  359. Format                                   : Timed Text
  360. Codec ID                                 : tx3g
  361. Duration                                 : 44 min 58 s
  362. Bit rate mode                            : Variable
  363. Bit rate                                 : 94 b/s
  364. Frame rate                               : 0.471 FPS
  365. Stream size                              : 31.1 KiB (0%)
  366. Title                                    : Spanish-EU
  367. Language                                 : Spanish
  368. Forced                                   : No
  369. Encoded date                             : UTC 2022-08-05 08:15:48
  370. Tagged date                              : UTC 2022-08-05 08:15:49
  371. Text #24
  372. ID                                       : 26
  373. Format                                   : Timed Text
  374. Codec ID                                 : tx3g
  375. Duration                                 : 44 min 58 s
  376. Bit rate mode                            : Variable
  377. Bit rate                                 : 86 b/s
  378. Frame rate                               : 0.472 FPS
  379. Stream size                              : 28.3 KiB (0%)
  380. Title                                    : Swedish
  381. Language                                 : Swedish
  382. Forced                                   : No
  383. Encoded date                             : UTC 2022-08-05 08:15:49
  384. Tagged date                              : UTC 2022-08-05 08:15:49
  385. Text #25
  386. ID                                       : 27
  387. Format                                   : Timed Text
  388. Codec ID                                 : tx3g
  389. Duration                                 : 44 min 58 s
  390. Bit rate mode                            : Variable
  391. Bit rate                                 : 90 b/s
  392. Frame rate                               : 0.471 FPS
  393. Stream size                              : 29.6 KiB (0%)
  394. Title                                    : Turkish
  395. Language                                 : Turkish
  396. Forced                                   : No
  397. Encoded date                             : UTC 2022-08-05 08:15:49
  398. Tagged date                              : UTC 2022-08-05 08:15:49
复制代码




                                       
                                       

                                       
                                       
                                       




LEGO.Star.Wars.Summer.Vacation.2022.2160p.DSNP.WEB-DL.DDP5.1.DV.MP4.x265-DVSUX.torrent (13.88 KB, 下载次数: 1)
回复

使用道具 举报

懒得打字嘛,点击右侧快捷回复 【右侧内容,后台自定义】
您需要登录后才可以回帖 登录 | 立即注册

本版积分规则

Archiver|手机版|小黑屋| 中国高清网 |网站地图 

GMT+8, 2022-8-18 18:28 , Processed in 0.120810 second(s), 26 queries .

Powered by HDchina X3.4

Copyright 2017-2019©HDchina.All right reserved

返回顶部 联系我们