查看: 22|回复: 0

[2160p] 祝你好运 Luck.2022.2160p.ATVP.WEB-DL.DDP5.1.Atmos.DV.MKV.x265-KOGi 18.44GB

[复制链接]
蓝光币
28 枚
发表于 2022-8-5 15:19:03 | 显示全部楼层 |阅读模式


◎标  题 祝你好运
◎译  名 荣幸 / 开运奇遇记 / Good Luck Bad Luck
◎片  名 Luck
◎年  代 2022
◎产  地 西班牙 / 美国
◎类  别 笑剧 / 动画 / 奇异 / 冒险
◎语  言 英语
◎上映日期 2022-08-05(美国收集)
◎IMDb链接 https://www.imdb.com/title/tt7214954/
◎豆瓣链接 https://movie.douban.com/subject/30471496/
◎导  演 佩吉·霍姆斯 Peggy Holmes
◎编  剧 基尔·默里 Kiel Murray
       乔纳森·阿贝尔 Jonathan Aibel
       格伦·伯杰 Glenn Berger
◎演  员 伊娃·诺布勒札达 Eva Noblezada
       西蒙·佩吉 Simon Pegg
       简·方达 Jane Fonda
       乌比·戈德堡 Whoopi Goldberg
       弗卢拉·博格 Flula Borg
       里尔·莱尔·哈瓦瑞 Lil Rel Howery
       科林·奥多霍诺 Colin O'Donoghue
       约翰·拉岑贝格 John Ratzenberger
       阿德琳·斯布恩 Adelynn Spoon
       约翰·拉塞特 John Lasseter
       大卫·埃里森 David Ellison
       约翰·戴布尼 John Debney
◎简  介

  简·方达将为动画新片[荣幸]中的首要脚色配音。该片由佩吉·霍姆斯([小叮当与海盗仙子])执导,由基尔·默里([赛车总带动])操刀剧本。故事报告在一个好命运和坏命运相互碰撞的天下中,一个不幸的女孩必须介入并拯救这个天下。 简·方达将为龙配音,龙是热情弥漫的掌管好命运的CEO,她是毫无争议的最荣幸的太古生物。龙很文雅,气概明白,她强大而且有压服力。唯一比好运更好的工作就是更多的好运,所以当坏命运起头失控,她必须直面自己的恐惧,面临永久落空好命运的风险。该片由天空之舞与苹果结合建造。
  1. Video
  2. ID                                       : 1
  3. Format                                   : HEVC
  4. Format/Info                              : High Efficiency Video Coding
  5. Format profile                           : Main [email protected]@High
  6. HDR format                               : Dolby Vision, Version 1.0, dvhe.05.06, BL+RPU
  7. Codec ID                                 : V_MPEGH/ISO/HEVC
  8. Duration                                 : 1 h 45 min
  9. Bit rate                                 : 24.3 Mb/s
  10. Width                                    : 3 840 pixels
  11. Height                                   : 2 076 pixels
  12. Display aspect ratio                     : 1.85:1
  13. Frame rate mode                          : Constant
  14. Frame rate                               : 23.976 (24000/1001/189150) FPS
  15. Color space                              : YUV
  16. Chroma subsampling                       : 4:2:0
  17. Bit depth                                : 10 bits
  18. Bits/(Pixel*Frame)                       : 0.127
  19. Stream size                              : 17.9 GiB (97%)
  20. Language                                 : English
  21. Default                                  : Yes
  22. Forced                                   : No
  23. Audio
  24. ID                                       : 2
  25. Format                                   : E-AC-3 JOC
  26. Format/Info                              : Enhanced AC-3 with Joint Object Coding
  27. Commercial name                          : Dolby Digital Plus with Dolby Atmos
  28. Codec ID                                 : A_EAC3
  29. Duration                                 : 1 h 45 min
  30. Bit rate mode                            : Constant
  31. Bit rate                                 : 768 kb/s
  32. Channel(s)                               : 6 channels
  33. Channel layout                           : L R C LFE Ls Rs
  34. Sampling rate                            : 48.0 kHz
  35. Frame rate                               : 31.250 FPS (1536 SPF)
  36. Compression mode                         : Lossy
  37. Stream size                              : 579 MiB (3%)
  38. Language                                 : English
  39. Service kind                             : Complete Main
  40. Default                                  : Yes
  41. Forced                                   : No
  42. Complexity index                         : 16
  43. Number of dynamic objects                : 15
  44. Bed channel count                        : 1 channel
  45. Bed channel configuration                : LFE
  46. Text #1
  47. ID                                       : 3
  48. Format                                   : UTF-8
  49. Codec ID                                 : S_TEXT/UTF8
  50. Codec ID/Info                            : UTF-8 Plain Text
  51. Duration                                 : 1 h 35 min
  52. Bit rate                                 : 68 b/s
  53. Frame rate                               : 0.239 FPS
  54. Count of elements                        : 1371
  55. Stream size                              : 48.0 KiB (0%)
  56. Title                                    : English
  57. Language                                 : English
  58. Default                                  : No
  59. Forced                                   : No
  60. Text #2
  61. ID                                       : 4
  62. Format                                   : UTF-8
  63. Codec ID                                 : S_TEXT/UTF8
  64. Codec ID/Info                            : UTF-8 Plain Text
  65. Duration                                 : 1 h 36 min
  66. Bit rate                                 : 77 b/s
  67. Frame rate                               : 0.280 FPS
  68. Count of elements                        : 1616
  69. Stream size                              : 54.7 KiB (0%)
  70. Title                                    : English (SDH)
  71. Language                                 : English
  72. Default                                  : No
  73. Forced                                   : No
  74. Text #3
  75. ID                                       : 5
  76. Format                                   : UTF-8
  77. Codec ID                                 : S_TEXT/UTF8
  78. Codec ID/Info                            : UTF-8 Plain Text
  79. Duration                                 : 1 h 36 min
  80. Bit rate                                 : 96 b/s
  81. Frame rate                               : 0.280 FPS
  82. Count of elements                        : 1616
  83. Stream size                              : 67.7 KiB (0%)
  84. Title                                    : English (CC)
  85. Language                                 : English
  86. Default                                  : No
  87. Forced                                   : No
  88. Text #4
  89. ID                                       : 6
  90. Format                                   : UTF-8
  91. Codec ID                                 : S_TEXT/UTF8
  92. Codec ID/Info                            : UTF-8 Plain Text
  93. Duration                                 : 1 h 44 min
  94. Bit rate                                 : 94 b/s
  95. Frame rate                               : 0.220 FPS
  96. Count of elements                        : 1374
  97. Stream size                              : 72.4 KiB (0%)
  98. Title                                    : ???????
  99. Language                                 : Arabic
  100. Default                                  : No
  101. Forced                                   : No
  102. Text #5
  103. ID                                       : 7
  104. Format                                   : UTF-8
  105. Codec ID                                 : S_TEXT/UTF8
  106. Codec ID/Info                            : UTF-8 Plain Text
  107. Duration                                 : 1 h 44 min
  108. Bit rate                                 : 95 b/s
  109. Frame rate                               : 0.215 FPS
  110. Count of elements                        : 1342
  111. Stream size                              : 73.0 KiB (0%)
  112. Title                                    : български
  113. Language                                 : Bulgarian
  114. Default                                  : No
  115. Forced                                   : No
  116. Text #6
  117. ID                                       : 8
  118. Format                                   : UTF-8
  119. Codec ID                                 : S_TEXT/UTF8
  120. Codec ID/Info                            : UTF-8 Plain Text
  121. Duration                                 : 1 h 44 min
  122. Bit rate                                 : 57 b/s
  123. Frame rate                               : 0.210 FPS
  124. Count of elements                        : 1315
  125. Stream size                              : 43.6 KiB (0%)
  126. Title                                    : ?e?tina
  127. Language                                 : Czech
  128. Default                                  : No
  129. Forced                                   : No
  130. Text #7
  131. ID                                       : 9
  132. Format                                   : UTF-8
  133. Codec ID                                 : S_TEXT/UTF8
  134. Codec ID/Info                            : UTF-8 Plain Text
  135. Duration                                 : 1 h 44 min
  136. Bit rate                                 : 59 b/s
  137. Frame rate                               : 0.209 FPS
  138. Count of elements                        : 1308
  139. Stream size                              : 45.4 KiB (0%)
  140. Title                                    : dansk
  141. Language                                 : Danish
  142. Default                                  : No
  143. Forced                                   : No
  144. Text #8
  145. ID                                       : 10
  146. Format                                   : UTF-8
  147. Codec ID                                 : S_TEXT/UTF8
  148. Codec ID/Info                            : UTF-8 Plain Text
  149. Duration                                 : 1 h 35 min
  150. Bit rate                                 : 68 b/s
  151. Frame rate                               : 0.240 FPS
  152. Count of elements                        : 1381
  153. Stream size                              : 48.1 KiB (0%)
  154. Title                                    : Deutsch
  155. Language                                 : German
  156. Default                                  : No
  157. Forced                                   : No
  158. Text #9
  159. ID                                       : 11
  160. Format                                   : UTF-8
  161. Codec ID                                 : S_TEXT/UTF8
  162. Codec ID/Info                            : UTF-8 Plain Text
  163. Duration                                 : 1 h 44 min
  164. Bit rate                                 : 106 b/s
  165. Frame rate                               : 0.219 FPS
  166. Count of elements                        : 1374
  167. Stream size                              : 81.4 KiB (0%)
  168. Title                                    : Ελληνικ?
  169. Language                                 : Greek
  170. Default                                  : No
  171. Forced                                   : No
  172. Text #10
  173. ID                                       : 12
  174. Format                                   : UTF-8
  175. Codec ID                                 : S_TEXT/UTF8
  176. Codec ID/Info                            : UTF-8 Plain Text
  177. Duration                                 : 1 h 44 min
  178. Bit rate                                 : 67 b/s
  179. Frame rate                               : 0.226 FPS
  180. Count of elements                        : 1415
  181. Stream size                              : 51.6 KiB (0%)
  182. Title                                    : Espa?ol (Latinoamérica)
  183. Language                                 : Spanish
  184. Default                                  : No
  185. Forced                                   : No
  186. Text #11
  187. ID                                       : 13
  188. Format                                   : UTF-8
  189. Codec ID                                 : S_TEXT/UTF8
  190. Codec ID/Info                            : UTF-8 Plain Text
  191. Duration                                 : 1 h 44 min
  192. Bit rate                                 : 70 b/s
  193. Frame rate                               : 0.229 FPS
  194. Count of elements                        : 1431
  195. Stream size                              : 53.5 KiB (0%)
  196. Title                                    : Espa?ol (Espa?a)
  197. Language                                 : Spanish
  198. Default                                  : No
  199. Forced                                   : No
  200. Text #12
  201. ID                                       : 14
  202. Format                                   : UTF-8
  203. Codec ID                                 : S_TEXT/UTF8
  204. Codec ID/Info                            : UTF-8 Plain Text
  205. Duration                                 : 1 h 44 min
  206. Bit rate                                 : 62 b/s
  207. Frame rate                               : 0.217 FPS
  208. Count of elements                        : 1356
  209. Stream size                              : 47.7 KiB (0%)
  210. Title                                    : eesti
  211. Language                                 : Estonian
  212. Default                                  : No
  213. Forced                                   : No
  214. Text #13
  215. ID                                       : 15
  216. Format                                   : UTF-8
  217. Codec ID                                 : S_TEXT/UTF8
  218. Codec ID/Info                            : UTF-8 Plain Text
  219. Duration                                 : 1 h 44 min
  220. Bit rate                                 : 58 b/s
  221. Frame rate                               : 0.217 FPS
  222. Count of elements                        : 1357
  223. Stream size                              : 44.9 KiB (0%)
  224. Title                                    : Suomi
  225. Language                                 : Finnish
  226. Default                                  : No
  227. Forced                                   : No
  228. Text #14
  229. ID                                       : 16
  230. Format                                   : UTF-8
  231. Codec ID                                 : S_TEXT/UTF8
  232. Codec ID/Info                            : UTF-8 Plain Text
  233. Duration                                 : 1 h 37 min
  234. Bit rate                                 : 65 b/s
  235. Frame rate                               : 0.258 FPS
  236. Count of elements                        : 1505
  237. Stream size                              : 46.5 KiB (0%)
  238. Title                                    : Fran?ais (Canada)
  239. Language                                 : French
  240. Default                                  : No
  241. Forced                                   : No
  242. Text #15
  243. ID                                       : 17
  244. Format                                   : UTF-8
  245. Codec ID                                 : S_TEXT/UTF8
  246. Codec ID/Info                            : UTF-8 Plain Text
  247. Duration                                 : 1 h 36 min
  248. Bit rate                                 : 65 b/s
  249. Frame rate                               : 0.259 FPS
  250. Count of elements                        : 1504
  251. Stream size                              : 46.5 KiB (0%)
  252. Title                                    : Fran?ais (France)
  253. Language                                 : French
  254. Default                                  : No
  255. Forced                                   : No
  256. Text #16
  257. ID                                       : 18
  258. Format                                   : UTF-8
  259. Codec ID                                 : S_TEXT/UTF8
  260. Codec ID/Info                            : UTF-8 Plain Text
  261. Duration                                 : 1 h 44 min
  262. Bit rate                                 : 87 b/s
  263. Frame rate                               : 0.224 FPS
  264. Count of elements                        : 1401
  265. Stream size                              : 66.5 KiB (0%)
  266. Title                                    : ?????
  267. Language                                 : Hebrew
  268. Default                                  : No
  269. Forced                                   : No
  270. Text #17
  271. ID                                       : 19
  272. Format                                   : UTF-8
  273. Codec ID                                 : S_TEXT/UTF8
  274. Codec ID/Info                            : UTF-8 Plain Text
  275. Duration                                 : 1 h 44 min
  276. Bit rate                                 : 158 b/s
  277. Frame rate                               : 0.225 FPS
  278. Count of elements                        : 1408
  279. Stream size                              : 121 KiB (0%)
  280. Title                                    : ??????
  281. Language                                 : Hindi
  282. Default                                  : No
  283. Forced                                   : No
  284. Text #18
  285. ID                                       : 20
  286. Format                                   : UTF-8
  287. Codec ID                                 : S_TEXT/UTF8
  288. Codec ID/Info                            : UTF-8 Plain Text
  289. Duration                                 : 1 h 44 min
  290. Bit rate                                 : 65 b/s
  291. Frame rate                               : 0.224 FPS
  292. Count of elements                        : 1402
  293. Stream size                              : 49.7 KiB (0%)
  294. Title                                    : magyar
  295. Language                                 : Hungarian
  296. Default                                  : No
  297. Forced                                   : No
  298. Text #19
  299. ID                                       : 21
  300. Format                                   : UTF-8
  301. Codec ID                                 : S_TEXT/UTF8
  302. Codec ID/Info                            : UTF-8 Plain Text
  303. Duration                                 : 1 h 44 min
  304. Bit rate                                 : 65 b/s
  305. Frame rate                               : 0.223 FPS
  306. Count of elements                        : 1394
  307. Stream size                              : 50.2 KiB (0%)
  308. Title                                    : Bahasa Indonesia
  309. Language                                 : Indonesian
  310. Default                                  : No
  311. Forced                                   : No
  312. Text #20
  313. ID                                       : 22
  314. Format                                   : UTF-8
  315. Codec ID                                 : S_TEXT/UTF8
  316. Codec ID/Info                            : UTF-8 Plain Text
  317. Duration                                 : 1 h 36 min
  318. Bit rate                                 : 69 b/s
  319. Frame rate                               : 0.242 FPS
  320. Count of elements                        : 1397
  321. Stream size                              : 48.7 KiB (0%)
  322. Title                                    : Italiano
  323. Language                                 : Italian
  324. Default                                  : No
  325. Forced                                   : No
  326. Text #21
  327. ID                                       : 23
  328. Format                                   : UTF-8
  329. Codec ID                                 : S_TEXT/UTF8
  330. Codec ID/Info                            : UTF-8 Plain Text
  331. Duration                                 : 1 h 44 min
  332. Bit rate                                 : 56 b/s
  333. Frame rate                               : 0.233 FPS
  334. Count of elements                        : 1459
  335. Stream size                              : 42.9 KiB (0%)
  336. Title                                    : 日本語
  337. Language                                 : Japanese
  338. Default                                  : No
  339. Forced                                   : No
  340. Text #22
  341. ID                                       : 24
  342. Format                                   : UTF-8
  343. Codec ID                                 : S_TEXT/UTF8
  344. Codec ID/Info                            : UTF-8 Plain Text
  345. Duration                                 : 1 h 44 min
  346. Bit rate                                 : 71 b/s
  347. Frame rate                               : 0.224 FPS
  348. Count of elements                        : 1400
  349. Stream size                              : 54.5 KiB (0%)
  350. Title                                    : ???
  351. Language                                 : Korean
  352. Default                                  : No
  353. Forced                                   : No
  354. Text #23
  355. ID                                       : 25
  356. Format                                   : UTF-8
  357. Codec ID                                 : S_TEXT/UTF8
  358. Codec ID/Info                            : UTF-8 Plain Text
  359. Duration                                 : 1 h 44 min
  360. Bit rate                                 : 64 b/s
  361. Frame rate                               : 0.224 FPS
  362. Count of elements                        : 1401
  363. Stream size                              : 48.8 KiB (0%)
  364. Title                                    : lietuvi?
  365. Language                                 : Lithuanian
  366. Default                                  : No
  367. Forced                                   : No
  368. Text #24
  369. ID                                       : 26
  370. Format                                   : UTF-8
  371. Codec ID                                 : S_TEXT/UTF8
  372. Codec ID/Info                            : UTF-8 Plain Text
  373. Duration                                 : 1 h 44 min
  374. Bit rate                                 : 63 b/s
  375. Frame rate                               : 0.223 FPS
  376. Count of elements                        : 1394
  377. Stream size                              : 48.6 KiB (0%)
  378. Title                                    : latvie?u
  379. Language                                 : Latvian
  380. Default                                  : No
  381. Forced                                   : No
  382. Text #25
  383. ID                                       : 27
  384. Format                                   : UTF-8
  385. Codec ID                                 : S_TEXT/UTF8
  386. Codec ID/Info                            : UTF-8 Plain Text
  387. Duration                                 : 1 h 44 min
  388. Bit rate                                 : 63 b/s
  389. Frame rate                               : 0.225 FPS
  390. Count of elements                        : 1403
  391. Stream size                              : 48.6 KiB (0%)
  392. Title                                    : Bahasa Melayu
  393. Language                                 : Malay
  394. Default                                  : No
  395. Forced                                   : No
  396. Text #26
  397. ID                                       : 28
  398. Format                                   : UTF-8
  399. Codec ID                                 : S_TEXT/UTF8
  400. Codec ID/Info                            : UTF-8 Plain Text
  401. Duration                                 : 1 h 44 min
  402. Bit rate                                 : 60 b/s
  403. Frame rate                               : 0.188 FPS
  404. Count of elements                        : 1174
  405. Stream size                              : 46.2 KiB (0%)
  406. Title                                    : Nederlands
  407. Language                                 : Dutch
  408. Default                                  : No
  409. Forced                                   : No
  410. Text #27
  411. ID                                       : 29
  412. Format                                   : UTF-8
  413. Codec ID                                 : S_TEXT/UTF8
  414. Codec ID/Info                            : UTF-8 Plain Text
  415. Duration                                 : 1 h 44 min
  416. Bit rate                                 : 61 b/s
  417. Frame rate                               : 0.181 FPS
  418. Count of elements                        : 1128
  419. Stream size                              : 46.7 KiB (0%)
  420. Title                                    : Nederlands (Belgi?)
  421. Language                                 : Dutch
  422. Default                                  : No
  423. Forced                                   : No
  424. Text #28
  425. ID                                       : 30
  426. Format                                   : UTF-8
  427. Codec ID                                 : S_TEXT/UTF8
  428. Codec ID/Info                            : UTF-8 Plain Text
  429. Duration                                 : 1 h 44 min
  430. Bit rate                                 : 62 b/s
  431. Frame rate                               : 0.206 FPS
  432. Count of elements                        : 1288
  433. Stream size                              : 47.5 KiB (0%)
  434. Title                                    : norsk
  435. Language                                 : Norwegian
  436. Default                                  : No
  437. Forced                                   : No
  438. Text #29
  439. ID                                       : 31
  440. Format                                   : UTF-8
  441. Codec ID                                 : S_TEXT/UTF8
  442. Codec ID/Info                            : UTF-8 Plain Text
  443. Duration                                 : 1 h 36 min
  444. Bit rate                                 : 73 b/s
  445. Frame rate                               : 0.242 FPS
  446. Count of elements                        : 1393
  447. Stream size                              : 51.7 KiB (0%)
  448. Title                                    : polski
  449. Language                                 : Polish
  450. Default                                  : No
  451. Forced                                   : No
  452. Text #30
  453. ID                                       : 32
  454. Format                                   : UTF-8
  455. Codec ID                                 : S_TEXT/UTF8
  456. Codec ID/Info                            : UTF-8 Plain Text
  457. Duration                                 : 1 h 44 min
  458. Bit rate                                 : 63 b/s
  459. Frame rate                               : 0.223 FPS
  460. Count of elements                        : 1394
  461. Stream size                              : 48.2 KiB (0%)
  462. Title                                    : Português
  463. Language                                 : Portuguese
  464. Default                                  : No
  465. Forced                                   : No
  466. Text #31
  467. ID                                       : 33
  468. Format                                   : UTF-8
  469. Codec ID                                 : S_TEXT/UTF8
  470. Codec ID/Info                            : UTF-8 Plain Text
  471. Duration                                 : 1 h 44 min
  472. Bit rate                                 : 62 b/s
  473. Frame rate                               : 0.222 FPS
  474. Count of elements                        : 1388
  475. Stream size                              : 47.3 KiB (0%)
  476. Title                                    : Português (Brasil)
  477. Language                                 : Portuguese
  478. Default                                  : No
  479. Forced                                   : No
  480. Text #32
  481. ID                                       : 34
  482. Format                                   : UTF-8
  483. Codec ID                                 : S_TEXT/UTF8
  484. Codec ID/Info                            : UTF-8 Plain Text
  485. Duration                                 : 1 h 44 min
  486. Bit rate                                 : 102 b/s
  487. Frame rate                               : 0.224 FPS
  488. Count of elements                        : 1401
  489. Stream size                              : 78.2 KiB (0%)
  490. Title                                    : Русский
  491. Language                                 : Russian
  492. Default                                  : No
  493. Forced                                   : No
  494. Text #33
  495. ID                                       : 35
  496. Format                                   : UTF-8
  497. Codec ID                                 : S_TEXT/UTF8
  498. Codec ID/Info                            : UTF-8 Plain Text
  499. Duration                                 : 1 h 44 min
  500. Bit rate                                 : 64 b/s
  501. Frame rate                               : 0.224 FPS
  502. Count of elements                        : 1404
  503. Stream size                              : 49.2 KiB (0%)
  504. Title                                    : Sloven?ina
  505. Language                                 : Slovak
  506. Default                                  : No
  507. Forced                                   : No
  508. Text #34
  509. ID                                       : 36
  510. Format                                   : UTF-8
  511. Codec ID                                 : S_TEXT/UTF8
  512. Codec ID/Info                            : UTF-8 Plain Text
  513. Duration                                 : 1 h 44 min
  514. Bit rate                                 : 53 b/s
  515. Frame rate                               : 0.203 FPS
  516. Count of elements                        : 1269
  517. Stream size                              : 40.6 KiB (0%)
  518. Title                                    : sloven??ina
  519. Language                                 : Slovenian
  520. Default                                  : No
  521. Forced                                   : No
  522. Text #35
  523. ID                                       : 37
  524. Format                                   : UTF-8
  525. Codec ID                                 : S_TEXT/UTF8
  526. Codec ID/Info                            : UTF-8 Plain Text
  527. Duration                                 : 1 h 44 min
  528. Bit rate                                 : 64 b/s
  529. Frame rate                               : 0.214 FPS
  530. Count of elements                        : 1341
  531. Stream size                              : 48.9 KiB (0%)
  532. Title                                    : Svenska
  533. Language                                 : Swedish
  534. Default                                  : No
  535. Forced                                   : No
  536. Text #36
  537. ID                                       : 38
  538. Format                                   : UTF-8
  539. Codec ID                                 : S_TEXT/UTF8
  540. Codec ID/Info                            : UTF-8 Plain Text
  541. Duration                                 : 1 h 44 min
  542. Bit rate                                 : 210 b/s
  543. Frame rate                               : 0.225 FPS
  544. Count of elements                        : 1407
  545. Stream size                              : 161 KiB (0%)
  546. Title                                    : ?????
  547. Language                                 : Tamil
  548. Default                                  : No
  549. Forced                                   : No
  550. Text #37
  551. ID                                       : 39
  552. Format                                   : UTF-8
  553. Codec ID                                 : S_TEXT/UTF8
  554. Codec ID/Info                            : UTF-8 Plain Text
  555. Duration                                 : 1 h 44 min
  556. Bit rate                                 : 191 b/s
  557. Frame rate                               : 0.225 FPS
  558. Count of elements                        : 1407
  559. Stream size                              : 146 KiB (0%)
  560. Title                                    : ??????
  561. Language                                 : Telugu
  562. Default                                  : No
  563. Forced                                   : No
  564. Text #38
  565. ID                                       : 40
  566. Format                                   : UTF-8
  567. Codec ID                                 : S_TEXT/UTF8
  568. Codec ID/Info                            : UTF-8 Plain Text
  569. Duration                                 : 1 h 44 min
  570. Bit rate                                 : 147 b/s
  571. Frame rate                               : 0.225 FPS
  572. Count of elements                        : 1407
  573. Stream size                              : 112 KiB (0%)
  574. Title                                    : ???
  575. Language                                 : Thai
  576. Default                                  : No
  577. Forced                                   : No
  578. Text #39
  579. ID                                       : 41
  580. Format                                   : UTF-8
  581. Codec ID                                 : S_TEXT/UTF8
  582. Codec ID/Info                            : UTF-8 Plain Text
  583. Duration                                 : 1 h 44 min
  584. Bit rate                                 : 64 b/s
  585. Frame rate                               : 0.223 FPS
  586. Count of elements                        : 1395
  587. Stream size                              : 49.1 KiB (0%)
  588. Title                                    : Türk?e
  589. Language                                 : Turkish
  590. Default                                  : No
  591. Forced                                   : No
  592. Text #40
  593. ID                                       : 42
  594. Format                                   : UTF-8
  595. Codec ID                                 : S_TEXT/UTF8
  596. Codec ID/Info                            : UTF-8 Plain Text
  597. Duration                                 : 1 h 44 min
  598. Bit rate                                 : 101 b/s
  599. Frame rate                               : 0.224 FPS
  600. Count of elements                        : 1404
  601. Stream size                              : 77.7 KiB (0%)
  602. Title                                    : укра?нська
  603. Language                                 : Ukrainian
  604. Default                                  : No
  605. Forced                                   : No
  606. Text #41
  607. ID                                       : 43
  608. Format                                   : UTF-8
  609. Codec ID                                 : S_TEXT/UTF8
  610. Codec ID/Info                            : UTF-8 Plain Text
  611. Duration                                 : 1 h 44 min
  612. Bit rate                                 : 83 b/s
  613. Frame rate                               : 0.224 FPS
  614. Count of elements                        : 1404
  615. Stream size                              : 63.7 KiB (0%)
  616. Title                                    : Ti?ng Vi?t
  617. Language                                 : Vietnamese
  618. Default                                  : No
  619. Forced                                   : No
  620. Text #42
  621. ID                                       : 44
  622. Format                                   : UTF-8
  623. Codec ID                                 : S_TEXT/UTF8
  624. Codec ID/Info                            : UTF-8 Plain Text
  625. Duration                                 : 1 h 44 min
  626. Bit rate                                 : 59 b/s
  627. Frame rate                               : 0.225 FPS
  628. Count of elements                        : 1407
  629. Stream size                              : 45.7 KiB (0%)
  630. Title                                    : 中文(简体)
  631. Language                                 : Chinese
  632. Default                                  : No
  633. Forced                                   : No
  634. Text #43
  635. ID                                       : 45
  636. Format                                   : UTF-8
  637. Codec ID                                 : S_TEXT/UTF8
  638. Codec ID/Info                            : UTF-8 Plain Text
  639. Duration                                 : 1 h 44 min
  640. Bit rate                                 : 61 b/s
  641. Frame rate                               : 0.225 FPS
  642. Count of elements                        : 1408
  643. Stream size                              : 46.8 KiB (0%)
  644. Title                                    : 廣東話
  645. Language                                 : Chinese
  646. Default                                  : No
  647. Forced                                   : No
  648. Text #44
  649. ID                                       : 46
  650. Format                                   : UTF-8
  651. Codec ID                                 : S_TEXT/UTF8
  652. Codec ID/Info                            : UTF-8 Plain Text
  653. Duration                                 : 1 h 44 min
  654. Bit rate                                 : 60 b/s
  655. Frame rate                               : 0.225 FPS
  656. Count of elements                        : 1408
  657. Stream size                              : 46.4 KiB (0%)
  658. Title                                    : 中文(繁體)
  659. Language                                 : Chinese
  660. Default                                  : No
  661. Forced                                   : No
复制代码




                                       
                                       

                                       
                                       
                                       




Luck.2022.2160p.ATVP.WEB-DL.DDP5.1.Atmos.DV.MKV.x265-KOGi.torrent (23.73 KB, 下载次数: 0)
回复

使用道具 举报

懒得打字嘛,点击右侧快捷回复 【右侧内容,后台自定义】
您需要登录后才可以回帖 登录 | 立即注册

本版积分规则

Archiver|手机版|小黑屋| 中国高清网 |网站地图 

GMT+8, 2022-8-19 14:10 , Processed in 0.153948 second(s), 26 queries .

Powered by HDchina X3.4

Copyright 2017-2019©HDchina.All right reserved

返回顶部 联系我们