查看: 24|回复: 0

[2160p] 坏蛋联盟 The.Bad.Guys.2022.2160p.BluRay.x264.8bit.SDR.DTS-HD.MA.TrueHD.7.1.Atmos-SWTYBLZ 23.11GB

[复制链接]
蓝光币
14 枚
发表于 3 天前 | 显示全部楼层 |阅读模式


◎标  题 好人同盟
◎译  名 大好人 / 坏家伙 / Bad Guys
◎片  名 The Bad Guys
◎年  代 2022
◎产  地 美国
◎类  别 笑剧 / 动画 / 冒险
◎语  言 英语
◎上映日期 2022-04-29(中国大陆) / 2022-03-17(阿根廷) / 2022-04-22(美国)
◎IMDb评分 6.9/10 (9321人评价)
◎IMDb链接 https://www.imdb.com/title/tt8115900/
◎豆瓣链接 https://movie.douban.com/subject/30165311/
◎片  长 100分钟
◎导  演 彼埃尔·佩里菲尔 Pierre Perifel
◎编  剧 艾伦·布拉培 Aaron Blabey
       伊坦·柯亨 Etan Cohen
       尤尼·布伦纳 Yoni Brenner
       希拉里·温斯顿 Hilary Winston
◎演  员 山姆·洛克威尔 Sam Rockwell
       马克·马龙 Marc Maron
       奥卡菲娜 Awkwafina
       克雷格·罗宾森 Craig Robinson
       安东尼·拉莫斯 Anthony Ramos
       理查德·艾欧阿德 Richard Ayoade
       莎姬·贝兹 Zazie Beetz
       艾利克斯·布诺斯町 Alex Borstein
       莉莉·辛格 Lilly Singh
       芭芭拉·古德森 Barbara Goodson
       迪娜·莫罗 Dina Morrone
       迈克尔·高德尔 Michael Godere
       凯莉·库尼 Kelly Cooney
       沃尔特·道恩 Walt Dohrn
       戴维·P·史姑娘 David P. Smith
◎简  介

  故事的配角是五个无恶不作的好人——风姿潇洒的窃匪“大坏狼”、孤陋寡闻的保险箱窃贼“贪心蛇”、冷静沉稳的伪装大师“美肚鲨”、急躁易怒的打手“食人鱼”、伶牙俐齿的黑客专家“骇客蛛”闪亮退场,他们是最污名昭著的“好人同盟”。他们平常威风八面,四周作案,使人闻风丧胆。直到某一天,他们忽然想成为榜样百姓,但是转型路途甚是艰难,且意外层见叠出,使人啼笑皆非。
  1. Video
  2. ID                                       : 1
  3. Format                                   : AVC
  4. Format/Info                              : Advanced Video Codec
  5. Format profile                           : [email protected]
  6. Format settings                          : CABAC / 5 Ref Frames
  7. Format settings, CABAC                   : Yes
  8. Format settings, Reference frames        : 5 frames
  9. Codec ID                                 : V_MPEG4/ISO/AVC
  10. Duration                                 : 1 h 40 min
  11. Bit rate                                 : 25.1 Mb/s
  12. Width                                    : 3 840 pixels
  13. Height                                   : 1 608 pixels
  14. Display aspect ratio                     : 2.40:1
  15. Frame rate mode                          : Constant
  16. Frame rate                               : 23.976 (24000/1001/189150) FPS
  17. Color space                              : YUV
  18. Chroma subsampling                       : 4:2:0
  19. Bit depth                                : 8 bits
  20. Scan type                                : Progressive
  21. Bits/(Pixel*Frame)                       : 0.170
  22. Stream size                              : 17.6 GiB (76%)
  23. Writing library                          : x264 core 157 r2935 545de2f
  24. Encoding settings                        : cabac=1 / ref=5 / deblock=1:1:1 / analyse=0x3:0x113 / me=umh / subme=10 / psy=1 / psy_rd=0.40:0.00 / mixed_ref=1 / me_range=48 / chroma_me=1 / trellis=2 / 8x8dct=1 / cqm=0 / deadzone=21,11 / fast_pskip=1 / chroma_qp_offset=-2 / threads=48 / lookahead_threads=5 / sliced_threads=0 / nr=0 / decimate=0 / interlaced=0 / bluray_compat=0 / constrained_intra=0 / bframes=5 / b_pyramid=2 / b_adapt=2 / b_bias=0 / direct=3 / weightb=1 / open_gop=0 / weightp=2 / keyint=250 / keyint_min=23 / scenecut=40 / intra_refresh=0 / rc_lookahead=50 / rc=crf / mbtree=1 / crf=16.0 / qcomp=0.60 / qpmin=0 / qpmax=69 / qpstep=4 / ip_ratio=1.40 / aq=1:0.60
  25. Default                                  : Yes
  26. Forced                                   : No
  27. Audio #1
  28. ID                                       : 2
  29. ID in the original source medium         : 4352 (0x1100)
  30. Format                                   : MLP FBA 16-ch
  31. Format/Info                              : Meridian Lossless Packing FBA with 16-channel presentation
  32. Commercial name                          : Dolby TrueHD with Dolby Atmos
  33. Codec ID                                 : A_TRUEHD
  34. Duration                                 : 1 h 40 min
  35. Bit rate mode                            : Variable
  36. Bit rate                                 : 3 166 kb/s
  37. Maximum bit rate                         : 4 686 kb/s
  38. Channel(s)                               : 8 channels
  39. Channel layout                           : L R C LFE Ls Rs Lb Rb
  40. Sampling rate                            : 48.0 kHz
  41. Frame rate                               : 1 200.000 FPS (40 SPF)
  42. Bit depth                                : 24 bits
  43. Compression mode                         : Lossless
  44. Stream size                              : 2.21 GiB (10%)
  45. Title                                    : TrueHD 7.1 Atmos
  46. Language                                 : English
  47. Default                                  : Yes
  48. Forced                                   : No
  49. Original source medium                   : Blu-ray
  50. Number of dynamic objects                : 11
  51. Bed channel count                        : 1 channel
  52. Bed channel configuration                : LFE
  53. Audio #2
  54. ID                                       : 3
  55. Format                                   : DTS XLL
  56. Format/Info                              : Digital Theater Systems
  57. Commercial name                          : DTS-HD Master Audio
  58. Codec ID                                 : A_DTS
  59. Duration                                 : 1 h 40 min
  60. Bit rate mode                            : Variable
  61. Bit rate                                 : 3 969 kb/s
  62. Channel(s)                               : 8 channels
  63. Channel layout                           : C L R LFE Lb Rb Lss Rss
  64. Sampling rate                            : 48.0 kHz
  65. Frame rate                               : 93.750 FPS (512 SPF)
  66. Bit depth                                : 24 bits
  67. Compression mode                         : Lossless
  68. Stream size                              : 2.78 GiB (12%)
  69. Title                                    : DTS-HD MA 7.1
  70. Language                                 : English
  71. Default                                  : No
  72. Forced                                   : No
  73. Audio #3
  74. ID                                       : 4
  75. ID in the original source medium         : 4352 (0x1100)
  76. Format                                   : AC-3
  77. Format/Info                              : Audio Coding 3
  78. Commercial name                          : Dolby Digital
  79. Codec ID                                 : A_AC3
  80. Duration                                 : 1 h 40 min
  81. Bit rate mode                            : Constant
  82. Bit rate                                 : 448 kb/s
  83. Channel(s)                               : 6 channels
  84. Channel layout                           : L R C LFE Ls Rs
  85. Sampling rate                            : 48.0 kHz
  86. Frame rate                               : 31.250 FPS (1536 SPF)
  87. Compression mode                         : Lossy
  88. Stream size                              : 321 MiB (1%)
  89. Title                                    : DD 5.1
  90. Language                                 : English
  91. Service kind                             : Complete Main
  92. Default                                  : No
  93. Forced                                   : No
  94. Original source medium                   : Blu-ray
  95. Text #1
  96. ID                                       : 5
  97. Format                                   : UTF-8
  98. Codec ID                                 : S_TEXT/UTF8
  99. Codec ID/Info                            : UTF-8 Plain Text
  100. Duration                                 : 1 h 39 min
  101. Bit rate                                 : 73 b/s
  102. Count of elements                        : 1747
  103. Stream size                              : 53.7 KiB (0%)
  104. Language                                 : English
  105. Default                                  : Yes
  106. Forced                                   : No
  107. Text #2
  108. ID                                       : 6
  109. Format                                   : UTF-8
  110. Codec ID                                 : S_TEXT/UTF8
  111. Codec ID/Info                            : UTF-8 Plain Text
  112. Duration                                 : 1 h 39 min
  113. Bit rate                                 : 82 b/s
  114. Count of elements                        : 1953
  115. Stream size                              : 60.3 KiB (0%)
  116. Title                                    : SDH
  117. Language                                 : English
  118. Default                                  : No
  119. Forced                                   : No
  120. Text #3
  121. ID                                       : 7
  122. ID in the original source medium         : 4768 (0x12A0)
  123. Format                                   : PGS
  124. Muxing mode                              : zlib
  125. Codec ID                                 : S_HDMV/PGS
  126. Codec ID/Info                            : Picture based subtitle format used on BDs/HD-DVDs
  127. Duration                                 : 1 h 39 min
  128. Bit rate                                 : 57.6 kb/s
  129. Count of elements                        : 3934
  130. Stream size                              : 40.9 MiB (0%)
  131. Language                                 : English
  132. Default                                  : No
  133. Forced                                   : No
  134. Original source medium                   : Blu-ray
  135. Text #4
  136. ID                                       : 8
  137. ID in the original source medium         : 4769 (0x12A1)
  138. Format                                   : PGS
  139. Muxing mode                              : zlib
  140. Codec ID                                 : S_HDMV/PGS
  141. Codec ID/Info                            : Picture based subtitle format used on BDs/HD-DVDs
  142. Duration                                 : 1 h 39 min
  143. Bit rate                                 : 48.1 kb/s
  144. Count of elements                        : 3378
  145. Stream size                              : 34.2 MiB (0%)
  146. Language                                 : Spanish
  147. Default                                  : No
  148. Forced                                   : No
  149. Original source medium                   : Blu-ray
  150. Text #5
  151. ID                                       : 9
  152. ID in the original source medium         : 4770 (0x12A2)
  153. Format                                   : PGS
  154. Muxing mode                              : zlib
  155. Codec ID                                 : S_HDMV/PGS
  156. Codec ID/Info                            : Picture based subtitle format used on BDs/HD-DVDs
  157. Duration                                 : 1 h 39 min
  158. Bit rate                                 : 49.4 kb/s
  159. Count of elements                        : 3330
  160. Stream size                              : 35.2 MiB (0%)
  161. Language                                 : French
  162. Default                                  : No
  163. Forced                                   : No
  164. Original source medium                   : Blu-ray
  165. Text #6
  166. ID                                       : 10
  167. ID in the original source medium         : 4771 (0x12A3)
  168. Format                                   : PGS
  169. Muxing mode                              : zlib
  170. Codec ID                                 : S_HDMV/PGS
  171. Codec ID/Info                            : Picture based subtitle format used on BDs/HD-DVDs
  172. Duration                                 : 1 h 39 min
  173. Bit rate                                 : 868 b/s
  174. Count of elements                        : 48
  175. Stream size                              : 631 KiB (0%)
  176. Title                                    : FORCED
  177. Language                                 : Spanish
  178. Default                                  : No
  179. Forced                                   : No
  180. Original source medium                   : Blu-ray
  181. Text #7
  182. ID                                       : 11
  183. ID in the original source medium         : 4772 (0x12A4)
  184. Format                                   : PGS
  185. Muxing mode                              : zlib
  186. Codec ID                                 : S_HDMV/PGS
  187. Codec ID/Info                            : Picture based subtitle format used on BDs/HD-DVDs
  188. Duration                                 : 1 h 36 min
  189. Bit rate                                 : 626 b/s
  190. Count of elements                        : 44
  191. Stream size                              : 442 KiB (0%)
  192. Title                                    : FORCED
  193. Language                                 : French
  194. Default                                  : No
  195. Forced                                   : No
  196. Original source medium                   : Blu-ray
  197. Menu
  198. 00:00:00.000                             : en:Chapter 01
  199. 00:03:09.314                             : en:Chapter 02
  200. 00:09:08.839                             : en:Chapter 03
  201. 00:14:07.847                             : en:Chapter 04
  202. 00:20:35.400                             : en:Chapter 05
  203. 00:27:24.684                             : en:Chapter 06
  204. 00:32:08.760                             : en:Chapter 07
  205. 00:36:16.424                             : en:Chapter 08
  206. 00:41:26.400                             : en:Chapter 09
  207. 00:45:50.289                             : en:Chapter 10
  208. 00:49:08.737                             : en:Chapter 11
  209. 00:55:01.047                             : en:Chapter 12
  210. 00:58:38.973                             : en:Chapter 13
  211. 01:05:41.020                             : en:Chapter 14
  212. 01:10:36.232                             : en:Chapter 15
  213. 01:12:40.814                             : en:Chapter 16
  214. 01:15:45.123                             : en:Chapter 17
  215. 01:20:24.820                             : en:Chapter 18
  216. 01:25:28.581                             : en:Chapter 19
  217. 01:30:56.159                             : en:Chapter 20
复制代码







                                       
                                       

                                       
                                       
                                       




The.Bad.Guys.2022.2160p.BluRay.x264.8bit.SDR.DTS-HD.MA.TrueHD.7.1.Atmos-SWTYBLZ.torrent (29.62 KB, 下载次数: 2)
回复

使用道具 举报

懒得打字嘛,点击右侧快捷回复 【右侧内容,后台自定义】
您需要登录后才可以回帖 登录 | 立即注册

本版积分规则

Archiver|手机版|小黑屋| 中国高清网 |网站地图 

GMT+8, 2022-6-27 14:36 , Processed in 0.107806 second(s), 26 queries .

Powered by HDchina X3.4

Copyright 2017-2019©HDchina.All right reserved

返回顶部 联系我们