查看: 10|回复: 0

[2160p] 神奇动物:邓布利多之谜 Fantastic.Beasts.The.Secrets.of.Dumbledore.2022.2160p.BluRay.x264.8bit.SDR.DTS-HD.MA.TrueHD.7.1.Atmos-SWTYBLZ 24.03GB

[复制链接]
蓝光币
14 枚
发表于 3 天前 | 显示全部楼层 |阅读模式


◎标  题 奇异动物:邓布利多之谜
◎译  名 奇异动物在那里3:邓布利多之谜 / 奇异生物在那里3 / 怪兽与邓晦气多的奥秘(港 / 台)
◎片  名 Fantastic Beasts: The Secrets of Dumbledore
◎年  代 2022
◎产  地 英国 / 美国
◎类  别 奇异 / 冒险
◎语  言 英语 / 德语
◎上映日期 2022-04-08(英国/中国大陆) / 2022-04-15(美国)
◎IMDb评分 6.5/10 (50499人评价)
◎IMDb链接 https://www.imdb.com/title/tt4123432/
◎豆瓣评分 6.1/10 (88625人评价)
◎豆瓣链接 https://movie.douban.com/subject/26147418/
◎片  长 142分钟
◎导  演 大卫·叶茨 David Yates
◎编  剧 J. K. 罗琳 J. K. Rowling
       史蒂夫·克洛夫斯 Steve Kloves
◎演  员 埃迪·雷德梅恩 Eddie Redmayne
       裘德·洛 Jude Law
       麦斯·米科尔森 Mads Mikkelsen
       丹·福勒 Dan Fogler
       艾莉森·萨多尔 Alison Sudol
       凯瑟琳·沃特斯顿 Katherine Waterston
       埃兹拉·米勒 Ezra Miller
       卡勒姆·特纳 Callum Turner
       杰西卡·威廉姆斯 Jessica Williams
       理查德·柯伊尔 Richard Coyle
       波佩·科比-特曲 Poppy Corby-Tuech
       维多利亚·耶茨 Victoria Yeates
       威廉·纳迪兰 William Nadylam
       奥利弗·马苏奇 Oliver Masucci
       瓦莱丽·帕赫纳 Valerie Pachner
       亚历山大·库兹涅佐夫 Aleksandr Kuznetsov
       拉莫娜·库泽-莉比诺 Ramona Kunze-Libnow
       马丽娅·费尔南达·康基多 Maria Fernanda Cândido
       戴夫·王 Dave Wong  
       维尔夫·斯科尔丁 Wilf Scolding
       卢卡斯·英格兰德 Lucas Englander
       菲奥娜·格拉斯科特 Fiona Glascott
       马提亚斯·布伦纳 Matthias Brenner
       彼得·西蒙尼舍克 Peter Simonischek
       雅基·波特斯万 Jacqui Boatswain
       赫柏·贝尔德索尔 Hebe Beardsall
       Manuel Klein Manuel Klein
       凯文·格思里 Kevin Guthrie
       詹姆斯·纽顿·霍华德 James Newton Howard
       乔治·瑞奇蒙 George Richmond
       柯琳·阿特伍德 Colleen Atwood
◎简  介

  阿不思·邓布利多教授(裘德·洛 饰)意想到强大的黑巫师盖勒特·格林德沃(麦斯·米科尔森 饰)正试图夺取魔法天下的控制权。邓布利多领会仅凭他一人之力,将没法阻止格林德沃,因而他拜托魔法动物学家纽特·斯卡曼德(埃迪·雷德梅恩 饰)率领一支精巧的团队——成员包括男巫、女巫及一位勇敢的麻瓜面包师,来配合履行这项危险使命。一路上他们会碰到林林总总的奇异动物,既有老朋友,也有前所未见的奥秘生物;同时他们也随时会与格林德沃不竭强大的跟随者发生抵触。此次行动的风险是如此之高……邓布利多还能作壁上观多久?
  1. Video
  2. ID                                       : 1
  3. Format                                   : AVC
  4. Format/Info                              : Advanced Video Codec
  5. Format profile                           : [email protected]
  6. Format settings                          : CABAC / 5 Ref Frames
  7. Format settings, CABAC                   : Yes
  8. Format settings, Reference frames        : 5 frames
  9. Codec ID                                 : V_MPEG4/ISO/AVC
  10. Duration                                 : 2 h 22 min
  11. Bit rate                                 : 17.4 Mb/s
  12. Width                                    : 3 840 pixels
  13. Height                                   : 1 606 pixels
  14. Display aspect ratio                     : 2.40:1
  15. Frame rate mode                          : Constant
  16. Frame rate                               : 23.976 (24000/1001/189150) FPS
  17. Color space                              : YUV
  18. Chroma subsampling                       : 4:2:0
  19. Bit depth                                : 8 bits
  20. Scan type                                : Progressive
  21. Bits/(Pixel*Frame)                       : 0.118
  22. Stream size                              : 17.4 GiB (73%)
  23. Writing library                          : x264 core 157 r2935 545de2f
  24. Encoding settings                        : cabac=1 / ref=5 / deblock=1:-1:-1 / analyse=0x3:0x113 / me=umh / subme=10 / psy=1 / psy_rd=1.00:0.15 / mixed_ref=1 / me_range=48 / chroma_me=1 / trellis=2 / 8x8dct=1 / cqm=0 / deadzone=21,11 / fast_pskip=1 / chroma_qp_offset=-3 / threads=48 / lookahead_threads=4 / sliced_threads=0 / nr=0 / decimate=0 / interlaced=0 / bluray_compat=0 / constrained_intra=0 / bframes=3 / b_pyramid=2 / b_adapt=2 / b_bias=0 / direct=3 / weightb=1 / open_gop=0 / weightp=2 / keyint=250 / keyint_min=23 / scenecut=40 / intra_refresh=0 / rc_lookahead=50 / rc=crf / mbtree=1 / crf=16.0 / qcomp=0.60 / qpmin=0 / qpmax=69 / qpstep=4 / ip_ratio=1.40 / aq=1:1.00
  25. Default                                  : Yes
  26. Forced                                   : No

  27. Audio #1
  28. ID                                       : 2
  29. ID in the original source medium         : 4352 (0x1100)
  30. Format                                   : MLP FBA 16-ch
  31. Format/Info                              : Meridian Lossless Packing FBA with 16-channel presentation
  32. Commercial name                          : Dolby TrueHD with Dolby Atmos
  33. Codec ID                                 : A_TRUEHD
  34. Duration                                 : 2 h 22 min
  35. Bit rate mode                            : Variable
  36. Bit rate                                 : 2 742 kb/s
  37. Maximum bit rate                         : 4 389 kb/s
  38. Channel(s)                               : 8 channels
  39. Channel layout                           : L R C LFE Ls Rs Lb Rb
  40. Sampling rate                            : 48.0 kHz
  41. Frame rate                               : 1 200.000 FPS (40 SPF)
  42. Bit depth                                : 24 bits
  43. Compression mode                         : Lossless
  44. Stream size                              : 2.73 GiB (11%)
  45. Title                                    : TrueHD 7.1 Atmos
  46. Language                                 : English
  47. Default                                  : Yes
  48. Forced                                   : No
  49. Original source medium                   : Blu-ray
  50. Number of dynamic objects                : 11
  51. Bed channel count                        : 1 channel
  52. Bed channel configuration                : LFE

  53. Audio #2
  54. ID                                       : 3
  55. Format                                   : DTS XLL
  56. Format/Info                              : Digital Theater Systems
  57. Commercial name                          : DTS-HD Master Audio
  58. Codec ID                                 : A_DTS
  59. Duration                                 : 2 h 22 min
  60. Bit rate mode                            : Variable
  61. Bit rate                                 : 3 254 kb/s
  62. Channel(s)                               : 8 channels
  63. Channel layout                           : C L R LFE Lb Rb Lss Rss
  64. Sampling rate                            : 48.0 kHz
  65. Frame rate                               : 93.750 FPS (512 SPF)
  66. Bit depth                                : 24 bits
  67. Compression mode                         : Lossless
  68. Stream size                              : 3.24 GiB (14%)
  69. Title                                    : DTS-HD MA 7.1
  70. Language                                 : English
  71. Default                                  : No
  72. Forced                                   : No

  73. Audio #3
  74. ID                                       : 4
  75. ID in the original source medium         : 4352 (0x1100)
  76. Format                                   : AC-3
  77. Format/Info                              : Audio Coding 3
  78. Commercial name                          : Dolby Digital
  79. Format settings                          : Dolby Surround EX
  80. Codec ID                                 : A_AC3
  81. Duration                                 : 2 h 22 min
  82. Bit rate mode                            : Constant
  83. Bit rate                                 : 448 kb/s
  84. Channel(s)                               : 6 channels
  85. Channel layout                           : L R C LFE Ls Rs
  86. Sampling rate                            : 48.0 kHz
  87. Frame rate                               : 31.250 FPS (1536 SPF)
  88. Compression mode                         : Lossy
  89. Stream size                              : 457 MiB (2%)
  90. Title                                    : DD 5.1
  91. Language                                 : English
  92. Service kind                             : Complete Main
  93. Default                                  : No
  94. Forced                                   : No
  95. Original source medium                   : Blu-ray

  96. Text #1
  97. ID                                       : 5
  98. Format                                   : UTF-8
  99. Codec ID                                 : S_TEXT/UTF8
  100. Codec ID/Info                            : UTF-8 Plain Text
  101. Duration                                 : 2 h 16 min
  102. Bit rate                                 : 34 b/s
  103. Count of elements                        : 1274
  104. Stream size                              : 35.0 KiB (0%)
  105. Language                                 : English
  106. Default                                  : Yes
  107. Forced                                   : No

  108. Text #2
  109. ID                                       : 6
  110. Format                                   : UTF-8
  111. Codec ID                                 : S_TEXT/UTF8
  112. Codec ID/Info                            : UTF-8 Plain Text
  113. Duration                                 : 2 h 20 min
  114. Bit rate                                 : 45 b/s
  115. Count of elements                        : 1794
  116. Stream size                              : 46.7 KiB (0%)
  117. Title                                    : SDH
  118. Language                                 : English
  119. Default                                  : No
  120. Forced                                   : No

  121. Text #3
  122. ID                                       : 7
  123. ID in the original source medium         : 4768 (0x12A0)
  124. Format                                   : PGS
  125. Muxing mode                              : zlib
  126. Codec ID                                 : S_HDMV/PGS
  127. Codec ID/Info                            : Picture based subtitle format used on BDs/HD-DVDs
  128. Duration                                 : 2 h 20 min
  129. Bit rate                                 : 29.0 kb/s
  130. Count of elements                        : 3647
  131. Stream size                              : 29.1 MiB (0%)
  132. Language                                 : English
  133. Default                                  : No
  134. Forced                                   : No
  135. Original source medium                   : Blu-ray

  136. Text #4
  137. ID                                       : 8
  138. ID in the original source medium         : 4769 (0x12A1)
  139. Format                                   : PGS
  140. Muxing mode                              : zlib
  141. Codec ID                                 : S_HDMV/PGS
  142. Codec ID/Info                            : Picture based subtitle format used on BDs/HD-DVDs
  143. Duration                                 : 2 h 21 min
  144. Bit rate                                 : 18.0 kb/s
  145. Count of elements                        : 2424
  146. Stream size                              : 18.3 MiB (0%)
  147. Language                                 : French
  148. Default                                  : No
  149. Forced                                   : No
  150. Original source medium                   : Blu-ray

  151. Text #5
  152. ID                                       : 9
  153. ID in the original source medium         : 4770 (0x12A2)
  154. Format                                   : PGS
  155. Muxing mode                              : zlib
  156. Codec ID                                 : S_HDMV/PGS
  157. Codec ID/Info                            : Picture based subtitle format used on BDs/HD-DVDs
  158. Duration                                 : 2 h 17 min
  159. Bit rate                                 : 32.2 kb/s
  160. Count of elements                        : 3184
  161. Stream size                              : 31.7 MiB (0%)
  162. Language                                 : German
  163. Default                                  : No
  164. Forced                                   : No
  165. Original source medium                   : Blu-ray

  166. Text #6
  167. ID                                       : 10
  168. ID in the original source medium         : 4771 (0x12A3)
  169. Format                                   : PGS
  170. Muxing mode                              : zlib
  171. Codec ID                                 : S_HDMV/PGS
  172. Codec ID/Info                            : Picture based subtitle format used on BDs/HD-DVDs
  173. Duration                                 : 2 h 22 min
  174. Bit rate                                 : 26.9 kb/s
  175. Count of elements                        : 3626
  176. Stream size                              : 27.4 MiB (0%)
  177. Language                                 : Italian
  178. Default                                  : No
  179. Forced                                   : No
  180. Original source medium                   : Blu-ray

  181. Text #7
  182. ID                                       : 11
  183. ID in the original source medium         : 4772 (0x12A4)
  184. Format                                   : PGS
  185. Muxing mode                              : zlib
  186. Codec ID                                 : S_HDMV/PGS
  187. Codec ID/Info                            : Picture based subtitle format used on BDs/HD-DVDs
  188. Duration                                 : 2 h 21 min
  189. Bit rate                                 : 20.3 kb/s
  190. Count of elements                        : 2310
  191. Stream size                              : 20.6 MiB (0%)
  192. Language                                 : Chinese
  193. Default                                  : No
  194. Forced                                   : No
  195. Original source medium                   : Blu-ray

  196. Text #8
  197. ID                                       : 12
  198. ID in the original source medium         : 4773 (0x12A5)
  199. Format                                   : PGS
  200. Muxing mode                              : zlib
  201. Codec ID                                 : S_HDMV/PGS
  202. Codec ID/Info                            : Picture based subtitle format used on BDs/HD-DVDs
  203. Duration                                 : 2 h 21 min
  204. Bit rate                                 : 19.8 kb/s
  205. Count of elements                        : 2454
  206. Stream size                              : 20.0 MiB (0%)
  207. Language                                 : Chinese
  208. Default                                  : No
  209. Forced                                   : No
  210. Original source medium                   : Blu-ray

  211. Text #9
  212. ID                                       : 13
  213. ID in the original source medium         : 4774 (0x12A6)
  214. Format                                   : PGS
  215. Muxing mode                              : zlib
  216. Codec ID                                 : S_HDMV/PGS
  217. Codec ID/Info                            : Picture based subtitle format used on BDs/HD-DVDs
  218. Duration                                 : 2 h 21 min
  219. Bit rate                                 : 12.1 kb/s
  220. Count of elements                        : 2418
  221. Stream size                              : 12.2 MiB (0%)
  222. Language                                 : Korean
  223. Default                                  : No
  224. Forced                                   : No
  225. Original source medium                   : Blu-ray

  226. Text #10
  227. ID                                       : 14
  228. ID in the original source medium         : 4775 (0x12A7)
  229. Format                                   : PGS
  230. Muxing mode                              : zlib
  231. Codec ID                                 : S_HDMV/PGS
  232. Codec ID/Info                            : Picture based subtitle format used on BDs/HD-DVDs
  233. Duration                                 : 2 h 21 min
  234. Bit rate                                 : 19.9 kb/s
  235. Count of elements                        : 2444
  236. Stream size                              : 20.2 MiB (0%)
  237. Language                                 : Spanish
  238. Default                                  : No
  239. Forced                                   : No
  240. Original source medium                   : Blu-ray

  241. Text #11
  242. ID                                       : 15
  243. ID in the original source medium         : 4776 (0x12A8)
  244. Format                                   : PGS
  245. Muxing mode                              : zlib
  246. Codec ID                                 : S_HDMV/PGS
  247. Codec ID/Info                            : Picture based subtitle format used on BDs/HD-DVDs
  248. Duration                                 : 2 h 21 min
  249. Bit rate                                 : 18.9 kb/s
  250. Count of elements                        : 2046
  251. Stream size                              : 19.1 MiB (0%)
  252. Language                                 : Danish
  253. Default                                  : No
  254. Forced                                   : No
  255. Original source medium                   : Blu-ray

  256. Text #12
  257. ID                                       : 16
  258. ID in the original source medium         : 4777 (0x12A9)
  259. Format                                   : PGS
  260. Muxing mode                              : zlib
  261. Codec ID                                 : S_HDMV/PGS
  262. Codec ID/Info                            : Picture based subtitle format used on BDs/HD-DVDs
  263. Duration                                 : 2 h 21 min
  264. Bit rate                                 : 19.0 kb/s
  265. Count of elements                        : 2472
  266. Stream size                              : 19.2 MiB (0%)
  267. Language                                 : Finnish
  268. Default                                  : No
  269. Forced                                   : No
  270. Original source medium                   : Blu-ray

  271. Text #13
  272. ID                                       : 17
  273. ID in the original source medium         : 4778 (0x12AA)
  274. Format                                   : PGS
  275. Muxing mode                              : zlib
  276. Codec ID                                 : S_HDMV/PGS
  277. Codec ID/Info                            : Picture based subtitle format used on BDs/HD-DVDs
  278. Duration                                 : 2 h 21 min
  279. Bit rate                                 : 19.0 kb/s
  280. Count of elements                        : 1948
  281. Stream size                              : 19.2 MiB (0%)
  282. Language                                 : Norwegian
  283. Default                                  : No
  284. Forced                                   : No
  285. Original source medium                   : Blu-ray

  286. Text #14
  287. ID                                       : 18
  288. ID in the original source medium         : 4779 (0x12AB)
  289. Format                                   : PGS
  290. Muxing mode                              : zlib
  291. Codec ID                                 : S_HDMV/PGS
  292. Codec ID/Info                            : Picture based subtitle format used on BDs/HD-DVDs
  293. Duration                                 : 2 h 21 min
  294. Bit rate                                 : 17.6 kb/s
  295. Count of elements                        : 1876
  296. Stream size                              : 17.8 MiB (0%)
  297. Language                                 : Swedish
  298. Default                                  : No
  299. Forced                                   : No
  300. Original source medium                   : Blu-ray

  301. Menu
  302. 00:00:00.000                             : en:Chapter 01
  303. 00:10:32.465                             : en:Chapter 02
  304. 00:21:47.597                             : en:Chapter 03
  305. 00:28:14.526                             : en:Chapter 04
  306. 00:37:49.600                             : en:Chapter 05
  307. 00:47:41.567                             : en:Chapter 06
  308. 01:00:03.141                             : en:Chapter 07
  309. 01:10:51.497                             : en:Chapter 08
  310. 01:18:50.600                             : en:Chapter 09
  311. 01:30:10.446                             : en:Chapter 10
  312. 01:39:50.234                             : en:Chapter 11
  313. 01:49:31.064                             : en:Chapter 12
  314. 01:56:51.087                             : en:Chapter 13
  315. 02:07:18.088                             : en:Chapter 14
  316. 02:13:17.990                             : en:Chapter 15
复制代码












                                       
                                       

                                       
                                       
                                       




奇异动物:邓布利多之谜 Fantastic.Beasts.The.Secrets.of.Dumbledore.2022.2160p.BluRay.x264.8bit.SDR.DTS-HD.MA.TrueHD.7.1.Atmos-SWTYBLZ 24.03GB

Fantastic.Beasts.The.Secrets.of.Dumbledore.2022.2160p.BluRay.x264.8bit.SDR.DTS-H.torrent

30.85 KB, 下载次数: 1

回复

使用道具 举报

懒得打字嘛,点击右侧快捷回复 【右侧内容,后台自定义】
您需要登录后才可以回帖 登录 | 立即注册

本版积分规则

Archiver|手机版|小黑屋| 中国高清网 |网站地图 

GMT+8, 2022-6-27 13:12 , Processed in 0.120043 second(s), 26 queries .

Powered by HDchina X3.4

Copyright 2017-2019©HDchina.All right reserved

返回顶部 联系我们