查看: 13|回复: 0

[喜剧片] 老友重聚 Gatlopp.2022.1080p.WEBRip.DD5.1.x264-NOGRP 3.93GB

[复制链接]
蓝光币
14 枚
发表于 6 天前 | 显示全部楼层 |阅读模式


◎标  题 老友重聚
◎片  名 Gatlopp
◎年  代 2022
◎产  地 美国
◎类  别 笑剧 / 可骇
◎语  言 英语
◎上映日期 2022-06-27(internet)
◎IMDb链接 https://www.imdb.com/title/tt11615616/
◎豆瓣链接 https://movie.douban.com/subject/35877949/
◎导  演  Alberto Belli
◎编  剧 吉姆·马奥尼 Jim Mahoney
◎演  员 吉姆·马奥尼 Jim Mahoney
       艾美·拉韦尔-兰普曼 Emmy Raver-Lampman
       乔恩·巴斯 Jon Bass
◎简  介

  A group of friends reunite for an evening after one of their own has a gnarly divorce. As it's been almost a decade since they were all together, waxing nostalgic, they decide to play a drinking game. But this is no ordinary game; if they don't bond together to confront their past, they'll be forced to play the game for eternity.
  1. Video
  2. ID                                       : 1
  3. Format                                   : AVC
  4. Format/Info                              : Advanced Video Codec
  5. Format profile                           : [email protected]
  6. Format settings                          : CABAC / 5 Ref Frames
  7. Format settings, CABAC                   : Yes
  8. Format settings, Reference frames        : 5 frames
  9. Codec ID                                 : V_MPEG4/ISO/AVC
  10. Duration                                 : 1 h 20 min
  11. Bit rate                                 : 6 603 kb/s
  12. Width                                    : 1 916 pixels
  13. Height                                   : 796 pixels
  14. Display aspect ratio                     : 2.40:1
  15. Frame rate mode                          : Constant
  16. Frame rate                               : 23.976 (24000/1001/189150) FPS
  17. Color space                              : YUV
  18. Chroma subsampling                       : 4:2:0
  19. Bit depth                                : 8 bits
  20. Scan type                                : Progressive
  21. Bits/(Pixel*Frame)                       : 0.181
  22. Stream size                              : 3.71 GiB (94%)
  23. Language                                 : English
  24. Default                                  : Yes
  25. Forced                                   : No
  26. Color range                              : Limited
  27. Color primaries                          : BT.709
  28. Transfer characteristics                 : BT.709
  29. Matrix coefficients                      : BT.709
  30. Audio
  31. ID                                       : 2
  32. Format                                   : AC-3
  33. Format/Info                              : Audio Coding 3
  34. Commercial name                          : Dolby Digital
  35. Codec ID                                 : A_AC3
  36. Duration                                 : 1 h 20 min
  37. Bit rate mode                            : Constant
  38. Bit rate                                 : 384 kb/s
  39. Channel(s)                               : 6 channels
  40. Channel layout                           : L R C LFE Ls Rs
  41. Sampling rate                            : 48.0 kHz
  42. Frame rate                               : 31.250 FPS (1536 SPF)
  43. Compression mode                         : Lossy
  44. Stream size                              : 221 MiB (5%)
  45. Language                                 : English
  46. Service kind                             : Complete Main
  47. Default                                  : Yes
  48. Forced                                   : No
  49. Text
  50. ID                                       : 3
  51. Format                                   : UTF-8
  52. Codec ID                                 : S_TEXT/UTF8
  53. Codec ID/Info                            : UTF-8 Plain Text
  54. Duration                                 : 1 h 13 min
  55. Bit rate                                 : 106 b/s
  56. Count of elements                        : 1998
  57. Stream size                              : 57.3 KiB (0%)
  58. Language                                 : English
  59. Default                                  : Yes
  60. Forced                                   : No
复制代码







                                       
                                       

                                       
                                       
                                       




Gatlopp.2022.1080p.WEBRip.DD5.1.x264-NOGRP.torrent (20.27 KB, 下载次数: 0)
回复

使用道具 举报

懒得打字嘛,点击右侧快捷回复 【右侧内容,后台自定义】
您需要登录后才可以回帖 登录 | 立即注册

本版积分规则

Archiver|手机版|小黑屋| 中国高清网 |网站地图 

GMT+8, 2022-6-29 14:29 , Processed in 0.083833 second(s), 26 queries .

Powered by HDchina X3.4

Copyright 2017-2019©HDchina.All right reserved

返回顶部 联系我们