查看: 9|回复: 0

[2160p] 小鬼闯巴黎 Rugrats.In.Paris.The.Movie.2000.2160p.AMZN.WEB-DL.x265.8bit.SDR.DTS-HD.MA.TrueHD.5.1-NOGRP 10.85GB

[复制链接]
蓝光币
14 枚
发表于 6 天前 | 显示全部楼层 |阅读模式


◎标  题 小鬼闯巴黎
◎译  名 罗格斯在巴黎 / 小调皮巴黎之旅 / 小鬼巴黎行 / 小混球巴黎历险记
◎片  名 Rugrats in Paris: The Movie
◎年  代 2000
◎产  地 美国 / 德国
◎类  别 笑剧 / 动画 / 家庭 / 冒险
◎语  言 英语
◎上映日期 2000-11-17
◎IMDb评分 6.1/10 (12513人评价)
◎IMDb链接 https://www.imdb.com/title/tt0213203/
◎豆瓣评分 6.8/10 (107人评价)
◎豆瓣链接 https://movie.douban.com/subject/1297701/
◎片  长 78 分钟
◎导  演 斯泰格·贝格基维斯特 Stig Bergqvist
       Paul Demeyer Paul Demeyer
◎编  剧 戴维·N·韦斯 David N. Weiss
       保罗·杰曼 Paul Germain
       Arlene Klasky Arlene Klasky
       嘉柏·丘波 Gabor Csupo
       J·大卫·斯提姆 J. David Stem
       Kate Boutilier Kate Boutilier
◎演  员 Paul Demeyer Paul Demeyer
       比利·维斯特 Billy West
       凯斯·索西 Kath Soucie
       约翰·利思戈 John Lithgow
       丹·卡斯泰兰尼塔 Dan Castellaneta
       水源士郎 Tohoru Masamune
       蒂姆·克里 Tim Curry
       特蕾丝·麦克尼尔 Tress MacNeille
       Shannon Stephens Shannon Stephens
       克里·萨莫 Cree Summer
       凯文·迈克尔·理查德森 Kevin Michael Richardson
       查尔斯·阿德勒 Charles Adler
       岩松信 Makoto Iwamatsu
       Casey Kasem Casey Kasem
       伊丽莎白·戴利 Elizabeth Daily
       苏珊·萨兰登 Susan Sarandon
       克里斯汀·凯文诺 Christine Cavanaugh
       乔·阿拉斯奇 Joe Alaskey
       迈克尔·贝尔 Michael Bell
       谢丽尔·蔡斯 Cheryl Chase
       梅拉妮·查托夫 Melanie Chartoff
       塔拉·斯特朗 Tara Strong
       Darrell Kunitomi Darrell Kunitomi
       Goh Misawa Goh Misawa
       菲尔·普洛克特 Phil Proctor
       杰克·雷利 Jack Riley
       黛比·雷诺斯 Debbie Reynolds
       诺顿·维基 Norton Virgien
       Eryk Casemiro Eryk Casemiro
       Arlene Klasky Arlene Klasky
       嘉柏·丘波 Gabor Csupo
       马克·马瑟斯鲍夫 Mark Mothersbaugh
       Barbara Wright Barbara Wright
       布兰登·克雷格 Brandon Craig
       比尔·克罗耶尔 Bill Kroyer
◎简  介

  查克想要一个新妈妈,他的爸爸查斯也起头约会。查克的好朋友汤米的父亲被派去巴黎一家新开的游乐园修理机械人,他把一帮小鬼:汤米、查克、迪利以及莉莲等都带在他的身旁。因而查克起头了一个巨大的冒险计划:给自己找一个新妈妈。                                    
                                小鬼们的巴黎之利用他们每小我都有很多别的的收获。查克熟悉到工作并非如设想得那样简单。而他的爸爸查斯也熟悉到,要找一个合适他的女人也是很是的不轻易。奇异而风趣的巴黎之利用这帮心爱的小鬼们学到了什么叫勇气、虔诚、信赖和真爱。
  1. Video
  2. ID                                       : 1
  3. Format                                   : HEVC
  4. Format/Info                              : High Efficiency Video Coding
  5. Format profile                           : [email protected]@Main
  6. Codec ID                                 : V_MPEGH/ISO/HEVC
  7. Duration                                 : 1 h 18 min
  8. Bit rate                                 : 14.8 Mb/s
  9. Width                                    : 3 840 pixels
  10. Height                                   : 2 080 pixels
  11. Display aspect ratio                     : 1.85:1
  12. Frame rate mode                          : Constant
  13. Frame rate                               : 23.976 (24000/1001/189150) FPS
  14. Standard                                 : NTSC
  15. Color space                              : YUV
  16. Chroma subsampling                       : 4:2:0
  17. Bit depth                                : 8 bits
  18. Bits/(Pixel*Frame)                       : 0.078
  19. Stream size                              : 8.15 GiB (75%)
  20. Writing library                          : x265 2.9_elemental9e0607aa5b6f:[Linux][GCC 4.8.5][64 bit] 8bit+10bit+12bit
  21. Encoding settings                        : cpuid=1111039 / frame-threads=2 / wpp / no-pmode / no-pme / psnr / ssim / log-level=2 / csv / csv-log-level=2 / input-csp=1 / input-res=3840x2080 / interlace=0 / total-frames=0 / level-idc=50 / high-tier=1 / uhd-bd=0 / ref=5 / no-allow-non-conformance / no-repeat-headers / annexb / no-aud / no-hrd / info / hash=0 / no-temporal-layers / no-open-gop / min-keyint=61 / keyint=120 / gop-lookahead=0 / bframes=8 / b-adapt=2 / b-pyramid / bframe-bias=0 / rc-lookahead=120 / lookahead-slices=4 / scenecut=0 / radl=0 / no-intra-refresh / ctu=64 / min-cu-size=8 / rect / amp / max-tu-size=32 / tu-inter-depth=4 / tu-intra-depth=4 / limit-tu=4 / rdoq-level=2 / dynamic-rd=0.00 / no-ssim-rd / signhide / tskip / nr-intra=100 / nr-inter=600 / no-constrained-intra / strong-intra-smoothing / max-merge=3 / limit-refs=3 / limit-modes / me=3 / subme=3 / merange=57 / temporal-mvp / weightp / weightb / no-analyze-src-pics / deblock=0:0 / no-sao / no-sao-non-deblock / rd=4 / no-early-skip / no-rskip / no-fast-intra / tskip-fast / no-cu-lossless / b-intra / no-splitrd-skip / rdpenalty=0 / psy-rd=4.00 / psy-rdoq=10.00 / no-rd-refine / no-lossless / cbqpoffs=0 / crqpoffs=0 / rc=crf / crf=25.0 / qcomp=0.60 / qpstep=1 / stats-write=0 / stats-read=0 / vbv-maxrate=15000 / vbv-bufsize=20000 / vbv-init=0.9 / crf-max=0.0 / crf-min=0.0 / ipratio=1.10 / pbratio=1.00 / aq-mode=0 / aq-strength=1.50 / no-cutree / zone-count=0 / no-strict-cbr / qg-size=32 / rc-grain / qpmax=69 / qpmin=0 / const-vbv / sar=255 / sar-width / : / sar-height=481:480 / overscan=0 / videoformat=2 / range=0 / colorprim=1 / transfer=1 / colormatrix=1 / chromaloc=0 / display-window=0 / max-cll=0,0 / min-luma=0 / max-luma=255 / log2-max-poc-lsb=8 / vui-timing-info / vui-hrd-info / slices=1 / opt-qp-pps / no-opt-ref-list-length-pps / no-multi-pass-opt-rps / scenecut-bias=0.05 / no-opt-cu-delta-qp / no-aq-motion / no-hdr / no-hdr-opt / no-dhdr10-opt / no-idr-recovery-sei / analysis-reuse-level=5 / scale-factor=0 / refine-intra=0 / refine-inter=0 / refine-mv=0 / no-limit-sao / ctu-info=0 / no-lowpass-dct / refine-mv-type=0 / copy-pic=1 / max-ausize-factor=1.0 / no-dynamic-refine / no-single-sei
  22. Language                                 : English
  23. Default                                  : Yes
  24. Forced                                   : No
  25. Color range                              : Limited
  26. Color primaries                          : BT.709
  27. Transfer characteristics                 : BT.709
  28. Matrix coefficients                      : BT.709
  29. Audio #1
  30. ID                                       : 2
  31. Format                                   : MLP FBA
  32. Format/Info                              : Meridian Lossless Packing FBA
  33. Commercial name                          : Dolby TrueHD
  34. Codec ID                                 : A_TRUEHD
  35. Duration                                 : 1 h 18 min
  36. Bit rate mode                            : Variable
  37. Bit rate                                 : 1 377 kb/s
  38. Maximum bit rate                         : 3 477 kb/s
  39. Channel(s)                               : 6 channels
  40. Channel layout                           : L R C LFE Ls Rs
  41. Sampling rate                            : 48.0 kHz
  42. Frame rate                               : 1 200.000 FPS (40 SPF)
  43. Compression mode                         : Lossless
  44. Stream size                              : 774 MiB (7%)
  45. Title                                    : Dolby TrueHD Audio / 5.1 / 48 kHz / 1377 kbps / 24-bit
  46. Language                                 : English
  47. Default                                  : Yes
  48. Forced                                   : No
  49. Audio #2
  50. ID                                       : 3
  51. Format                                   : DTS XLL
  52. Format/Info                              : Digital Theater Systems
  53. Commercial name                          : DTS-HD Master Audio
  54. Codec ID                                 : A_DTS
  55. Duration                                 : 1 h 18 min
  56. Bit rate mode                            : Variable
  57. Bit rate                                 : 2 834 kb/s
  58. Channel(s)                               : 6 channels
  59. Channel layout                           : C L R Ls Rs LFE
  60. Sampling rate                            : 48.0 kHz
  61. Frame rate                               : 93.750 FPS (512 SPF)
  62. Bit depth                                : 24 bits
  63. Compression mode                         : Lossless
  64. Stream size                              : 1.56 GiB (14%)
  65. Title                                    : DTS-HD MA 5.1
  66. Language                                 : English
  67. Default                                  : No
  68. Forced                                   : No
  69. Audio #3
  70. ID                                       : 4
  71. Format                                   : AC-3
  72. Format/Info                              : Audio Coding 3
  73. Commercial name                          : Dolby Digital
  74. Codec ID                                 : A_AC3
  75. Duration                                 : 1 h 18 min
  76. Bit rate mode                            : Constant
  77. Bit rate                                 : 640 kb/s
  78. Channel(s)                               : 6 channels
  79. Channel layout                           : L R C LFE Ls Rs
  80. Sampling rate                            : 48.0 kHz
  81. Frame rate                               : 31.250 FPS (1536 SPF)
  82. Compression mode                         : Lossy
  83. Stream size                              : 360 MiB (3%)
  84. Title                                    : Compatibility Track / Dolby Digital Audio / 5.1 / 48 kHz / 640 kbps
  85. Language                                 : English
  86. Service kind                             : Complete Main
  87. Default                                  : Yes
  88. Forced                                   : No
  89. Text #1
  90. ID                                       : 5
  91. Format                                   : UTF-8
  92. Codec ID                                 : S_TEXT/UTF8
  93. Codec ID/Info                            : UTF-8 Plain Text
  94. Duration                                 : 1 h 17 min
  95. Bit rate                                 : 69 b/s
  96. Count of elements                        : 1110
  97. Stream size                              : 39.2 KiB (0%)
  98. Language                                 : English
  99. Default                                  : Yes
  100. Forced                                   : No
  101. Text #2
  102. ID                                       : 6
  103. Format                                   : UTF-8
  104. Codec ID                                 : S_TEXT/UTF8
  105. Codec ID/Info                            : UTF-8 Plain Text
  106. Duration                                 : 1 h 17 min
  107. Bit rate                                 : 76 b/s
  108. Count of elements                        : 1272
  109. Stream size                              : 43.1 KiB (0%)
  110. Title                                    : SDH
  111. Language                                 : English
  112. Default                                  : No
  113. Forced                                   : No
  114. Text #3
  115. ID                                       : 7
  116. Format                                   : UTF-8
  117. Codec ID                                 : S_TEXT/UTF8
  118. Codec ID/Info                            : UTF-8 Plain Text
  119. Duration                                 : 1 h 11 min
  120. Bit rate                                 : 86 b/s
  121. Count of elements                        : 714
  122. Stream size                              : 45.2 KiB (0%)
  123. Language                                 : Bulgarian
  124. Default                                  : No
  125. Forced                                   : No
  126. Text #4
  127. ID                                       : 8
  128. Format                                   : UTF-8
  129. Codec ID                                 : S_TEXT/UTF8
  130. Codec ID/Info                            : UTF-8 Plain Text
  131. Duration                                 : 1 h 11 min
  132. Bit rate                                 : 53 b/s
  133. Count of elements                        : 798
  134. Stream size                              : 28.3 KiB (0%)
  135. Language                                 : Czech
  136. Default                                  : No
  137. Forced                                   : No
  138. Text #5
  139. ID                                       : 9
  140. Format                                   : UTF-8
  141. Codec ID                                 : S_TEXT/UTF8
  142. Codec ID/Info                            : UTF-8 Plain Text
  143. Duration                                 : 1 h 11 min
  144. Bit rate                                 : 55 b/s
  145. Count of elements                        : 796
  146. Stream size                              : 29.4 KiB (0%)
  147. Language                                 : Danish
  148. Default                                  : No
  149. Forced                                   : No
  150. Text #6
  151. ID                                       : 10
  152. Format                                   : UTF-8
  153. Codec ID                                 : S_TEXT/UTF8
  154. Codec ID/Info                            : UTF-8 Plain Text
  155. Duration                                 : 1 h 11 min
  156. Bit rate                                 : 54 b/s
  157. Count of elements                        : 765
  158. Stream size                              : 28.4 KiB (0%)
  159. Language                                 : Dutch
  160. Default                                  : No
  161. Forced                                   : No
  162. Text #7
  163. ID                                       : 11
  164. Format                                   : UTF-8
  165. Codec ID                                 : S_TEXT/UTF8
  166. Codec ID/Info                            : UTF-8 Plain Text
  167. Duration                                 : 1 h 11 min
  168. Bit rate                                 : 55 b/s
  169. Count of elements                        : 787
  170. Stream size                              : 29.0 KiB (0%)
  171. Language                                 : Finnish
  172. Default                                  : No
  173. Forced                                   : No
  174. Text #8
  175. ID                                       : 12
  176. Format                                   : UTF-8
  177. Codec ID                                 : S_TEXT/UTF8
  178. Codec ID/Info                            : UTF-8 Plain Text
  179. Duration                                 : 1 h 11 min
  180. Bit rate                                 : 58 b/s
  181. Count of elements                        : 815
  182. Stream size                              : 30.8 KiB (0%)
  183. Language                                 : French
  184. Default                                  : No
  185. Forced                                   : No
  186. Text #9
  187. ID                                       : 13
  188. Format                                   : UTF-8
  189. Codec ID                                 : S_TEXT/UTF8
  190. Codec ID/Info                            : UTF-8 Plain Text
  191. Duration                                 : 1 h 11 min
  192. Bit rate                                 : 54 b/s
  193. Count of elements                        : 798
  194. Stream size                              : 28.7 KiB (0%)
  195. Language                                 : Hebrew
  196. Default                                  : No
  197. Forced                                   : No
  198. Text #10
  199. ID                                       : 14
  200. Format                                   : UTF-8
  201. Codec ID                                 : S_TEXT/UTF8
  202. Codec ID/Info                            : UTF-8 Plain Text
  203. Duration                                 : 1 h 17 min
  204. Bit rate                                 : 145 b/s
  205. Count of elements                        : 804
  206. Stream size                              : 82.4 KiB (0%)
  207. Language                                 : Hindi
  208. Default                                  : No
  209. Forced                                   : No
  210. Text #11
  211. ID                                       : 15
  212. Format                                   : UTF-8
  213. Codec ID                                 : S_TEXT/UTF8
  214. Codec ID/Info                            : UTF-8 Plain Text
  215. Duration                                 : 1 h 11 min
  216. Bit rate                                 : 57 b/s
  217. Count of elements                        : 797
  218. Stream size                              : 30.0 KiB (0%)
  219. Language                                 : Norwegian Bokmal
  220. Default                                  : No
  221. Forced                                   : No
  222. Text #12
  223. ID                                       : 16
  224. Format                                   : UTF-8
  225. Codec ID                                 : S_TEXT/UTF8
  226. Codec ID/Info                            : UTF-8 Plain Text
  227. Duration                                 : 1 h 11 min
  228. Bit rate                                 : 57 b/s
  229. Count of elements                        : 797
  230. Stream size                              : 30.4 KiB (0%)
  231. Language                                 : Polish
  232. Default                                  : No
  233. Forced                                   : No
  234. Text #13
  235. ID                                       : 17
  236. Format                                   : UTF-8
  237. Codec ID                                 : S_TEXT/UTF8
  238. Codec ID/Info                            : UTF-8 Plain Text
  239. Duration                                 : 1 h 12 min
  240. Bit rate                                 : 59 b/s
  241. Count of elements                        : 799
  242. Stream size                              : 31.2 KiB (0%)
  243. Language                                 : Portuguese
  244. Default                                  : No
  245. Forced                                   : No
  246. Text #14
  247. ID                                       : 18
  248. Format                                   : UTF-8
  249. Codec ID                                 : S_TEXT/UTF8
  250. Codec ID/Info                            : UTF-8 Plain Text
  251. Duration                                 : 1 h 11 min
  252. Bit rate                                 : 61 b/s
  253. Count of elements                        : 807
  254. Stream size                              : 32.6 KiB (0%)
  255. Title                                    : Brazilian
  256. Language                                 : Portuguese
  257. Default                                  : No
  258. Forced                                   : No
  259. Text #15
  260. ID                                       : 19
  261. Format                                   : UTF-8
  262. Codec ID                                 : S_TEXT/UTF8
  263. Codec ID/Info                            : UTF-8 Plain Text
  264. Duration                                 : 1 h 11 min
  265. Bit rate                                 : 103 b/s
  266. Count of elements                        : 908
  267. Stream size                              : 54.4 KiB (0%)
  268. Language                                 : Russian
  269. Default                                  : No
  270. Forced                                   : No
  271. Text #16
  272. ID                                       : 20
  273. Format                                   : UTF-8
  274. Codec ID                                 : S_TEXT/UTF8
  275. Codec ID/Info                            : UTF-8 Plain Text
  276. Duration                                 : 1 h 11 min
  277. Bit rate                                 : 51 b/s
  278. Count of elements                        : 797
  279. Stream size                              : 27.2 KiB (0%)
  280. Language                                 : Slovenian
  281. Default                                  : No
  282. Forced                                   : No
  283. Text #17
  284. ID                                       : 21
  285. Format                                   : UTF-8
  286. Codec ID                                 : S_TEXT/UTF8
  287. Codec ID/Info                            : UTF-8 Plain Text
  288. Duration                                 : 1 h 12 min
  289. Bit rate                                 : 58 b/s
  290. Count of elements                        : 799
  291. Stream size                              : 30.9 KiB (0%)
  292. Title                                    : European
  293. Language                                 : Spanish
  294. Default                                  : No
  295. Forced                                   : No
  296. Text #18
  297. ID                                       : 22
  298. Format                                   : UTF-8
  299. Codec ID                                 : S_TEXT/UTF8
  300. Codec ID/Info                            : UTF-8 Plain Text
  301. Duration                                 : 1 h 12 min
  302. Bit rate                                 : 62 b/s
  303. Count of elements                        : 809
  304. Stream size                              : 32.9 KiB (0%)
  305. Title                                    : Latin American
  306. Language                                 : Spanish
  307. Default                                  : No
  308. Forced                                   : No
  309. Text #19
  310. ID                                       : 23
  311. Format                                   : UTF-8
  312. Codec ID                                 : S_TEXT/UTF8
  313. Codec ID/Info                            : UTF-8 Plain Text
  314. Duration                                 : 1 h 11 min
  315. Bit rate                                 : 57 b/s
  316. Count of elements                        : 783
  317. Stream size                              : 30.3 KiB (0%)
  318. Language                                 : Swedish
  319. Default                                  : No
  320. Forced                                   : No
  321. Text #20
  322. ID                                       : 24
  323. Format                                   : UTF-8
  324. Codec ID                                 : S_TEXT/UTF8
  325. Codec ID/Info                            : UTF-8 Plain Text
  326. Duration                                 : 1 h 11 min
  327. Bit rate                                 : 147 b/s
  328. Count of elements                        : 807
  329. Stream size                              : 77.8 KiB (0%)
  330. Language                                 : Thai
  331. Default                                  : No
  332. Forced                                   : No
  333. Text #21
  334. ID                                       : 25
  335. Format                                   : UTF-8
  336. Codec ID                                 : S_TEXT/UTF8
  337. Codec ID/Info                            : UTF-8 Plain Text
  338. Duration                                 : 1 h 11 min
  339. Bit rate                                 : 60 b/s
  340. Count of elements                        : 797
  341. Stream size                              : 31.9 KiB (0%)
  342. Language                                 : Turkish
  343. Default                                  : No
  344. Forced                                   : No
  345. Text #22
  346. ID                                       : 26
  347. Format                                   : UTF-8
  348. Codec ID                                 : S_TEXT/UTF8
  349. Codec ID/Info                            : UTF-8 Plain Text
  350. Duration                                 : 1 h 11 min
  351. Bit rate                                 : 47 b/s
  352. Count of elements                        : 798
  353. Stream size                              : 24.7 KiB (0%)
  354. Title                                    : Traditional
  355. Language                                 : Chinese
  356. Default                                  : No
  357. Forced                                   : No
  358. Text #23
  359. ID                                       : 27
  360. Format                                   : UTF-8
  361. Codec ID                                 : S_TEXT/UTF8
  362. Codec ID/Info                            : UTF-8 Plain Text
  363. Duration                                 : 1 h 12 min
  364. Bit rate                                 : 44 b/s
  365. Count of elements                        : 800
  366. Stream size                              : 23.3 KiB (0%)
  367. Title                                    : Yue
  368. Language                                 : Chinese
  369. Default                                  : No
  370. Forced                                   : No
  371. Menu
  372. 00:00:00.000                             : en:The Bobfather
  373. 00:07:35.329                             : en:A New Mommy
  374. 00:17:27.880                             : en:EuroReptarland
  375. 00:25:17.933                             : en:Princess Parade
  376. 00:30:43.883                             : en:Ooey Gooey World
  377. 00:39:05.009                             : en:Chuckie Chan
  378. 00:47:02.486                             : en:Mommy Princess
  379. 00:53:35.879                             : en:Angelica Confesses
  380. 00:59:11.381                             : en:Reptar vs. RoboSnail
  381. 01:08:28.979                             : en:Chas Get Married
  382. 01:13:01.251                             : en:Credits
复制代码






                                       
                                       

                                       
                                       
                                       




小鬼闯巴黎 Rugrats.In.Paris.The.Movie.2000.2160p.AMZN.WEB-DL.x265.8bit.SDR.DTS-HD.MA.TrueHD.5.1-NOGRP 10.85GB

Rugrats.In.Paris.The.Movie.2000.2160p.AMZN.WEB-DL.x265.8bit.SDR.DTS-HD.MA.TrueHD.torrent

14.27 KB, 下载次数: 0

回复

使用道具 举报

懒得打字嘛,点击右侧快捷回复 【右侧内容,后台自定义】
您需要登录后才可以回帖 登录 | 立即注册

本版积分规则

Archiver|手机版|小黑屋| 中国高清网 |网站地图 

GMT+8, 2022-6-29 14:09 , Processed in 0.127111 second(s), 26 queries .

Powered by HDchina X3.4

Copyright 2017-2019©HDchina.All right reserved

返回顶部 联系我们