查看: 10|回复: 0

[2160p] 青少年 Young.Adult.2011.2160p.AMZN.WEB-DL.x265.10bit.HDR10Plus.DTS-HD.MA.5.1-NOGRP 12.39GB

[复制链接]
蓝光币
14 枚
发表于 6 天前 | 显示全部楼层 |阅读模式


◎标  题 青少年
◎译  名 中女翻叮日志(港) / 半熟男女(台) / 装嫩 / 老小孩 / 脱线女王
◎片  名 Young Adult
◎年  代 2011
◎产  地 美国
◎类  别 剧情 / 笑剧
◎语  言 英语
◎上映日期 2011-12-09(美国)
◎IMDb评分 6.3/10 (82833人评价)
◎IMDb链接 https://www.imdb.com/title/tt1625346/
◎豆瓣评分 6.8/10 (13014人评价)
◎豆瓣链接 https://movie.douban.com/subject/4728881/
◎片  长 94分钟
◎导  演 贾森·雷特曼 Jason Reitman
◎编  剧 迪亚波罗·科蒂 Diablo Cody
◎演  员 查理兹·塞隆 Charlize Theron
       帕特里克·威尔森 Patrick Wilson
       科莱特·沃夫 Collette Wolfe
       伊莉莎白·里瑟 Elizabeth Reaser
       路易莎·克劳瑟 Louisa Krause
       帕顿·奥斯瓦尔特 Patton Oswalt
       J·K·西蒙斯 J.K. Simmons
       艾米丽·梅德 Emily Meade
       海缇安·朴 Hettienne Park
       怀特·道尔 Rightor Doyle
◎标  签 美国 / 剧情 / 长大 / 笑剧 / 女性 / 青春 / Charlize_Theron / 人生
◎简  介

    虽然自己并不认可,但麦维斯(查理兹·塞隆 Charlize Theron 饰)就是一个标标准准的大龄剩女。她独居,没有朋友,吃渣滓食品,写渣滓小说,更可悲的是,她的小说卖的并欠好。某一天,她收到了喜当爹的前男友巴迪(帕特里克·威尔森 Patrick Wilson 饰)的邮件,却毛病的以为这是巴迪发给她的求偶信号。麦维斯奋发不已,决议改头换面,重返门生时代住过的水星镇,拯救她深陷婚姻漩涡的前男友。                                                                      在水星镇,她碰见了已经嘲笑过的胖子马特(帕顿·奥斯瓦尔特 Patton Oswalt 饰),马特让她赶紧撤销挖墙脚的动机,由于巴迪的生活实在很是幸运完竣,他的妻子也是一个很是有魅力的家庭妇女。麦维斯固然不相信,无法现实狠狠的甩了她一个耳光,在昔日同学眼前出尽了洋相的麦维斯蓦地觉悟,巴迪欢畅的生活让她布满妒忌,但自己的生活又未尝不是他人眼中“最好的生活”。一夜之间,麦维斯终究从一个“青少年”酿成了一个实在的“成年人”。
  1. Video
  2. ID                                       : 1
  3. Format                                   : HEVC
  4. Format/Info                              : High Efficiency Video Coding
  5. Format profile                           : Main [email protected]@Main
  6. HDR format                               : SMPTE ST 2094 App 4, Version 1, HDR10+ Profile B compatible
  7. Codec ID                                 : V_MPEGH/ISO/HEVC
  8. Duration                                 : 1 h 33 min
  9. Bit rate                                 : 14.9 Mb/s
  10. Width                                    : 3 840 pixels
  11. Height                                   : 2 080 pixels
  12. Display aspect ratio                     : 1.85:1
  13. Frame rate mode                          : Constant
  14. Frame rate                               : 23.976 (24000/1001/189150) FPS
  15. Color space                              : YUV
  16. Chroma subsampling                       : 4:2:0
  17. Bit depth                                : 10 bits
  18. Bits/(Pixel*Frame)                       : 0.078
  19. Stream size                              : 9.75 GiB (79%)
  20. Language                                 : English
  21. Default                                  : Yes
  22. Forced                                   : No
  23. Color range                              : Limited
  24. Color primaries                          : BT.2020
  25. Transfer characteristics                 : PQ
  26. Matrix coefficients                      : BT.2020 non-constant
  27. Mastering display color primaries        : Display P3
  28. Mastering display luminance              : min: 0.0001 cd/m2, max: 1000 cd/m2
  29. Maximum Content Light Level              : 865 cd/m2
  30. Maximum Frame-Average Light Level        : 99 cd/m2

  31. Audio #1
  32. ID                                       : 2
  33. Format                                   : DTS XLL
  34. Format/Info                              : Digital Theater Systems
  35. Commercial name                          : DTS-HD Master Audio
  36. Codec ID                                 : A_DTS
  37. Duration                                 : 1 h 33 min
  38. Bit rate mode                            : Variable
  39. Bit rate                                 : 3 322 kb/s
  40. Channel(s)                               : 6 channels
  41. Channel layout                           : C L R Ls Rs LFE
  42. Sampling rate                            : 48.0 kHz
  43. Frame rate                               : 93.750 FPS (512 SPF)
  44. Bit depth                                : 24 bits
  45. Compression mode                         : Lossless
  46. Stream size                              : 2.17 GiB (18%)
  47. Title                                    : DTS-HD Master Audio / English / 5.1 / 48 kHz / 3322 kbps / 24-bit
  48. Language                                 : English
  49. Default                                  : Yes
  50. Forced                                   : No

  51. Audio #2
  52. ID                                       : 3
  53. Format                                   : E-AC-3
  54. Format/Info                              : Enhanced AC-3
  55. Commercial name                          : Dolby Digital Plus
  56. Codec ID                                 : A_EAC3
  57. Duration                                 : 1 h 33 min
  58. Bit rate mode                            : Constant
  59. Bit rate                                 : 640 kb/s
  60. Channel(s)                               : 6 channels
  61. Channel layout                           : L R C LFE Ls Rs
  62. Sampling rate                            : 48.0 kHz
  63. Frame rate                               : 31.250 FPS (1536 SPF)
  64. Compression mode                         : Lossy
  65. Stream size                              : 429 MiB (3%)
  66. Language                                 : English
  67. Service kind                             : Complete Main
  68. Default                                  : No
  69. Forced                                   : No

  70. Text #1
  71. ID                                       : 4
  72. Format                                   : UTF-8
  73. Codec ID                                 : S_TEXT/UTF8
  74. Codec ID/Info                            : UTF-8 Plain Text
  75. Duration                                 : 1 h 30 min
  76. Bit rate                                 : 66 b/s
  77. Count of elements                        : 1464
  78. Stream size                              : 43.9 KiB (0%)
  79. Title                                    : SDH
  80. Language                                 : English
  81. Default                                  : Yes
  82. Forced                                   : No

  83. Text #2
  84. ID                                       : 5
  85. Format                                   : PGS
  86. Muxing mode                              : zlib
  87. Codec ID                                 : S_HDMV/PGS
  88. Codec ID/Info                            : Picture based subtitle format used on BDs/HD-DVDs
  89. Duration                                 : 1 h 28 min
  90. Bit rate                                 : 49.2 kb/s
  91. Count of elements                        : 2196
  92. Stream size                              : 31.0 MiB (0%)
  93. Language                                 : English
  94. Default                                  : No
  95. Forced                                   : No

  96. Text #3
  97. ID                                       : 6
  98. Format                                   : PGS
  99. Muxing mode                              : zlib
  100. Codec ID                                 : S_HDMV/PGS
  101. Codec ID/Info                            : Picture based subtitle format used on BDs/HD-DVDs
  102. Duration                                 : 1 h 28 min
  103. Bit rate                                 : 53.1 kb/s
  104. Count of elements                        : 2390
  105. Stream size                              : 33.6 MiB (0%)
  106. Title                                    : SDH
  107. Language                                 : English
  108. Default                                  : No
  109. Forced                                   : No

  110. Text #4
  111. ID                                       : 7
  112. Format                                   : PGS
  113. Muxing mode                              : zlib
  114. Codec ID                                 : S_HDMV/PGS
  115. Codec ID/Info                            : Picture based subtitle format used on BDs/HD-DVDs
  116. Duration                                 : 1 h 28 min
  117. Bit rate                                 : 44.6 kb/s
  118. Count of elements                        : 2094
  119. Stream size                              : 28.1 MiB (0%)
  120. Language                                 : Spanish
  121. Default                                  : No
  122. Forced                                   : No

  123. Text #5
  124. ID                                       : 8
  125. Format                                   : PGS
  126. Muxing mode                              : zlib
  127. Codec ID                                 : S_HDMV/PGS
  128. Codec ID/Info                            : Picture based subtitle format used on BDs/HD-DVDs
  129. Duration                                 : 1 h 28 min
  130. Bit rate                                 : 38.8 kb/s
  131. Count of elements                        : 1998
  132. Stream size                              : 24.5 MiB (0%)
  133. Language                                 : French
  134. Default                                  : No
  135. Forced                                   : No

  136. Text #6
  137. ID                                       : 9
  138. Format                                   : PGS
  139. Muxing mode                              : zlib
  140. Codec ID                                 : S_HDMV/PGS
  141. Codec ID/Info                            : Picture based subtitle format used on BDs/HD-DVDs
  142. Duration                                 : 1 h 28 min
  143. Bit rate                                 : 50.6 kb/s
  144. Count of elements                        : 2172
  145. Stream size                              : 31.9 MiB (0%)
  146. Language                                 : Portuguese
  147. Default                                  : No
  148. Forced                                   : No

  149. Menu
  150. 00:00:00.000                             : en:00:00:00.000
  151. 00:06:12.664                             : en:00:06:12.664
  152. 00:11:11.462                             : en:00:11:11.462
  153. 00:16:49.967                             : en:00:16:49.967
  154. 00:24:26.590                             : en:00:24:26.590
  155. 00:32:13.098                             : en:00:32:13.098
  156. 00:39:00.838                             : en:00:39:00.838
  157. 00:42:41.934                             : en:00:42:41.934
  158. 00:50:00.080                             : en:00:50:00.080
  159. 00:55:23.862                             : en:00:55:23.862
  160. 01:01:39.571                             : en:01:01:39.571
  161. 01:06:43.791                             : en:01:06:43.791
  162. 01:12:09.742                             : en:01:12:09.742
  163. 01:16:24.330                             : en:01:16:24.330
  164. 01:21:42.314                             : en:01:21:42.314
  165. 01:26:35.857                             : en:01:26:35.857
  166. 01:28:50.325                             : en:01:28:50.325
复制代码




                                       
                                       

                                       
                                       
                                       




Young.Adult.2011.2160p.AMZN.WEB-DL.x265.10bit.HDR10Plus.DTS-HD.MA.5.1-NOGRP.torrent (16.15 KB, 下载次数: 0)
回复

使用道具 举报

懒得打字嘛,点击右侧快捷回复 【右侧内容,后台自定义】
您需要登录后才可以回帖 登录 | 立即注册

本版积分规则

Archiver|手机版|小黑屋| 中国高清网 |网站地图 

GMT+8, 2022-6-29 15:49 , Processed in 0.102717 second(s), 26 queries .

Powered by HDchina X3.4

Copyright 2017-2019©HDchina.All right reserved

返回顶部 联系我们