查看: 13|回复: 0

[2160p] 维多利亚与阿卜杜勒 Victoria.and.Abdul.2017.2160p.AMZN.WEB-DL.x265.10bit.HDR10Plus.DTS-HD.MA.5.1-NOGRP 14.41GB

[复制链接]
蓝光币
14 枚
发表于 6 天前 | 显示全部楼层 |阅读模式


◎标  题 维多利亚与阿卜杜勒
◎译  名 女王与知己(台) / 维多利亚女王:日不落奇缘(港)
◎片  名 Victoria and Abdul
◎年  代 2017
◎产  地 英国 / 美国
◎类  别 剧情 / 列传 / 历史
◎语  言 英语 / 乌尔都语 / 印地语
◎上映日期 2017-09-03(威尼斯电影节) / 2017-09-15(英国) / 2017-10-06(美国)
◎IMDb评分 6.8/10 (34519人评价)
◎IMDb链接 https://www.imdb.com/title/tt5816682/
◎豆瓣评分 6.4/10 (2744人评价)
◎豆瓣链接 https://movie.douban.com/subject/26820546/
◎片  长 112分钟
◎导  演 斯蒂芬·弗雷斯 Stephen Frears
◎编  剧 李·哈尔 Lee Hall
       莎芭妮·巴苏 Shrabani Basu
◎演  员 朱迪·丹奇 Judi Dench
       阿里·法扎勒 Ali Fazal
       蒂姆·皮戈特-史姑娘 Tim Pigott-Smith
       艾迪·伊扎德 Eddie Izzard
       阿迪勒·阿赫塔尔 Adeel Akhtar
       迈克尔·刚本 Michael Gambon
       保罗·希金斯 Paul Higgins
       奥莉维亚·威廉姆斯 Olivia Williams
       费奈拉·伍尔加 Fenella Woolgar
       朱利安·沃德姆 Julian Wadham
       罗宾·索恩斯 Robin Soans
       鲁斯·麦克卡比 Ruth McCabe
       西蒙·卡洛 Simon Callow
       苏可·欧拉 Sukh Ojla
       柯马尔·迪恩-埃利斯 Kemaal Deen-Ellis
       乔纳森·哈登 Jonathan Harden
       克里斯托弗·麦克马伦 Christopher McMullen
       迪诺·布加迪 Deano Bugatti
       蒂姆·迈克穆兰 Tim McMullan
◎标  签 英国 / 列传 / 历史 / 2017 / 印度 / 剧情 / 女王 / 英国王室
◎简  介

    维多利亚女王(朱迪·丹奇 Judi Dench 饰)早已经记不清自己坐上这王位已经多久了,没有即位之前的日子对于她来说恍如是上辈子的记忆。充溢着繁文缛节的宫庭生活让维多利亚女王倍感疲惫,行将到来的,庆贺女王即位五十周年的庆典亦令这位老太太感应梗塞。                                                                      在庆典中,维多利亚女王意外的相逢了一位名为阿卜杜勒(阿里·法扎尔 Ali Fazal 饰)的男仆,这位布满了活力的年轻男人带给女王一种脸孔一新的感受。阿卜杜勒本是一位普通的上班族,特地为了加入庆典从印度飞往英国。阿卜杜勒的存在让女王意想到,本来在她的宫庭之外,居然还存在着一个她不曾设想过的丰富多彩的新天下。
  1. Video
  2. ID                                       : 1
  3. Format                                   : HEVC
  4. Format/Info                              : High Efficiency Video Coding
  5. Format profile                           : Main [email protected]@Main
  6. HDR format                               : SMPTE ST 2094 App 4, Version 1, HDR10+ Profile B compatible
  7. Codec ID                                 : V_MPEGH/ISO/HEVC
  8. Duration                                 : 1 h 51 min
  9. Bit rate                                 : 14.6 Mb/s
  10. Width                                    : 3 840 pixels
  11. Height                                   : 1 600 pixels
  12. Display aspect ratio                     : 2.40:1
  13. Frame rate mode                          : Constant
  14. Frame rate                               : 23.976 (24000/1001/189150) FPS
  15. Color space                              : YUV
  16. Chroma subsampling                       : 4:2:0
  17. Bit depth                                : 10 bits
  18. Bits/(Pixel*Frame)                       : 0.099
  19. Stream size                              : 11.3 GiB (79%)
  20. Language                                 : English
  21. Default                                  : Yes
  22. Forced                                   : No
  23. Color range                              : Limited
  24. Color primaries                          : BT.2020
  25. Transfer characteristics                 : PQ
  26. Matrix coefficients                      : BT.2020 non-constant
  27. Mastering display color primaries        : Display P3
  28. Mastering display luminance              : min: 0.0050 cd/m2, max: 1000 cd/m2
  29. Maximum Content Light Level              : 655 cd/m2
  30. Maximum Frame-Average Light Level        : 224 cd/m2

  31. Audio #1
  32. ID                                       : 2
  33. Format                                   : DTS XLL
  34. Format/Info                              : Digital Theater Systems
  35. Commercial name                          : DTS-HD Master Audio
  36. Codec ID                                 : A_DTS
  37. Duration                                 : 1 h 51 min
  38. Bit rate mode                            : Variable
  39. Bit rate                                 : 3 317 kb/s
  40. Channel(s)                               : 6 channels
  41. Channel layout                           : C L R Ls Rs LFE
  42. Sampling rate                            : 48.0 kHz
  43. Frame rate                               : 93.750 FPS (512 SPF)
  44. Bit depth                                : 24 bits
  45. Compression mode                         : Lossless
  46. Delay relative to video                  : 1 s 0 ms
  47. Stream size                              : 2.58 GiB (18%)
  48. Title                                    : DTS-HD MA 5.1
  49. Language                                 : English
  50. Default                                  : Yes
  51. Forced                                   : No

  52. Audio #2
  53. ID                                       : 3
  54. Format                                   : E-AC-3
  55. Format/Info                              : Enhanced AC-3
  56. Commercial name                          : Dolby Digital Plus
  57. Codec ID                                 : A_EAC3
  58. Duration                                 : 1 h 51 min
  59. Bit rate mode                            : Constant
  60. Bit rate                                 : 640 kb/s
  61. Channel(s)                               : 6 channels
  62. Channel layout                           : L R C LFE Ls Rs
  63. Sampling rate                            : 48.0 kHz
  64. Frame rate                               : 31.250 FPS (1536 SPF)
  65. Compression mode                         : Lossy
  66. Stream size                              : 509 MiB (3%)
  67. Language                                 : English
  68. Service kind                             : Complete Main
  69. Default                                  : No
  70. Forced                                   : No

  71. Text #1
  72. ID                                       : 4
  73. Format                                   : UTF-8
  74. Codec ID                                 : S_TEXT/UTF8
  75. Codec ID/Info                            : UTF-8 Plain Text
  76. Duration                                 : 1 h 49 min
  77. Bit rate                                 : 55 b/s
  78. Count of elements                        : 1663
  79. Stream size                              : 44.8 KiB (0%)
  80. Title                                    : SDH
  81. Language                                 : English
  82. Default                                  : Yes
  83. Forced                                   : No

  84. Text #2
  85. ID                                       : 5
  86. Format                                   : PGS
  87. Muxing mode                              : zlib
  88. Codec ID                                 : S_HDMV/PGS
  89. Codec ID/Info                            : Picture based subtitle format used on BDs/HD-DVDs
  90. Duration                                 : 1 h 42 min
  91. Bit rate                                 : 37.4 kb/s
  92. Count of elements                        : 2830
  93. Stream size                              : 27.5 MiB (0%)
  94. Title                                    : English-PGS
  95. Language                                 : English
  96. Default                                  : No
  97. Forced                                   : No

  98. Text #3
  99. ID                                       : 6
  100. Format                                   : PGS
  101. Muxing mode                              : zlib
  102. Codec ID                                 : S_HDMV/PGS
  103. Codec ID/Info                            : Picture based subtitle format used on BDs/HD-DVDs
  104. Duration                                 : 1 h 50 min
  105. Bit rate                                 : 30.3 kb/s
  106. Count of elements                        : 2592
  107. Stream size                              : 23.9 MiB (0%)
  108. Title                                    : Spanish-PGS
  109. Language                                 : Spanish
  110. Default                                  : No
  111. Forced                                   : No

  112. Text #4
  113. ID                                       : 7
  114. Format                                   : PGS
  115. Muxing mode                              : zlib
  116. Codec ID                                 : S_HDMV/PGS
  117. Codec ID/Info                            : Picture based subtitle format used on BDs/HD-DVDs
  118. Duration                                 : 1 h 50 min
  119. Bit rate                                 : 31.7 kb/s
  120. Count of elements                        : 2590
  121. Stream size                              : 25.1 MiB (0%)
  122. Title                                    : French-PGS
  123. Language                                 : French
  124. Default                                  : No
  125. Forced                                   : No

  126. Menu
  127. 00:00:00.000                             : en:Chapter 01
  128. 00:05:41.132                             : en:Chapter 02
  129. 00:10:37.803                             : en:Chapter 03
  130. 00:15:44.026                             : en:Chapter 04
  131. 00:20:05.829                             : en:Chapter 05
  132. 00:28:20.699                             : en:Chapter 06
  133. 00:35:27.208                             : en:Chapter 07
  134. 00:41:05.045                             : en:Chapter 08
  135. 00:49:15.160                             : en:Chapter 09
  136. 00:54:43.488                             : en:Chapter 10
  137. 00:59:56.843                             : en:Chapter 11
  138. 01:07:12.111                             : en:Chapter 12
  139. 01:12:12.745                             : en:Chapter 13
  140. 01:17:47.162                             : en:Chapter 14
  141. 01:21:20.792                             : en:Chapter 15
  142. 01:27:25.031                             : en:Chapter 16
  143. 01:30:56.909                             : en:Chapter 17
  144. 01:38:49.465                             : en:Chapter 18
  145. 01:42:31.520                             : en:Chapter 19
  146. 01:44:27.594                             : en:Chapter 20
复制代码




                                       
                                       

                                       
                                       
                                       




Victoria.and.Abdul.2017.2160p.AMZN.WEB-DL.x265.10bit.HDR10Plus.DTS-HD.MA.5.1-NOGRP.torrent (18.71 KB, 下载次数: 0)
回复

使用道具 举报

懒得打字嘛,点击右侧快捷回复 【右侧内容,后台自定义】
您需要登录后才可以回帖 登录 | 立即注册

本版积分规则

Archiver|手机版|小黑屋| 中国高清网 |网站地图 

GMT+8, 2022-6-29 15:40 , Processed in 0.104485 second(s), 26 queries .

Powered by HDchina X3.4

Copyright 2017-2019©HDchina.All right reserved

返回顶部 联系我们