查看: 34|回复: 1

[喜剧片] 瞬息全宇宙 Everything.Everywhere.All.at.Once.2022.1080p.BluRay.x264.TrueHD.7.1.Atmos-MT 20.77GB

[复制链接]
蓝光币
14 枚
发表于 7 天前 | 显示全部楼层 |阅读模式


◎标  题 瞬息全宇宙
◎译  名 妈的多重宇宙(台) / 全数天下同时一切 / 瞬息各地方有 / 天马行空(新加坡) / 奇异女侠玩救宇宙(港)
◎片  名 Everything Everywhere All at Once
◎年  代 2022
◎产  地 美国
◎类  别 笑剧 / 奇异 / 冒险
◎语  言 英语 / 汉语普通话 / 粤语
◎上映日期 2022-03-11(西南偏南电影节) / 2022-03-25(美国)
◎IMDb评分 8.8/10 (43077人评价)
◎IMDb链接 https://www.imdb.com/title/tt6710474/
◎豆瓣评分 8.7/10 (11759人评价)
◎豆瓣链接 https://movie.douban.com/subject/30314848/
◎片  长 132分钟
◎导  演 丹·关 Dan Kwan
       丹尼尔·施纳特 Daniel Scheinert
◎编  剧 丹·关 Dan Kwan
       丹尼尔·施纳特 Daniel Scheinert
◎演  员 杨紫琼 Michelle Yeoh
       斯蒂芬妮·许 Stephanie Hsu
       关继威 Jonathan Ke Quan
       吴汉章 James Hong
       杰米·李·柯蒂斯 Jamie Lee Curtis
       珍妮·斯蕾特 Jenny Slate
       塔丽·梅德尔 Tallie Medel
       岑勇康 Harry Shum Jr.
       比夫·威夫 Biff Wiff
       苏妮特·玛尼 Sunita Mani
       阿隆·拉扎尔 Aaron Lazar
       布莱恩·勒 Brian Le
       安迪·黎 Andy Le
       切尔西·戈德史姑娘 Chelsey Goldsmith
       克雷格·亨宁森 Craig Henningsen
       安东尼·莫利纳利 Anthony Molinari
       丹·布朗 Dan Brown
       帕努瓦特·安东尼·纳纳肯帕诺姆 Panuvat Anthony Nanakornpanom
       卡拉·玛丽·乔尔简 Cara Marie Chooljian
       兰达尔·阿切尔 Randall Archer
       埃夫卡·科瓦拉西尤斯 Efka Kvaraciejus
       奥德丽·瓦西莱夫斯基 Audrey Wasilewski
       布恩·平考 Boon Pin Koh
       蒂莫西·尤里齐 Timothy Eulich
       西协美智子 Michiko Nishiwaki
       蒂莫西·斯科特·拉尔斯顿 Timothy Scott Ralston
       D.Y. Sao D.Y. Sao
       安东尼·罗素 Anthony Russo
       乔·罗素 Joe Russo
       丹尼尔·施纳特 Daniel Scheinert
       丹·关 Dan Kwan
       杨紫琼 Michelle Yeoh
       萨拉·芬兰 Sarah Finn
       迈克·拉罗卡 Mike Larocca
       托德·马库拉思 Todd Makurath
       萨拉·芬兰 Sarah Finn
◎简  介

  55岁的美国华裔移民秀莲(杨紫琼 饰)家庭奇迹两解体。在爸爸爸生日大寿此日,除了要阻止女儿(斯蒂芬妮·许 饰)暴走出柜、替无用丈夫(关继威 饰)擦屁股,还得去税务局向呆板大婶(杰米·李·柯蒂斯 饰)诠释不太妙的税务题目。才踏进大楼电梯,软烂丈夫竟摇身一变演起黑客使命,声 称自己是另一个宇宙的版本,而秀莲也是万万宇宙里的其中一个。还来不及了解,邪恶势力已在多元宇宙中舒展,天下行将扑灭,只要在这个宇宙里,“一无是处”的秀莲才能拯救天下……
  1. Video
  2. ID                                       : 1
  3. Format                                   : AVC
  4. Format/Info                              : Advanced Video Codec
  5. Format profile                           : [email protected]
  6. Format settings                          : CABAC / 4 Ref Frames
  7. Format settings, CABAC                   : Yes
  8. Format settings, Reference frames        : 4 frames
  9. Codec ID                                 : V_MPEG4/ISO/AVC
  10. Duration                                 : 2 h 19 min
  11. Bit rate                                 : 16.6 Mb/s
  12. Width                                    : 1 920 pixels
  13. Height                                   : 1 038 pixels
  14. Display aspect ratio                     : 1.85:1
  15. Frame rate mode                          : Constant
  16. Frame rate                               : 23.976 (24000/1001/189150) FPS
  17. Color space                              : YUV
  18. Chroma subsampling                       : 4:2:0
  19. Bit depth                                : 8 bits
  20. Scan type                                : Progressive
  21. Bits/(Pixel*Frame)                       : 0.346
  22. Stream size                              : 16.1 GiB (78%)
  23. Writing library                          : x264 core 157 r2938 2b00a84 [email protected] Mod
  24. Encoding settings                        : cabac=1 / ref=4 / deblock=1:-3:-3 / analyse=0x3:0x133 / me=umh / subme=10 / psy=1 / psy_rd=1.05:0.00 / mixed_ref=1 / me_range=32 / chroma_me=1 / trellis=2 / 8x8dct=1 / cqm=0 / deadzone=21,11 / fast_pskip=0 / chroma_qp_offset=-2 / threads=12 / lookahead_threads=2 / sliced_threads=0 / nr=0 / decimate=0 / interlaced=0 / bluray_compat=0 / constrained_intra=0 / bframes=8 / b_pyramid=2 / b_adapt=2 / b_bias=0 / direct=3 / weightb=1 / open_gop=0 / weightp=2 / keyint=250 / keyint_min=24 / scenecut=40 / intra_refresh=0 / rc_lookahead=250 / rc=crf / mbtree=0 / crf=16.8 / qcomp=0.60 / qpmin=0 / qpmax=69 / qpstep=4 / vbv_maxrate=62500 / vbv_bufsize=78125 / crf_max=0.0 / nal_hrd=none / filler=0 / ip_ratio=1.30 / pb_ratio=1.20 / aq=3:0.80
  25. Language                                 : English
  26. Default                                  : Yes
  27. Forced                                   : No
  28. Color range                              : Limited
  29. Color primaries                          : BT.709
  30. Matrix coefficients                      : BT.709
  31. Audio #1
  32. ID                                       : 2
  33. Format                                   : MLP FBA 16-ch
  34. Format/Info                              : Meridian Lossless Packing FBA with 16-channel presentation
  35. Commercial name                          : Dolby TrueHD with Dolby Atmos
  36. Codec ID                                 : A_TRUEHD
  37. Duration                                 : 2 h 19 min
  38. Bit rate mode                            : Variable
  39. Bit rate                                 : 4 006 kb/s
  40. Maximum bit rate                         : 6 843 kb/s
  41. Channel(s)                               : 8 channels
  42. Channel layout                           : L R C LFE Ls Rs Lb Rb
  43. Sampling rate                            : 48.0 kHz
  44. Frame rate                               : 1 200.000 FPS (40 SPF)
  45. Compression mode                         : Lossless
  46. Stream size                              : 3.90 GiB (19%)
  47. Language                                 : English
  48. Default                                  : Yes
  49. Forced                                   : No
  50. Number of dynamic objects                : 11
  51. Bed channel count                        : 1 channel
  52. Bed channel configuration                : LFE
  53. Audio #2
  54. ID                                       : 3
  55. Format                                   : AC-3
  56. Format/Info                              : Audio Coding 3
  57. Commercial name                          : Dolby Digital
  58. Codec ID                                 : A_AC3
  59. Duration                                 : 2 h 19 min
  60. Bit rate mode                            : Constant
  61. Bit rate                                 : 640 kb/s
  62. Channel(s)                               : 6 channels
  63. Channel layout                           : L R C LFE Ls Rs
  64. Sampling rate                            : 48.0 kHz
  65. Frame rate                               : 31.250 FPS (1536 SPF)
  66. Compression mode                         : Lossy
  67. Stream size                              : 638 MiB (3%)
  68. Language                                 : English
  69. Service kind                             : Complete Main
  70. Default                                  : No
  71. Forced                                   : No
  72. Text #1
  73. ID                                       : 4
  74. Format                                   : UTF-8
  75. Codec ID                                 : S_TEXT/UTF8
  76. Codec ID/Info                            : UTF-8 Plain Text
  77. Duration                                 : 2 h 10 min
  78. Bit rate                                 : 43 b/s
  79. Count of elements                        : 1442
  80. Stream size                              : 41.4 KiB (0%)
  81. Language                                 : English
  82. Default                                  : Yes
  83. Forced                                   : No
  84. Text #2
  85. ID                                       : 5
  86. Format                                   : UTF-8
  87. Codec ID                                 : S_TEXT/UTF8
  88. Codec ID/Info                            : UTF-8 Plain Text
  89. Duration                                 : 2 h 15 min
  90. Bit rate                                 : 60 b/s
  91. Count of elements                        : 2093
  92. Stream size                              : 60.4 KiB (0%)
  93. Title                                    : SDH
  94. Language                                 : English
  95. Default                                  : No
  96. Forced                                   : No
  97. Text #3
  98. ID                                       : 6
  99. Format                                   : PGS
  100. Muxing mode                              : zlib
  101. Codec ID                                 : S_HDMV/PGS
  102. Codec ID/Info                            : Picture based subtitle format used on BDs/HD-DVDs
  103. Duration                                 : 2 h 15 min
  104. Bit rate                                 : 39.2 kb/s
  105. Count of elements                        : 4244
  106. Stream size                              : 38.0 MiB (0%)
  107. Language                                 : English
  108. Default                                  : No
  109. Forced                                   : No
  110. Text #4
  111. ID                                       : 7
  112. Format                                   : PGS
  113. Muxing mode                              : zlib
  114. Codec ID                                 : S_HDMV/PGS
  115. Codec ID/Info                            : Picture based subtitle format used on BDs/HD-DVDs
  116. Duration                                 : 2 h 15 min
  117. Bit rate                                 : 39.2 kb/s
  118. Count of elements                        : 4244
  119. Stream size                              : 38.0 MiB (0%)
  120. Title                                    : SDH
  121. Language                                 : English
  122. Default                                  : No
  123. Forced                                   : No
  124. Text #5
  125. ID                                       : 8
  126. Format                                   : PGS
  127. Muxing mode                              : zlib
  128. Codec ID                                 : S_HDMV/PGS
  129. Codec ID/Info                            : Picture based subtitle format used on BDs/HD-DVDs
  130. Duration                                 : 2 h 17 min
  131. Bit rate                                 : 31.0 kb/s
  132. Count of elements                        : 3428
  133. Stream size                              : 30.5 MiB (0%)
  134. Title                                    : Latin American
  135. Language                                 : Spanish
  136. Default                                  : No
  137. Forced                                   : No
  138. Text #6
  139. ID                                       : 9
  140. Format                                   : PGS
  141. Muxing mode                              : zlib
  142. Codec ID                                 : S_HDMV/PGS
  143. Codec ID/Info                            : Picture based subtitle format used on BDs/HD-DVDs
  144. Duration                                 : 2 h 17 min
  145. Bit rate                                 : 27.5 kb/s
  146. Count of elements                        : 3446
  147. Stream size                              : 27.1 MiB (0%)
  148. Title                                    : Traditional
  149. Language                                 : Chinese
  150. Default                                  : No
  151. Forced                                   : No
  152. Menu
  153. 00:00:00.000                             : en:Chapter 01
  154. 00:07:05.050                             : en:Chapter 02
  155. 00:11:45.705                             : en:Chapter 03
  156. 00:24:55.327                             : en:Chapter 04
  157. 00:32:52.262                             : en:Chapter 05
  158. 00:42:08.109                             : en:Chapter 06
  159. 00:52:26.602                             : en:Chapter 07
  160. 01:01:51.625                             : en:Chapter 08
  161. 01:10:27.974                             : en:Chapter 09
  162. 01:17:09.041                             : en:Chapter 10
  163. 01:25:09.104                             : en:Chapter 11
  164. 01:31:54.509                             : en:Chapter 12
  165. 01:39:50.818                             : en:Chapter 13
  166. 01:51:25.679                             : en:Chapter 14
  167. 01:59:09.142                             : en:Chapter 15
  168. 02:10:08.467                             : en:Chapter 16
复制代码







                                       
                                       

                                       
                                       
                                       




Everything.Everywhere.All.at.Once.2022.1080p.BluRay.x264.TrueHD.7.1.Atmos-MT.torrent (26.65 KB, 下载次数: 5)
回复

使用道具 举报

蓝光币
90 枚
发表于 6 天前 | 显示全部楼层
楼主发贴辛苦了,谢谢楼主分享!我觉得中国高清电影网是注册对了!
回复

使用道具 举报

懒得打字嘛,点击右侧快捷回复 【右侧内容,后台自定义】
您需要登录后才可以回帖 登录 | 立即注册

本版积分规则

Archiver|手机版|小黑屋| 中国高清网 |网站地图 

GMT+8, 2022-6-29 14:39 , Processed in 0.107073 second(s), 26 queries .

Powered by HDchina X3.4

Copyright 2017-2019©HDchina.All right reserved

返回顶部 联系我们