查看: 139|回复: 2

[REMUX.HEVC] 阿斯泰里克斯:魔法药水的秘密 Asterix.The.Secret.of.the.Magic.Potion.2018.FRENCH.2160p.BluRay.REMUX.HEVC.DTS-HD.MA.5.1-FGT 42.95GB

[复制链接]

已抛锚 成长值: 11955

级别:资源管理组

注册时间
2017-10-20
最后登录
2022-5-9
听众
1
收听
0
主题
108287
蓝光币
241495 枚
贡献
21715 点
发表于 2021-1-27 14:02:53 | 显示全部楼层 |阅读模式



译  名 阿斯泰里克斯:魔法药水的奥秘 / Asterix - The Secret of the Magic Potion
片  名 Astérix: Le secret de la potion magique
年  代 2018
产  地 法国
类  别 动画
语  言 法语 / 拉丁语 Latin
上映日期 2018-12-05(法国)
IMDb评分  6.7/10 from 7538 users
IMDb链接  https://www.imdb.com/title/tt8001346
豆瓣评分 7.1/10 from 143 users
豆瓣链接 https://movie.douban.com/subject/30238680/
片  长 85分钟
导  演 亚历山德拉·阿斯提耶尔 Alexandre Astier / Louis Clichy
编  剧 亚历山德拉·阿斯提耶尔 Alexandre Astier / 勒内·戈西尼 René Goscinny

标  签 动画 | 法国 | 笑剧 | 法国动画 | 法国电影 | asterix | 2018 | 法影

简  介  

  Following a fall during mistletoe picking, Druid Panoramix decides that it is time to secure the future of the village. Accompanied by Asterix and Obelix, he undertakes to travel the Gallic world in search of a talented young druid to transmit the Secret of the Magic Potion .—Hugo Van Herpe

获奖情况  

  第44届法国凯撒电影奖(2019)
  最好动画片(提名)
谷歌为您翻译:
在槲寄生采摘进程中跌倒以后,德鲁伊·潘诺拉米克斯(Druid Panoramix)决议该是确保该村落未来的时辰了。在Asterix和Obelix的伴随下,他许诺前往高卢天下观光,寻觅有才华的年轻德鲁伊来传布魔药的奥秘。
腾讯为您翻译:
在槲寄生采摘进程中跌倒后,德鲁伊教者决议现在是时辰庇护这个村落的未来了。在的和Obelix的伴随下,他许诺前往高卢天下寻觅一个天赋的年轻德鲁伊来传递魔法药水的奥秘。

  1. Video
  2. ID                                       : 1
  3. ID in the original source medium         : 4113 (0x1011)
  4. Format                                   : HEVC
  5. Format/Info                              : High Efficiency Video Coding
  6. Format profile                           : Main [email protected]@High
  7. HDR format                               : SMPTE ST 2086, HDR10 compatible
  8. Codec ID                                 : V_MPEGH/ISO/HEVC
  9. Duration                                 : 1 h 24 min
  10. Bit rate                                 : 65.0 Mb/s
  11. Width                                    : 3 840 pixels
  12. Height                                   : 2 160 pixels
  13. Display aspect ratio                     : 16:9
  14. Frame rate mode                          : Constant
  15. Frame rate                               : 24.000 FPS
  16. Color space                              : YUV
  17. Chroma subsampling                       : 4:2:0 (Type 2)
  18. Bit depth                                : 10 bits
  19. Bits/(Pixel*Frame)                       : 0.326
  20. Stream size                              : 38.6 GiB (90%)
  21. Writing liary                          : ATEME Titan File 3.8.18 (4.8.18.2)      
  22. Language                                 : English
  23. Default                                  : No
  24. Forced                                   : No
  25. Color range                              : Limited
  26. Color primaries                          : BT.2020
  27. Transfer characteristics                 : PQ
  28. Matrix coefficients                      : BT.2020 non-constant
  29. Mastering display color primaries        : Display P3
  30. Mastering display luminance              : min: 0.0050 cd/m2, max: 1000 cd/m2
  31. Maximum Content Light Level              : 435 cd/m2
  32. Maximum Frame-Average Light Level        : 290 cd/m2
  33. Original source medium                   : Blu-ray
  34. Audio #1
  35. ID                                       : 2
  36. ID in the original source medium         : 4353 (0x1101)
  37. Format                                   : DTS XLL
  38. Format/Info                              : Digital Theater Systems
  39. Commercial name                          : DTS-HD Master Audio
  40. Codec ID                                 : A_DTS
  41. Duration                                 : 1 h 24 min
  42. Bit rate mode                            : Variable
  43. Bit rate                                 : 3 901 kb/s
  44. Channel(s)                               : 6 channels
  45. Channel layout                           : C L R Ls Rs LFE
  46. Sampling rate                            : 48.0 kHz
  47. Frame rate                               : 93.750 FPS (512 SPF)
  48. Bit depth                                : 24 bits
  49. Compression mode                         : Lossless
  50. Stream size                              : 2.31 GiB (5%)
  51. Title                                    : DTS-HD MA 5.1
  52. Language                                 : French
  53. Default                                  : Yes
  54. Forced                                   : No
  55. Original source medium                   : Blu-ray
  56. Audio #2
  57. ID                                       : 3
  58. Format                                   : AC-3
  59. Format/Info                              : Audio Coding 3
  60. Commercial name                          : Dolby Digital
  61. Codec ID                                 : A_AC3
  62. Duration                                 : 1 h 24 min
  63. Bit rate mode                            : Constant
  64. Bit rate                                 : 640 kb/s
  65. Channel(s)                               : 6 channels
  66. Channel layout                           : L R C LFE Ls Rs
  67. Sampling rate                            : 48.0 kHz
  68. Frame rate                               : 31.250 FPS (1536 SPF)
  69. Compression mode                         : Lossy
  70. Stream size                              : 389 MiB (1%)
  71. Title                                    : DD 5.1
  72. Language                                 : French
  73. Service kind                             : Complete Main
  74. Default                                  : No
  75. Forced                                   : No
  76. Audio #3
  77. ID                                       : 4
  78. ID in the original source medium         : 4352 (0x1100)
  79. Format                                   : DTS XLL
  80. Format/Info                              : Digital Theater Systems
  81. Commercial name                          : DTS-HD Master Audio
  82. Codec ID                                 : A_DTS
  83. Duration                                 : 1 h 24 min
  84. Bit rate mode                            : Variable
  85. Bit rate                                 : 2 088 kb/s
  86. Channel(s)                               : 2 channels
  87. Channel layout                           : L R
  88. Sampling rate                            : 48.0 kHz
  89. Frame rate                               : 93.750 FPS (512 SPF)
  90. Bit depth                                : 24 bits
  91. Compression mode                         : Lossless
  92. Stream size                              : 1.24 GiB (3%)
  93. Title                                    : DTS-HD MA 2.0
  94. Language                                 : French
  95. Default                                  : No
  96. Forced                                   : No
  97. Original source medium                   : Blu-ray
  98. Audio #4
  99. ID                                       : 5
  100. ID in the original source medium         : 4354 (0x1102)
  101. Format                                   : DTS
  102. Format/Info                              : Digital Theater Systems
  103. Codec ID                                 : A_DTS
  104. Duration                                 : 1 h 24 min
  105. Bit rate mode                            : Constant
  106. Bit rate                                 : 768 kb/s
  107. Channel(s)                               : 2 channels
  108. Channel layout                           : L R
  109. Sampling rate                            : 48.0 kHz
  110. Frame rate                               : 93.750 FPS (512 SPF)
  111. Bit depth                                : 24 bits
  112. Compression mode                         : Lossy
  113. Stream size                              : 466 MiB (1%)
  114. Title                                    : DTS 2.0
  115. Language                                 : French
  116. Default                                  : No
  117. Forced                                   : No
  118. Original source medium                   : Blu-ray
  119. Text #1
  120. ID                                       : 6
  121. Format                                   : UTF-8
  122. Codec ID                                 : S_TEXT/UTF8
  123. Codec ID/Info                            : UTF-8 Plain Text
  124. Duration                                 : 1 h 19 min
  125. Bit rate                                 : 75 b/s
  126. Count of elements                        : 1107
  127. Stream size                              : 44.3 KiB (0%)
  128. Title                                    : English-SRT
  129. Language                                 : English
  130. Default                                  : Yes
  131. Forced                                   : Yes
  132. Text #2
  133. ID                                       : 7
  134. Format                                   : UTF-8
  135. Codec ID                                 : S_TEXT/UTF8
  136. Codec ID/Info                            : UTF-8 Plain Text
  137. Duration                                 : 1 h 22 min
  138. Bit rate                                 : 82 b/s
  139. Count of elements                        : 1333
  140. Stream size                              : 49.9 KiB (0%)
  141. Title                                    : English-SDH-SRT
  142. Language                                 : English
  143. Default                                  : No
  144. Forced                                   : No
  145. Text #3
  146. ID                                       : 8
  147. ID in the original source medium         : 4768 (0x12A0)
  148. Format                                   : PGS
  149. Muxing mode                              : zlib
  150. Codec ID                                 : S_HDMV/PGS
  151. Codec ID/Info                            : Picture based subtitle format used on BDs/HD-DVDs
  152. Duration                                 : 1 h 24 min
  153. Bit rate                                 : 41.0 kb/s
  154. Count of elements                        : 3232
  155. Stream size                              : 24.8 MiB (0%)
  156. Title                                    : French-PGS
  157. Language                                 : French
  158. Default                                  : No
  159. Forced                                   : No
  160. Original source medium                   : Blu-ray
  161. Menu
  162. 00:00:00.000                             : en:Chapter 01
  163. 00:06:16.041                             : en:Chapter 02
  164. 00:15:42.875                             : en:Chapter 03
  165. 00:21:45.000                             : en:Chapter 04
  166. 00:28:47.791                             : en:Chapter 05
  167. 00:35:00.000                             : en:Chapter 06
  168. 00:42:39.458                             : en:Chapter 07
  169. 00:50:30.333                             : en:Chapter 08
  170. 00:57:33.708                             : en:Chapter 09
  171. 01:04:05.458                             : en:Chapter 10
  172. 01:13:31.750                             : en:Chapter 11
  173. 01:21:07.625                             : en:Chapter 12
复制代码

























本帖隐藏的下载地址需要VIP会员才可阅读,您需要升级才可阅读,点击这里升级VIP
回复

使用道具 举报

级别:领衔主演 Lv.6

注册时间
2018-10-31
最后登录
2021-2-24
听众
17
收听
0
主题
0
蓝光币
2680 枚
贡献
0 点
QQ
发表于 2021-2-23 07:44:31 | 显示全部楼层
楼主发贴辛苦了,谢谢楼主分享!我觉得中国高清电影网是注册对了!
回复

使用道具 举报

级别:初级观众 Lv.1

注册时间
2020-2-20
最后登录
2021-2-23
听众
2
收听
0
主题
0
蓝光币
1 枚
贡献
0 点
发表于 2021-2-23 19:44:06 | 显示全部楼层

这个帖子不回对不起自己!我想我是一天也不能离开中国高清电影网
回复

使用道具 举报

懒得打字嘛,点击右侧快捷回复 【右侧内容,后台自定义】
您需要登录后才可以回帖 登录 | 立即注册

本版积分规则

Archiver|手机版|小黑屋| 中国高清网 |网站地图 

GMT+8, 2022-5-18 04:35 , Processed in 0.110173 second(s), 29 queries .

Powered by HDchina X3.4

Copyright 2017-2019©HDchina.All right reserved

返回顶部 联系我们