查看: 495|回复: 1

[10bit.HDR] 生化危机3:灭绝/恶灵古堡3:大灭绝 Resident.Evil.Extinction.2007.2160p.UHD.BluRay.x265.10bit.HDR.TrueHD.7.1.Atmos-FLAME 21.94GB

[复制链接]

 成长值: 8350

级别:资源管理组

注册时间
2017-10-20
最后登录
2020-11-29
听众
1
收听
0
主题
106079
蓝光币
219203 枚
贡献
21715 点
发表于 2020-11-21 23:35:09 | 显示全部楼层 |阅读模式




译  名 生化危机3:灭绝 / Resident Evil 3 / 恶灵古堡3:大灭绝 / 生化危机3 / 生化危机3:劫后余生 / 生化危机:绝种生还者
片  名 Resident Evil: Extinction
年  代 2007
产  地 美国 / 法国 / 澳大利亚 / 德国 / 英国
类  别 行动 / 科幻 / 可骇
语  言 英语
上映日期 2007-09-21(美国)
IMDb评分  6.3/10 from 180813 users
IMDb链接  https://www.imdb.com/title/tt0432021
豆瓣评分 7.3/10 from 160124 users
豆瓣链接 https://movie.douban.com/subject/1482911/
片  长 95 分钟(美国)
导  演 拉塞尔·穆卡希 Russell Mulcahy
编  剧 保罗·安德森 Paul W.S. Anderson
主  演 米拉·乔沃维奇 Milla Jovovich
       奥德·菲尔 Oded Fehr
       伊恩·格雷 Iain Glen
       艾丽·拉特 Ali Larter
       亚香缇 Ashanti
       黄笑嬿 Xiaoyan Huang
       加里·A·赫克 Gary A. Hecker
       加里·哈德逊 Gary Hudson
       克里斯托弗·艾甘 Christopher Egan
       吉奥夫·米德 Geoff Meed
       杰森·奥玛拉 Jason O'Mara
       玛德琳·卡罗尔 Madeline Carroll
       马修·马斯登 Matthew Marsden
       迈克·艾普斯 Mike Epps
       彼特·奥梅拉 Peter O'Meara
       史宾塞·洛克 Spencer Locke
       林登·阿什比 Linden Ashby
       里克·克拉梅尔 Rick Cramer
       拉蒙·弗兰克 Ramón Franco
       克里克·B·R·沃勒尔 Kirk B.R. Woller
       鲁斯蒂·乔伊纳 Rusty Joiner
       Shane Woodson


标  签 科幻 | 生化危机 | 美国 | 行动 | 惊悚 | 可骇 | 游戏改编 | 丧尸

简  介  

  爱丽丝(米拉?乔沃维奇 Milla Jovovich 饰)被庇护伞公司尝试室复制,成了伊萨克博士(伊恩?格雷 Iain Glen 饰)的研讨标本。由于她体内的DNA可以匹敌T-病毒,所以博士以此来提升僵尸的杀伤力。爱丽丝接到了人类的求救信号,但却中了奸计,几经拼杀,刚刚自救。她如释重负,但是在睡梦中,她却激烈地感受体内强大气力的呼唤,明显庇护伞公司尝试室对她做了手脚。而且,伊萨克博士还给僵尸注入了人类血液,激活其人类的心智。僵尸变得更强大,底子没法被控制,他们残暴地杀戮了尝试室助手,被练习对于爱丽丝。3年后,地球成了穷山恶水。内华达州的幸存者结成了同盟,爱丽丝也在其中,可是她不敢表露身份,由于尝试室给了她超才能,同时也让她被迫做了特务。爱丽丝被孤立,只要卡洛斯晓得她的苦处,二人也是以堕入了暗昧当中……

  1. Video
  2. ID                                       : 1
  3. Format                                   : HEVC
  4. Format/Info                              : High Efficiency Video Coding
  5. Format profile                           : Main 10@L5.1@High
  6. HDR format                               : SMPTE ST 2086, HDR10 compatible
  7. Codec ID                                 : V_MPEGH/ISO/HEVC
  8. Duration                                 : 1 h 34 min
  9. Bit rate                                 : 28.4 Mb/s
  10. Width                                    : 3 840 pixels
  11. Height                                   : 1 606 pixels
  12. Display aspect ratio                     : 2.40:1
  13. Frame rate mode                          : Constant
  14. Frame rate                               : 23.976 (24000/1001/45378) FPS
  15. Color space                              : YUV
  16. Chroma subsampling                       : 4:2:0 (Type 2)
  17. Bit depth                                : 10 bits
  18. Bits/(Pixel*Frame)                       : 0.192
  19. Stream size                              : 18.6 GiB (86%)
  20. Writing library                          : x265 3.4+26-ga82c6c7a7:[Windows][MSVC 1927][64 bit] 10bit
  21. Encoding settings                        : cpuid=1111039 / frame-threads=4 / numa-pools=24 / wpp / no-pmode / no-pme / no-psnr / no-ssim / log-level=2 / input-csp=1 / input-res=3840x1606 / interlace=0 / total-frames=135360 / level-idc=51 / high-tier=1 / uhd-bd=0 / ref=4 / no-allow-non-conformance / repeat-headers / annexb / aud / hrd / info / hash=0 / no-temporal-layers / no-open-gop / min-keyint=23 / keyint=250 / gop-lookahead=0 / bframes=4 / b-adapt=2 / b-pyramid / bframe-bias=0 / rc-lookahead=25 / lookahead-slices=4 / scenecut=40 / hist-scenecut=0 / radl=0 / no-splice / no-intra-refresh / ctu=64 / min-cu-size=8 / rect / no-amp / max-tu-size=32 / tu-inter-depth=1 / tu-intra-depth=1 / limit-tu=0 / rdoq-level=2 / dynamic-rd=0.00 / no-ssim-rd / signhide / no-tskip / nr-intra=0 / nr-inter=0 / no-constrained-intra / strong-intra-smoothing / max-merge=3 / limit-refs=3 / limit-modes / me=3 / subme=3 / merange=57 / temporal-mvp / no-frame-dup / no-hme / weightp / no-weightb / no-analyze-src-pics / deblock=-3:-3 / no-sao / no-sao-non-deblock / rd=4 / selective-sao=0 / no-early-skip / rskip / no-fast-intra / no-tskip-fast / no-cu-lossless / no-b-intra / no-splitrd-skip / rdpenalty=0 / psy-rd=2.00 / psy-rdoq=1.00 / no-rd-refine / no-lossless / cbqpoffs=0 / crqpoffs=0 / rc=crf / crf=14.0 / qcomp=0.60 / qpstep=4 / stats-write=0 / stats-read=0 / vbv-maxrate=160000 / vbv-bufsize=160000 / vbv-init=0.9 / min-vbv-fullness=50.0 / max-vbv-fullness=80.0 / crf-max=0.0 / crf-min=0.0 / ipratio=1.40 / pbratio=1.30 / aq-mode=2 / aq-strength=1.00 / cutree / zone-count=0 / no-strict-cbr / qg-size=32 / no-rc-grain / qpmax=69 / qpmin=0 / no-const-vbv / sar=1 / overscan=0 / videoformat=5 / range=0 / colorprim=9 / transfer=16 / colormatrix=9 / chromaloc=1 / chromaloc-top=2 / chromaloc-bottom=2 / display-window=0 / master-display=G(13250,34500)B(7500,3000)R(34000,16000)WP(15635,16450)L(40000000,50) / cll=992,581 / min-luma=0 / max-luma=1023 / log2-max-poc-lsb=8 / vui-timing-info / vui-hrd-info / slices=1 / no-opt-qp-pps / no-opt-ref-list-length-pps / no-multi-pass-opt-rps / scenecut-bias=0.05 / hist-threshold=0.03 / no-opt-cu-delta-qp / no-aq-motion / hdr10 / hdr10-opt / no-dhdr10-opt / no-idr-recovery-sei / analysis-reuse-level=0 / analysis-save-reuse-level=0 / analysis-load-reuse-level=0 / scale-factor=0 / refine-intra=0 / refine-inter=0 / refine-mv=1 / refine-ctu-distortion=0 / no-limit-sao / ctu-info=0 / no-lowpass-dct / refine-analysis-type=0 / copy-pic=1 / max-ausize-factor=1.0 / no-dynamic-refine / no-single-sei / no-hevc-aq / no-svt / no-field / qp-adaptation-range=1.00 / no-scenecut-aware-qpconformance-window-offsets / right=0 / bottom=0 / decoder-max-rate=0 / no-vbv-live-multi-pass
  22. Default                                  : Yes
  23. Forced                                   : No
  24. Color range                              : Limited
  25. Color primaries                          : BT.2020
  26. Transfer characteristics                 : PQ
  27. Matrix coefficients                      : BT.2020 non-constant
  28. Mastering display color primaries        : Display P3
  29. Mastering display luminance              : min: 0.0050 cd/m2, max: 4000 cd/m2
  30. Maximum Content Light Level              : 992 cd/m2
  31. Maximum Frame-Average Light Level        : 581 cd/m2

  32. Audio #1
  33. ID                                       : 2
  34. Format                                   : MLP FBA 16-ch
  35. Format/Info                              : Meridian Lossless Packing FBA with 16-channel presentation
  36. Commercial name                          : Dolby TrueHD with Dolby Atmos
  37. Codec ID                                 : A_TRUEHD
  38. Duration                                 : 1 h 34 min
  39. Bit rate mode                            : Variable
  40. Bit rate                                 : 3 395 kb/s
  41. Maximum bit rate                         : 5 565 kb/s
  42. Channel(s)                               : 8 channels
  43. Channel layout                           : L R C LFE Ls Rs Lb Rb
  44. Sampling rate                            : 48.0 kHz
  45. Frame rate                               : 1 200.000 FPS (40 SPF)
  46. Compression mode                         : Lossless
  47. Stream size                              : 2.23 GiB (10%)
  48. Title                                    : English Dolby Atmos 3395 kbps
  49. Language                                 : English
  50. Default                                  : Yes
  51. Forced                                   : No
  52. Number of dynamic objects                : 11
  53. Bed channel count                        : 1 channel
  54. Bed channel configuration                : LFE

  55. Audio #2
  56. ID                                       : 3
  57. Format                                   : AC-3
  58. Format/Info                              : Audio Coding 3
  59. Commercial name                          : Dolby Digital
  60. Codec ID                                 : A_AC3
  61. Duration                                 : 1 h 34 min
  62. Bit rate mode                            : Constant
  63. Bit rate                                 : 640 kb/s
  64. Channel(s)                               : 6 channels
  65. Channel layout                           : L R C LFE Ls Rs
  66. Sampling rate                            : 48.0 kHz
  67. Frame rate                               : 31.250 FPS (1536 SPF)
  68. Compression mode                         : Lossy
  69. Stream size                              : 431 MiB (2%)
  70. Title                                    : English AC3 640 kbps
  71. Language                                 : English
  72. Service kind                             : Complete Main
  73. Default                                  : No
  74. Forced                                   : No

  75. Text #1
  76. ID                                       : 4
  77. Format                                   : PGS
  78. Codec ID                                 : S_HDMV/PGS
  79. Codec ID/Info                            : Picture based subtitle format used on BDs/HD-DVDs
  80. Duration                                 : 1 h 28 min
  81. Bit rate                                 : 15.5 kb/s
  82. Count of elements                        : 1130
  83. Stream size                              : 9.83 MiB (0%)
  84. Title                                    : English
  85. Language                                 : English
  86. Default                                  : No
  87. Forced                                   : No

  88. Text #2
  89. ID                                       : 5
  90. Format                                   : PGS
  91. Codec ID                                 : S_HDMV/PGS
  92. Codec ID/Info                            : Picture based subtitle format used on BDs/HD-DVDs
  93. Duration                                 : 1 h 33 min
  94. Bit rate                                 : 20.6 kb/s
  95. Count of elements                        : 1703
  96. Stream size                              : 13.7 MiB (0%)
  97. Title                                    : English SDH
  98. Language                                 : English
  99. Default                                  : No
  100. Forced                                   : No

  101. Text #3
  102. ID                                       : 6
  103. Format                                   : PGS
  104. Codec ID                                 : S_HDMV/PGS
  105. Codec ID/Info                            : Picture based subtitle format used on BDs/HD-DVDs
  106. Duration                                 : 1 h 28 min
  107. Bit rate                                 : 15.5 kb/s
  108. Count of elements                        : 1130
  109. Stream size                              : 9.83 MiB (0%)
  110. Title                                    : English
  111. Language                                 : English
  112. Default                                  : No
  113. Forced                                   : No

  114. Text #4
  115. ID                                       : 7
  116. Format                                   : PGS
  117. Codec ID                                 : S_HDMV/PGS
  118. Codec ID/Info                            : Picture based subtitle format used on BDs/HD-DVDs
  119. Duration                                 : 1 h 33 min
  120. Bit rate                                 : 20.5 kb/s
  121. Count of elements                        : 1705
  122. Stream size                              : 13.7 MiB (0%)
  123. Title                                    : English SDH
  124. Language                                 : English
  125. Default                                  : No
  126. Forced                                   : No

  127. Text #5
  128. ID                                       : 8
  129. Format                                   : PGS
  130. Codec ID                                 : S_HDMV/PGS
  131. Codec ID/Info                            : Picture based subtitle format used on BDs/HD-DVDs
  132. Duration                                 : 1 h 30 min
  133. Bit rate                                 : 14.3 kb/s
  134. Count of elements                        : 1034
  135. Stream size                              : 9.18 MiB (0%)
  136. Title                                    : Bulgarian
  137. Language                                 : Bulgarian
  138. Default                                  : No
  139. Forced                                   : No

  140. Text #6
  141. ID                                       : 9
  142. Format                                   : PGS
  143. Codec ID                                 : S_HDMV/PGS
  144. Codec ID/Info                            : Picture based subtitle format used on BDs/HD-DVDs
  145. Duration                                 : 1 h 30 min
  146. Bit rate                                 : 14.1 kb/s
  147. Count of elements                        : 1180
  148. Stream size                              : 9.06 MiB (0%)
  149. Title                                    : Chinese
  150. Language                                 : Chinese
  151. Default                                  : No
  152. Forced                                   : No

  153. Text #7
  154. ID                                       : 10
  155. Format                                   : PGS
  156. Codec ID                                 : S_HDMV/PGS
  157. Codec ID/Info                            : Picture based subtitle format used on BDs/HD-DVDs
  158. Duration                                 : 1 h 30 min
  159. Bit rate                                 : 14.3 kb/s
  160. Count of elements                        : 1146
  161. Stream size                              : 9.18 MiB (0%)
  162. Title                                    : Chinese
  163. Language                                 : Chinese
  164. Default                                  : No
  165. Forced                                   : No

  166. Text #8
  167. ID                                       : 11
  168. Format                                   : PGS
  169. Codec ID                                 : S_HDMV/PGS
  170. Codec ID/Info                            : Picture based subtitle format used on BDs/HD-DVDs
  171. Duration                                 : 1 h 30 min
  172. Bit rate                                 : 14.0 kb/s
  173. Count of elements                        : 1150
  174. Stream size                              : 9.00 MiB (0%)
  175. Title                                    : Czech
  176. Language                                 : Czech
  177. Default                                  : No
  178. Forced                                   : No

  179. Text #9
  180. ID                                       : 12
  181. Format                                   : PGS
  182. Codec ID                                 : S_HDMV/PGS
  183. Codec ID/Info                            : Picture based subtitle format used on BDs/HD-DVDs
  184. Duration                                 : 1 h 30 min
  185. Bit rate                                 : 13.7 kb/s
  186. Count of elements                        : 1048
  187. Stream size                              : 8.85 MiB (0%)
  188. Title                                    : Danish
  189. Language                                 : Danish
  190. Default                                  : No
  191. Forced                                   : No

  192. Text #10
  193. ID                                       : 13
  194. Format                                   : PGS
  195. Codec ID                                 : S_HDMV/PGS
  196. Codec ID/Info                            : Picture based subtitle format used on BDs/HD-DVDs
  197. Duration                                 : 1 h 28 min
  198. Bit rate                                 : 13.5 kb/s
  199. Count of elements                        : 763
  200. Stream size                              : 8.56 MiB (0%)
  201. Title                                    : Estonian
  202. Language                                 : Estonian
  203. Default                                  : No
  204. Forced                                   : No

  205. Text #11
  206. ID                                       : 14
  207. Format                                   : PGS
  208. Codec ID                                 : S_HDMV/PGS
  209. Codec ID/Info                            : Picture based subtitle format used on BDs/HD-DVDs
  210. Duration                                 : 1 h 30 min
  211. Bit rate                                 : 13.4 kb/s
  212. Count of elements                        : 1168
  213. Stream size                              : 8.61 MiB (0%)
  214. Title                                    : Finnish
  215. Language                                 : Finnish
  216. Default                                  : No
  217. Forced                                   : No

  218. Text #12
  219. ID                                       : 15
  220. Format                                   : PGS
  221. Codec ID                                 : S_HDMV/PGS
  222. Codec ID/Info                            : Picture based subtitle format used on BDs/HD-DVDs
  223. Duration                                 : 1 h 30 min
  224. Bit rate                                 : 13.6 kb/s
  225. Count of elements                        : 1132
  226. Stream size                              : 8.76 MiB (0%)
  227. Title                                    : French
  228. Language                                 : French
  229. Default                                  : No
  230. Forced                                   : No

  231. Text #13
  232. ID                                       : 16
  233. Format                                   : PGS
  234. Codec ID                                 : S_HDMV/PGS
  235. Codec ID/Info                            : Picture based subtitle format used on BDs/HD-DVDs
  236. Duration                                 : 1 h 30 min
  237. Bit rate                                 : 13.2 kb/s
  238. Count of elements                        : 1180
  239. Stream size                              : 8.51 MiB (0%)
  240. Title                                    : Hindi
  241. Language                                 : Hindi
  242. Default                                  : No
  243. Forced                                   : No

  244. Text #14
  245. ID                                       : 17
  246. Format                                   : PGS
  247. Codec ID                                 : S_HDMV/PGS
  248. Codec ID/Info                            : Picture based subtitle format used on BDs/HD-DVDs
  249. Duration                                 : 1 h 30 min
  250. Bit rate                                 : 13.1 kb/s
  251. Count of elements                        : 1154
  252. Stream size                              : 8.46 MiB (0%)
  253. Title                                    : Hungarian
  254. Language                                 : Hungarian
  255. Default                                  : No
  256. Forced                                   : No

  257. Text #15
  258. ID                                       : 18
  259. Format                                   : PGS
  260. Codec ID                                 : S_HDMV/PGS
  261. Codec ID/Info                            : Picture based subtitle format used on BDs/HD-DVDs
  262. Duration                                 : 1 h 30 min
  263. Bit rate                                 : 14.8 kb/s
  264. Count of elements                        : 1019
  265. Stream size                              : 9.51 MiB (0%)
  266. Title                                    : Icelandic
  267. Language                                 : Icelandic
  268. Default                                  : No
  269. Forced                                   : No

  270. Text #16
  271. ID                                       : 19
  272. Format                                   : PGS
  273. Codec ID                                 : S_HDMV/PGS
  274. Codec ID/Info                            : Picture based subtitle format used on BDs/HD-DVDs
  275. Duration                                 : 1 h 30 min
  276. Bit rate                                 : 16.4 kb/s
  277. Count of elements                        : 1186
  278. Stream size                              : 10.6 MiB (0%)
  279. Title                                    : Italian
  280. Language                                 : Italian
  281. Default                                  : No
  282. Forced                                   : No

  283. Text #17
  284. ID                                       : 20
  285. Format                                   : PGS
  286. Codec ID                                 : S_HDMV/PGS
  287. Codec ID/Info                            : Picture based subtitle format used on BDs/HD-DVDs
  288. Duration                                 : 1 h 22 min
  289. Bit rate                                 : 11.3 kb/s
  290. Count of elements                        : 1130
  291. Stream size                              : 6.68 MiB (0%)
  292. Title                                    : Japanese
  293. Language                                 : Japanese
  294. Default                                  : No
  295. Forced                                   : No

  296. Text #18
  297. ID                                       : 21
  298. Format                                   : PGS
  299. Codec ID                                 : S_HDMV/PGS
  300. Codec ID/Info                            : Picture based subtitle format used on BDs/HD-DVDs
  301. Duration                                 : 1 h 30 min
  302. Bit rate                                 : 12.2 kb/s
  303. Count of elements                        : 1256
  304. Stream size                              : 7.88 MiB (0%)
  305. Title                                    : Korean
  306. Language                                 : Korean
  307. Default                                  : No
  308. Forced                                   : No

  309. Text #19
  310. ID                                       : 22
  311. Format                                   : PGS
  312. Codec ID                                 : S_HDMV/PGS
  313. Codec ID/Info                            : Picture based subtitle format used on BDs/HD-DVDs
  314. Duration                                 : 1 h 30 min
  315. Bit rate                                 : 15.3 kb/s
  316. Count of elements                        : 1188
  317. Stream size                              : 9.82 MiB (0%)
  318. Title                                    : Lithuanian
  319. Language                                 : Lithuanian
  320. Default                                  : No
  321. Forced                                   : No

  322. Text #20
  323. ID                                       : 23
  324. Format                                   : PGS
  325. Codec ID                                 : S_HDMV/PGS
  326. Codec ID/Info                            : Picture based subtitle format used on BDs/HD-DVDs
  327. Duration                                 : 1 h 30 min
  328. Bit rate                                 : 11.9 kb/s
  329. Count of elements                        : 1038
  330. Stream size                              : 7.70 MiB (0%)
  331. Title                                    : Norwegian
  332. Language                                 : Norwegian
  333. Default                                  : No
  334. Forced                                   : No

  335. Text #21
  336. ID                                       : 24
  337. Format                                   : PGS
  338. Codec ID                                 : S_HDMV/PGS
  339. Codec ID/Info                            : Picture based subtitle format used on BDs/HD-DVDs
  340. Duration                                 : 1 h 30 min
  341. Bit rate                                 : 13.0 kb/s
  342. Count of elements                        : 1172
  343. Stream size                              : 8.39 MiB (0%)
  344. Title                                    : Polish
  345. Language                                 : Polish
  346. Default                                  : No
  347. Forced                                   : No

  348. Text #22
  349. ID                                       : 25
  350. Format                                   : PGS
  351. Codec ID                                 : S_HDMV/PGS
  352. Codec ID/Info                            : Picture based subtitle format used on BDs/HD-DVDs
  353. Duration                                 : 1 h 30 min
  354. Bit rate                                 : 13.9 kb/s
  355. Count of elements                        : 1154
  356. Stream size                              : 8.93 MiB (0%)
  357. Title                                    : Portuguese
  358. Language                                 : Portuguese
  359. Default                                  : No
  360. Forced                                   : No

  361. Text #23
  362. ID                                       : 26
  363. Format                                   : PGS
  364. Codec ID                                 : S_HDMV/PGS
  365. Codec ID/Info                            : Picture based subtitle format used on BDs/HD-DVDs
  366. Duration                                 : 1 h 30 min
  367. Bit rate                                 : 16.6 kb/s
  368. Count of elements                        : 1180
  369. Stream size                              : 10.7 MiB (0%)
  370. Title                                    : Portuguese
  371. Language                                 : Portuguese
  372. Default                                  : No
  373. Forced                                   : No

  374. Text #24
  375. ID                                       : 27
  376. Format                                   : PGS
  377. Codec ID                                 : S_HDMV/PGS
  378. Codec ID/Info                            : Picture based subtitle format used on BDs/HD-DVDs
  379. Duration                                 : 1 h 30 min
  380. Bit rate                                 : 15.8 kb/s
  381. Count of elements                        : 1190
  382. Stream size                              : 10.2 MiB (0%)
  383. Title                                    : Romanian
  384. Language                                 : Romanian
  385. Default                                  : No
  386. Forced                                   : No

  387. Text #25
  388. ID                                       : 28
  389. Format                                   : PGS
  390. Codec ID                                 : S_HDMV/PGS
  391. Codec ID/Info                            : Picture based subtitle format used on BDs/HD-DVDs
  392. Duration                                 : 1 h 30 min
  393. Bit rate                                 : 14.1 kb/s
  394. Count of elements                        : 1176
  395. Stream size                              : 9.09 MiB (0%)
  396. Title                                    : Slovak
  397. Language                                 : Slovak
  398. Default                                  : No
  399. Forced                                   : No

  400. Text #26
  401. ID                                       : 29
  402. Format                                   : PGS
  403. Codec ID                                 : S_HDMV/PGS
  404. Codec ID/Info                            : Picture based subtitle format used on BDs/HD-DVDs
  405. Duration                                 : 1 h 30 min
  406. Bit rate                                 : 13.1 kb/s
  407. Count of elements                        : 1174
  408. Stream size                              : 8.44 MiB (0%)
  409. Title                                    : Slovenian
  410. Language                                 : Slovenian
  411. Default                                  : No
  412. Forced                                   : No

  413. Text #27
  414. ID                                       : 30
  415. Format                                   : PGS
  416. Codec ID                                 : S_HDMV/PGS
  417. Codec ID/Info                            : Picture based subtitle format used on BDs/HD-DVDs
  418. Duration                                 : 1 h 30 min
  419. Bit rate                                 : 15.2 kb/s
  420. Count of elements                        : 1222
  421. Stream size                              : 9.78 MiB (0%)
  422. Title                                    : Spanish
  423. Language                                 : Spanish
  424. Default                                  : No
  425. Forced                                   : No

  426. Text #28
  427. ID                                       : 31
  428. Format                                   : PGS
  429. Codec ID                                 : S_HDMV/PGS
  430. Codec ID/Info                            : Picture based subtitle format used on BDs/HD-DVDs
  431. Duration                                 : 1 h 30 min
  432. Bit rate                                 : 15.3 kb/s
  433. Count of elements                        : 1164
  434. Stream size                              : 9.83 MiB (0%)
  435. Title                                    : Spanish
  436. Language                                 : Spanish
  437. Default                                  : No
  438. Forced                                   : No

  439. Text #29
  440. ID                                       : 32
  441. Format                                   : PGS
  442. Codec ID                                 : S_HDMV/PGS
  443. Codec ID/Info                            : Picture based subtitle format used on BDs/HD-DVDs
  444. Duration                                 : 1 h 30 min
  445. Bit rate                                 : 14.7 kb/s
  446. Count of elements                        : 994
  447. Stream size                              : 9.47 MiB (0%)
  448. Title                                    : Swedish
  449. Language                                 : Swedish
  450. Default                                  : No
  451. Forced                                   : No

  452. Menu
  453. 00:00:00.000                             : :
  454. 00:07:32.368                             : :
  455. 00:13:39.151                             : :
  456. 00:18:25.437                             : :
  457. 00:25:13.345                             : :
  458. 00:30:07.806                             : :
  459. 00:32:18.478                             : :
  460. 00:38:53.497                             : :
  461. 00:44:21.784                             : :
  462. 00:50:56.053                             : :
  463. 00:55:23.403                             : :
  464. 01:01:46.160                             : :
  465. 01:08:50.292                             : :
  466. 01:14:42.769                             : :
  467. 01:19:12.664                             : :
  468. 01:24:15.050                             : :
复制代码

















   




本帖隐藏的下载地址需要VIP会员才可阅读,您需要升级才可阅读,点击这里升级VIP
回复

使用道具 举报

级别:普通观众 Lv.2

注册时间
2019-12-28
最后登录
2020-11-28
听众
4
收听
0
主题
0
蓝光币
6 枚
贡献
0 点
发表于 前天 09:51 | 显示全部楼层
楼主发贴辛苦了,谢谢楼主分享!我觉得中国高清电影网是注册对了!
回复

使用道具 举报

懒得打字嘛,点击右侧快捷回复 【右侧内容,后台自定义】
您需要登录后才可以回帖 登录 | 立即注册

本版积分规则

Archiver|手机版|小黑屋| 中国高清网 ( ICP备17007870号-2 ) |网站地图 

GMT+8, 2020-11-29 17:54 , Processed in 0.270183 second(s), 40 queries .

Powered by HDchina X3.4

Copyright 2017-2019©HDchina.All right reserved

返回顶部 联系我们