查看: 99|回复: 0

[10bit.SDR] 秃鹰七十二小时/秃鹰72小时 Three.Days.of.the.Condor.1975.2160p.BluRay.x265.10bit.SDR.DTS-HD.MA.5.1-SWTYBLZ 47.77GB

[复制链接]

 成长值: 8350

级别:资源管理组

注册时间
2017-10-20
最后登录
2020-11-29
听众
1
收听
0
主题
106079
蓝光币
219223 枚
贡献
21715 点
发表于 2020-11-21 23:35:05 | 显示全部楼层 |阅读模式




译  名 秃鹰七十二小时 / 秃鹰72小时 / 秃鹰的三天 / 豪杰不流泪 / 追杀
片  名 Three Days of the Condor
年  代 1975
产  地 美国
类  别 剧情 / 行动 / 惊悚
语  言 英语 / 法语
上映日期 1975-09-24(美国)
IMDb评分  7.4/10 from 46913 users
IMDb链接  https://www.imdb.com/title/tt0073802
豆瓣评分 6.9/10 from 1060 users
豆瓣链接 https://movie.douban.com/subject/1299170/
片  长 117分钟
导  演 西德尼·波拉克 Sydney Pollack / 彼特·克林逊 Peter Collinson
编  剧 詹姆斯·格雷迪 James Grady / 洛伦佐·森普尔 Lorenzo Semple Jr. / 大卫·雷菲尔德 David Rayfiel / 大卫·D·奥斯本 David D. Osborn
主  演 罗伯特·雷德福 Robert Redford
       费·唐纳薇 Faye Dunaway
       克里夫·罗伯逊 Cliff Robertson
       马克斯·冯·叙多夫 Max von Sydow
       约翰·豪斯曼 John Houseman
       艾迪生·鲍威尔 Addison Powell
       沃尔特·麦金恩 Walter McGinn
       蒂娜·陈 Tina Chen
       唐麦克亨利 Don McHenry
       杰斯·奥苏纳 Jess Osuna
       迪诺·纳里扎诺 Dino Narizzano
       理查德·林奇 Richard Lynch
       彼得·方达 Peter Fonda
       西蒙·安德鲁 Simón Andreu
       Concha Cuetos
       弗兰克·布拉尼亚 Frank Bra?a
       阿尔维托·德·门多萨 Alberto de Mendoza
       William Layton
       赫尔佳·丽列 Helga Liné
       Gudrun McCleary
       科妮莉娅·夏普 Cornelia Sharpe
       Loreta Tovar
       约翰·菲利浦·劳 John Phillip Law
       威廉·霍尔登 William Holden


标  签 美国 | 悬疑 | 特务 | 美国电影 | 1975 | 西德尼·波拉克 | RobertRedford | 1970s

简  介  

  美国中心情报局观察员透纳,自从发现局内不成告人的活动,就此身陷连续串灾难事务。一日,两名男人冲进办公室,狙杀一切的员工,惟有透纳有幸逃走。

获奖情况  

  第48届奥斯卡金像奖(1976)
  最好剪辑(提名) Fredric Steinkamp / Don Guidice

  1. Video
  2. ID                                       : 1
  3. Format                                   : HEVC
  4. Format/Info                              : High Efficiency Video Coding
  5. Format profile                           : Main 10@L5.1@High
  6. Codec ID                                 : V_MPEGH/ISO/HEVC
  7. Duration                                 : 1 h 57 min
  8. Bit rate                                 : 53.4 Mb/s
  9. Width                                    : 3 840 pixels
  10. Height                                   : 1 606 pixels
  11. Display aspect ratio                     : 2.40:1
  12. Frame rate mode                          : Constant
  13. Frame rate                               : 24.000 FPS
  14. Color space                              : YUV
  15. Chroma subsampling                       : 4:2:0
  16. Bit depth                                : 10 bits
  17. Bits/(Pixel*Frame)                       : 0.361
  18. Stream size                              : 43.8 GiB (92%)
  19. Title                                    : Three.Days.of.the.Condor.1975.2160p.BluRay.x265.10bit.SDR.DTS-HD.MA.5.1-SWTYBLZ
  20. Writing library                          : x265 3.0+1-ed72af837053:[Windows][GCC 8.2.0][64 bit] 10bit
  21. Encoding settings                        : cpuid=1111039 / frame-threads=6 / numa-pools=40 / wpp / no-pmode / no-pme / no-psnr / no-ssim / log-level=2 / input-csp=1 / input-res=3840x1606 / interlace=0 / total-frames=169126 / level-idc=51 / high-tier=1 / uhd-bd=0 / ref=3 / no-allow-non-conformance / repeat-headers / annexb / aud / hrd / info / hash=0 / no-temporal-layers / no-open-gop / min-keyint=1 / keyint=24 / gop-lookahead=0 / bframes=4 / b-adapt=2 / b-pyramid / bframe-bias=0 / rc-lookahead=25 / lookahead-slices=4 / scenecut=40 / radl=0 / no-splice / no-intra-refresh / ctu=64 / min-cu-size=8 / no-rect / no-amp / max-tu-size=32 / tu-inter-depth=1 / tu-intra-depth=1 / limit-tu=0 / rdoq-level=0 / dynamic-rd=0.00 / no-ssim-rd / signhide / no-tskip / nr-intra=0 / nr-inter=0 / no-constrained-intra / strong-intra-smoothing / max-merge=2 / limit-refs=3 / no-limit-modes / me=1 / subme=2 / merange=57 / temporal-mvp / weightp / no-weightb / no-analyze-src-pics / deblock=0:0 / no-sao / no-sao-non-deblock / rd=3 / no-early-skip / rskip / no-fast-intra / no-tskip-fast / no-cu-lossless / no-b-intra / no-splitrd-skip / rdpenalty=0 / psy-rd=2.00 / psy-rdoq=0.00 / no-rd-refine / no-lossless / cbqpoffs=0 / crqpoffs=0 / rc=crf / crf=18.0 / qcomp=0.60 / qpstep=4 / stats-write=0 / stats-read=0 / vbv-maxrate=160000 / vbv-bufsize=160000 / vbv-init=0.9 / crf-max=0.0 / crf-min=0.0 / ipratio=1.40 / pbratio=1.30 / aq-mode=1 / aq-strength=1.00 / cutree / zone-count=0 / no-strict-cbr / qg-size=32 / no-rc-grain / qpmax=69 / qpmin=0 / no-const-vbv / sar=1 / overscan=0 / videoformat=5 / range=0 / colorprim=2 / transfer=2 / colormatrix=2 / chromaloc=0 / display-window=0 / max-cll=0,0 / min-luma=0 / max-luma=1023 / log2-max-poc-lsb=8 / vui-timing-info / vui-hrd-info / slices=1 / opt-qp-pps / opt-ref-list-length-pps / no-multi-pass-opt-rps / scenecut-bias=0.05 / no-opt-cu-delta-qp / no-aq-motion / no-hdr / no-hdr-opt / no-dhdr10-opt / no-idr-recovery-sei / analysis-reuse-level=5 / scale-factor=0 / refine-intra=0 / refine-inter=0 / refine-mv=0 / refine-ctu-distortion=0 / no-limit-sao / ctu-info=0 / no-lowpass-dct / refine-analysis-type=0 / copy-pic=1 / max-ausize-factor=1.0 / no-dynamic-refine / no-single-sei / no-hevc-aq / qp-adaptation-range=1.00
  22. Default                                  : Yes
  23. Forced                                   : No

  24. Audio #1
  25. ID                                       : 2
  26. Format                                   : DTS XLL
  27. Format/Info                              : Digital Theater Systems
  28. Commercial name                          : DTS-HD Master Audio
  29. Codec ID                                 : A_DTS
  30. Duration                                 : 1 h 57 min
  31. Bit rate mode                            : Variable
  32. Bit rate                                 : 3 736 kb/s
  33. Channel(s)                               : 6 channels
  34. Channel layout                           : C L R Ls Rs LFE
  35. Sampling rate                            : 48.0 kHz
  36. Frame rate                               : 93.750 FPS (512 SPF)
  37. Bit depth                                : 24 bits
  38. Compression mode                         : Lossless
  39. Stream size                              : 3.07 GiB (6%)
  40. Title                                    : Three.Days.of.the.Condor.1975.2160p.BluRay.x265.10bit.SDR.DTS-HD.MA.5.1-SWTYBLZ
  41. Language                                 : English
  42. Default                                  : Yes
  43. Forced                                   : No

  44. Audio #2
  45. ID                                       : 3
  46. Format                                   : AC-3
  47. Format/Info                              : Audio Coding 3
  48. Commercial name                          : Dolby Digital
  49. Codec ID                                 : A_AC3
  50. Duration                                 : 1 h 57 min
  51. Bit rate mode                            : Constant
  52. Bit rate                                 : 640 kb/s
  53. Channel(s)                               : 6 channels
  54. Channel layout                           : L R C LFE Ls Rs
  55. Sampling rate                            : 48.0 kHz
  56. Frame rate                               : 31.250 FPS (1536 SPF)
  57. Compression mode                         : Lossy
  58. Stream size                              : 538 MiB (1%)
  59. Title                                    : Three.Days.of.the.Condor.1975.2160p.BluRay.x265.10bit.SDR.DTS-HD.MA.5.1-SWTYBLZ
  60. Language                                 : English
  61. Service kind                             : Complete Main
  62. Default                                  : No
  63. Forced                                   : No

  64. Text #1
  65. ID                                       : 4
  66. Format                                   : UTF-8
  67. Codec ID                                 : S_TEXT/UTF8
  68. Codec ID/Info                            : UTF-8 Plain Text
  69. Duration                                 : 8 s 287 ms
  70. Bit rate                                 : 80 b/s
  71. Count of elements                        : 3
  72. Stream size                              : 83.0 Bytes (0%)
  73. Title                                    : English-FORCED-SRT
  74. Language                                 : English
  75. Default                                  : Yes
  76. Forced                                   : Yes

  77. Text #2
  78. ID                                       : 5
  79. Format                                   : UTF-8
  80. Codec ID                                 : S_TEXT/UTF8
  81. Codec ID/Info                            : UTF-8 Plain Text
  82. Duration                                 : 1 h 54 min
  83. Bit rate                                 : 46 b/s
  84. Count of elements                        : 1225
  85. Stream size                              : 38.8 KiB (0%)
  86. Title                                    : English-SRT
  87. Language                                 : English
  88. Default                                  : No
  89. Forced                                   : No

  90. Text #3
  91. ID                                       : 6
  92. Format                                   : PGS
  93. Muxing mode                              : zlib
  94. Codec ID                                 : S_HDMV/PGS
  95. Codec ID/Info                            : Picture based subtitle format used on BDs/HD-DVDs
  96. Duration                                 : 8 s 291 ms
  97. Bit rate                                 : 58.9 kb/s
  98. Count of elements                        : 6
  99. Stream size                              : 59.7 KiB (0%)
  100. Title                                    : English-FORCED-PGS
  101. Language                                 : English
  102. Default                                  : No
  103. Forced                                   : No

  104. Text #4
  105. ID                                       : 7
  106. Format                                   : PGS
  107. Muxing mode                              : zlib
  108. Codec ID                                 : S_HDMV/PGS
  109. Codec ID/Info                            : Picture based subtitle format used on BDs/HD-DVDs
  110. Duration                                 : 1 h 54 min
  111. Bit rate                                 : 27.8 kb/s
  112. Count of elements                        : 2456
  113. Stream size                              : 22.8 MiB (0%)
  114. Title                                    : English-PGS
  115. Language                                 : English
  116. Default                                  : No
  117. Forced                                   : No

  118. Text #5
  119. ID                                       : 8
  120. Format                                   : PGS
  121. Muxing mode                              : zlib
  122. Codec ID                                 : S_HDMV/PGS
  123. Codec ID/Info                            : Picture based subtitle format used on BDs/HD-DVDs
  124. Duration                                 : 1 h 54 min
  125. Bit rate                                 : 29.8 kb/s
  126. Count of elements                        : 2658
  127. Stream size                              : 24.4 MiB (0%)
  128. Title                                    : English-SDH-PGS
  129. Language                                 : English
  130. Default                                  : No
  131. Forced                                   : No

  132. Text #6
  133. ID                                       : 9
  134. Format                                   : PGS
  135. Muxing mode                              : zlib
  136. Codec ID                                 : S_HDMV/PGS
  137. Codec ID/Info                            : Picture based subtitle format used on BDs/HD-DVDs
  138. Duration                                 : 1 h 55 min
  139. Bit rate                                 : 21.2 kb/s
  140. Count of elements                        : 1992
  141. Stream size                              : 17.5 MiB (0%)
  142. Title                                    : Danish-PGS
  143. Language                                 : Danish
  144. Default                                  : No
  145. Forced                                   : No

  146. Text #7
  147. ID                                       : 10
  148. Format                                   : PGS
  149. Muxing mode                              : zlib
  150. Codec ID                                 : S_HDMV/PGS
  151. Codec ID/Info                            : Picture based subtitle format used on BDs/HD-DVDs
  152. Duration                                 : 1 h 56 min
  153. Bit rate                                 : 20.6 kb/s
  154. Count of elements                        : 1972
  155. Stream size                              : 17.2 MiB (0%)
  156. Title                                    : Finnish-PGS
  157. Language                                 : Finnish
  158. Default                                  : No
  159. Forced                                   : No

  160. Text #8
  161. ID                                       : 11
  162. Format                                   : PGS
  163. Muxing mode                              : zlib
  164. Codec ID                                 : S_HDMV/PGS
  165. Codec ID/Info                            : Picture based subtitle format used on BDs/HD-DVDs
  166. Duration                                 : 1 h 55 min
  167. Bit rate                                 : 28.8 kb/s
  168. Count of elements                        : 2508
  169. Stream size                              : 23.8 MiB (0%)
  170. Title                                    : French-PGS
  171. Language                                 : French
  172. Default                                  : No
  173. Forced                                   : No

  174. Text #9
  175. ID                                       : 12
  176. Format                                   : PGS
  177. Muxing mode                              : zlib
  178. Codec ID                                 : S_HDMV/PGS
  179. Codec ID/Info                            : Picture based subtitle format used on BDs/HD-DVDs
  180. Duration                                 : 1 h 56 min
  181. Bit rate                                 : 20.9 kb/s
  182. Count of elements                        : 1988
  183. Stream size                              : 17.3 MiB (0%)
  184. Title                                    : French-PGS
  185. Language                                 : French
  186. Default                                  : No
  187. Forced                                   : No

  188. Text #10
  189. ID                                       : 13
  190. Format                                   : PGS
  191. Muxing mode                              : zlib
  192. Codec ID                                 : S_HDMV/PGS
  193. Codec ID/Info                            : Picture based subtitle format used on BDs/HD-DVDs
  194. Duration                                 : 1 h 55 min
  195. Bit rate                                 : 26.0 kb/s
  196. Count of elements                        : 1738
  197. Stream size                              : 21.4 MiB (0%)
  198. Title                                    : German-PGS
  199. Language                                 : German
  200. Default                                  : No
  201. Forced                                   : No

  202. Text #11
  203. ID                                       : 14
  204. Format                                   : PGS
  205. Muxing mode                              : zlib
  206. Codec ID                                 : S_HDMV/PGS
  207. Codec ID/Info                            : Picture based subtitle format used on BDs/HD-DVDs
  208. Duration                                 : 1 h 55 min
  209. Bit rate                                 : 20.3 kb/s
  210. Count of elements                        : 1988
  211. Stream size                              : 16.8 MiB (0%)
  212. Title                                    : Dutch-PGS
  213. Language                                 : Dutch
  214. Default                                  : No
  215. Forced                                   : No

  216. Text #12
  217. ID                                       : 15
  218. Format                                   : PGS
  219. Muxing mode                              : zlib
  220. Codec ID                                 : S_HDMV/PGS
  221. Codec ID/Info                            : Picture based subtitle format used on BDs/HD-DVDs
  222. Duration                                 : 1 h 54 min
  223. Bit rate                                 : 18.3 kb/s
  224. Count of elements                        : 1990
  225. Stream size                              : 15.0 MiB (0%)
  226. Title                                    : Norwegian-PGS
  227. Language                                 : Norwegian
  228. Default                                  : No
  229. Forced                                   : No

  230. Text #13
  231. ID                                       : 16
  232. Format                                   : PGS
  233. Muxing mode                              : zlib
  234. Codec ID                                 : S_HDMV/PGS
  235. Codec ID/Info                            : Picture based subtitle format used on BDs/HD-DVDs
  236. Duration                                 : 1 h 56 min
  237. Bit rate                                 : 26.7 kb/s
  238. Count of elements                        : 2386
  239. Stream size                              : 22.2 MiB (0%)
  240. Title                                    : Japanese-PGS
  241. Language                                 : Japanese
  242. Default                                  : No
  243. Forced                                   : No

  244. Text #14
  245. ID                                       : 17
  246. Format                                   : PGS
  247. Muxing mode                              : zlib
  248. Codec ID                                 : S_HDMV/PGS
  249. Codec ID/Info                            : Picture based subtitle format used on BDs/HD-DVDs
  250. Duration                                 : 1 h 56 min
  251. Bit rate                                 : 26.9 kb/s
  252. Count of elements                        : 1926
  253. Stream size                              : 22.3 MiB (0%)
  254. Title                                    : Spanish-PGS
  255. Language                                 : Spanish
  256. Default                                  : No
  257. Forced                                   : No

  258. Text #15
  259. ID                                       : 18
  260. Format                                   : PGS
  261. Muxing mode                              : zlib
  262. Codec ID                                 : S_HDMV/PGS
  263. Codec ID/Info                            : Picture based subtitle format used on BDs/HD-DVDs
  264. Duration                                 : 1 h 54 min
  265. Bit rate                                 : 26.6 kb/s
  266. Count of elements                        : 2508
  267. Stream size                              : 21.8 MiB (0%)
  268. Title                                    : Spanish-PGS
  269. Language                                 : Spanish
  270. Default                                  : No
  271. Forced                                   : No

  272. Text #16
  273. ID                                       : 19
  274. Format                                   : PGS
  275. Muxing mode                              : zlib
  276. Codec ID                                 : S_HDMV/PGS
  277. Codec ID/Info                            : Picture based subtitle format used on BDs/HD-DVDs
  278. Duration                                 : 1 h 55 min
  279. Bit rate                                 : 27.8 kb/s
  280. Count of elements                        : 1734
  281. Stream size                              : 22.9 MiB (0%)
  282. Title                                    : Turkish-PGS
  283. Language                                 : Turkish
  284. Default                                  : No
  285. Forced                                   : No

  286. Menu
  287. 00:00:00.000                             : en:The American Literary Historical Society
  288. 00:09:33.000                             : en:Out To Lunch
  289. 00:19:01.000                             : en:Condor
  290. 00:27:45.000                             : en:The Ansonia Hotel
  291. 00:33:26.000                             : en:Still In Flight
  292. 00:40:45.000                             : en:Same Safe Quiet Time
  293. 00:52:30.000                             : en:Sam\'s Apartment
  294. 01:00:10.000                             : en:Lonely Pictures
  295. 01:09:40.000                             : en:The Mailman
  296. 01:19:47.000                             : en:Sparrow Hawk
  297. 01:25:27.000                             : en:The Suspicion Business
  298. 01:28:52.000                             : en:Leonard Atwood
  299. 01:36:33.000                             : en:Fine Qualities
  300. 01:41:24.000                             : en:Oil Fields
  301. 01:45:54.000                             : en:For That Day
  302. 01:51:09.000                             : en:Telling Stories
复制代码
































   




本帖隐藏的下载地址需要VIP会员才可阅读,您需要升级才可阅读,点击这里升级VIP
回复

使用道具 举报

懒得打字嘛,点击右侧快捷回复 【右侧内容,后台自定义】
您需要登录后才可以回帖 登录 | 立即注册

本版积分规则

Archiver|手机版|小黑屋| 中国高清网 ( ICP备17007870号-2 ) |网站地图 

GMT+8, 2020-11-29 19:02 , Processed in 0.202119 second(s), 40 queries .

Powered by HDchina X3.4

Copyright 2017-2019©HDchina.All right reserved

返回顶部 联系我们