查看: 385|回复: 6

[10bit.HDR] 小鬼当家/宝贝智多星 Home.Alone.1990.2160p.UHD.BluRay.x265.10bit.HDR.DTS-HD.MA.5.1-B0MBARDiERS 35.80GB

[复制链接]

 成长值: 7735

级别:资源管理组

注册时间
2017-10-20
最后登录
2020-10-23
听众
1
收听
0
主题
104417
蓝光币
207778 枚
贡献
21715 点
发表于 2020-10-16 21:00:44 | 显示全部楼层 |阅读模式




译  名 小鬼当家 / 宝贝智多星 / 独安闲家
片  名 Home Alone
年  代 1990
产  地 美国
类  别 笑剧 / 家庭 / 犯罪
语  言 英语
上映日期 1990-11-16
IMDb评分  7.6/10 from 447181 users
IMDb链接  https://www.imdb.com/title/tt0099785
豆瓣评分 8.3/10 from 299049 users
豆瓣链接 https://movie.douban.com/subject/1293088/
片  长 103分钟
导  演 克里斯·哥伦布 Chris Columbus
编  剧 约翰·休斯 John Hughes
主  演 麦考利·卡尔金 Macaulay Culkin
       乔·佩西 Joe Pesci
       丹尼尔·斯特恩 Daniel Stern
       约翰·赫德 John Heard
       罗伯茨·布洛瑟姆 Roberts Blossom
       凯瑟琳·欧哈拉 Catherine O'Hara
       安吉拉·戈塔尔斯 Angela Goethals
       戴文·雷特瑞 Devin Ratray
       杰瑞·巴曼 Gerry Bamman
       希拉里?沃尔夫 Hillary Wolf
       约翰·坎迪 John Candy
       拉里·哈金 Larry Hankin
       迈克尔·C·莫罗纳 Michael C. Maronna
       克里斯汀·敏特尔 Kristin Minter
       戴阿娜·坎佩露 Daiana Campeanu
       杰迪代亚·科恩 Jedidiah Cohen
       基南·卡尔金 Kieran Culkin
       森塔·摩西 Senta Moses
       泰利·斯内尔 Terrie Snell
       马特·多赫蒂 Matt Doherty
       拉尔夫·富迪 Ralph Foody
       Michael Guido
       雷·托勒 Ray Toler
       Billie Bird
       比尔·厄尔文 Bill Erwin
       格里·贝克尔 Gerry Becker
       克拉克·德弗洛 Clarke Devereux
       Dan Charles Zukoski
       霍普·戴维斯 Hope Davis
       詹姆斯·雷恩 James Ryan
       肯·哈德森·坎贝尔 Ken Hudson Campbell
       吉姆·奥特莱比 Jim Ortlieb
       莱昂纳尔·巴里摩尔 Lionel Barrymore
       奎因.卡尔金 Quinn Culkin
       拉加·高斯内尔 Raja Gosnell
       James M. Huffman
       宝拉·纽瑟姆 Paula Newsome
       Yuri Rutman
       Luciano Saber


标  签 笑剧 | 美国 | 小鬼当家 | 儿童 | 搞笑 | 典范 | 美国电影 | 电影

简  介  

  一年一度的圣诞节又到了。百口忙着外出欢度圣诞假期,不意忙中出错,将家里最小的成员——8岁的凯文(麦考利?卡尔金 Macaulay Culkin 饰)留在了家里。爸爸妈妈急坏了,可此时他们已经身在外地,一时亦无可何如。却是凯文乐坏了,可贵一小我在家,凯文将家里安插成了“游乐场”。
  两个刚出狱的窃贼将眼光瞄向了凯文家。当他们鬼头鬼脑的踏入凯文家时,凯文凭仗自己的夺目和家里的“游乐场机关”,和两个笨贼玩起了“游戏”,笑料百出。凯文最初能否这场“游戏”的成功?

获奖情况  

  第63届奥斯卡金像奖(1991)
  最好原创配乐(提名) 约翰·威廉姆斯
  最好原创歌曲(提名) 莱斯利·布里克斯 / 约翰·威廉姆斯

  1. Video
  2. ID                                       : 1
  3. Format                                   : HEVC
  4. Format/Info                              : High Efficiency Video Coding
  5. Format profile                           : Main 10@L5.1@High
  6. HDR format                               : SMPTE ST 2086, HDR10 compatible
  7. Codec ID                                 : V_MPEGH/ISO/HEVC
  8. Duration                                 : 1 h 42 min
  9. Bit rate                                 : 45.6 Mb/s
  10. Width                                    : 3 840 pixels
  11. Height                                   : 2 076 pixels
  12. Display aspect ratio                     : 1.85:1
  13. Frame rate mode                          : Constant
  14. Frame rate                               : 23.976 (24000/1001/45378) FPS
  15. Color space                              : YUV
  16. Chroma subsampling                       : 4:2:0 (Type 2)
  17. Bit depth                                : 10 bits
  18. Bits/(Pixel*Frame)                       : 0.239
  19. Stream size                              : 32.8 GiB (93%)
  20. Writing library                          : x265 3.4+26-ga82c6c7a7:[Windows][GCC 10.2.1][64 bit] 10bit
  21. Encoding settings                        : cpuid=1176575 / frame-threads=6 / numa-pools=36 / wpp / no-pmode / no-pme / no-psnr / no-ssim / log-level=2 / input-csp=1 / input-res=3840x2076 / interlace=0 / total-frames=147955 / level-idc=51 / high-tier=1 / uhd-bd=0 / ref=4 / no-allow-non-conformance / repeat-headers / annexb / aud / hrd / info / hash=0 / no-temporal-layers / open-gop / min-keyint=23 / keyint=250 / gop-lookahead=0 / bframes=4 / b-adapt=2 / b-pyramid / bframe-bias=0 / rc-lookahead=25 / lookahead-slices=4 / scenecut=40 / hist-scenecut=0 / radl=0 / no-splice / no-intra-refresh / ctu=64 / min-cu-size=8 / rect / no-amp / max-tu-size=32 / tu-inter-depth=1 / tu-intra-depth=1 / limit-tu=0 / rdoq-level=2 / dynamic-rd=0.00 / no-ssim-rd / signhide / no-tskip / nr-intra=0 / nr-inter=0 / no-constrained-intra / strong-intra-smoothing / max-merge=3 / limit-refs=3 / limit-modes / me=3 / subme=3 / merange=57 / temporal-mvp / no-frame-dup / no-hme / weightp / no-weightb / no-analyze-src-pics / deblock=-3:-3 / no-sao / no-sao-non-deblock / rd=4 / selective-sao=0 / no-early-skip / rskip / no-fast-intra / no-tskip-fast / no-cu-lossless / no-b-intra / no-splitrd-skip / rdpenalty=0 / psy-rd=2.00 / psy-rdoq=1.00 / no-rd-refine / no-lossless / cbqpoffs=0 / crqpoffs=0 / rc=crf / crf=15.5 / qcomp=0.60 / qpstep=4 / stats-write=0 / stats-read=0 / vbv-maxrate=160000 / vbv-bufsize=160000 / vbv-init=0.9 / min-vbv-fullness=50.0 / max-vbv-fullness=80.0 / crf-max=0.0 / crf-min=0.0 / ipratio=1.40 / pbratio=1.30 / aq-mode=2 / aq-strength=1.00 / cutree / zone-count=0 / no-strict-cbr / qg-size=32 / no-rc-grain / qpmax=69 / qpmin=0 / no-const-vbv / sar=1 / overscan=0 / videoformat=5 / range=0 / colorprim=9 / transfer=16 / colormatrix=9 / chromaloc=1 / chromaloc-top=2 / chromaloc-bottom=2 / display-window=0 / master-display=G(13250,34500)B(7500,3000)R(34000,16000)WP(15635,16450)L(10000000,1) / cll=0,0 / min-luma=0 / max-luma=1023 / log2-max-poc-lsb=8 / vui-timing-info / vui-hrd-info / slices=1 / no-opt-qp-pps / no-opt-ref-list-length-pps / no-multi-pass-opt-rps / scenecut-bias=0.05 / hist-threshold=0.03 / no-opt-cu-delta-qp / no-aq-motion / hdr10 / hdr10-opt / no-dhdr10-opt / no-idr-recovery-sei / analysis-reuse-level=0 / analysis-save-reuse-level=0 / analysis-load-reuse-level=0 / scale-factor=0 / refine-intra=0 / refine-inter=0 / refine-mv=1 / refine-ctu-distortion=0 / no-limit-sao / ctu-info=0 / no-lowpass-dct / refine-analysis-type=0 / copy-pic=1 / max-ausize-factor=1.0 / no-dynamic-refine / no-single-sei / no-hevc-aq / no-svt / no-field / qp-adaptation-range=1.00 / no-scenecut-aware-qpconformance-window-offsets / right=0 / bottom=0 / decoder-max-rate=0 / no-vbv-live-multi-pass
  22. Default                                  : Yes
  23. Forced                                   : No
  24. Color range                              : Limited
  25. Color primaries                          : BT.2020
  26. Transfer characteristics                 : PQ
  27. Matrix coefficients                      : BT.2020 non-constant
  28. Mastering display color primaries        : Display P3
  29. Mastering display luminance              : min: 0.0001 cd/m2, max: 1000 cd/m2
  30. Audio
  31. ID                                       : 2
  32. Format                                   : DTS XLL
  33. Format/Info                              : Digital Theater Systems
  34. Commercial name                          : DTS-HD Master Audio
  35. Codec ID                                 : A_DTS
  36. Duration                                 : 1 h 42 min
  37. Bit rate mode                            : Variable
  38. Bit rate                                 : 3 569 kb/s
  39. Channel(s)                               : 6 channels
  40. Channel layout                           : C L R Ls Rs LFE
  41. Sampling rate                            : 48.0 kHz
  42. Frame rate                               : 93.750 FPS (512 SPF)
  43. Bit depth                                : 24 bits
  44. Compression mode                         : Lossless
  45. Stream size                              : 2.56 GiB (7%)
  46. Language                                 : English
  47. Default                                  : Yes
  48. Forced                                   : No
  49. Text #1
  50. ID                                       : 3
  51. Format                                   : PGS
  52. Muxing mode                              : zlib
  53. Codec ID                                 : S_HDMV/PGS
  54. Codec ID/Info                            : Picture based subtitle format used on BDs/HD-DVDs
  55. Duration                                 : 1 h 40 min
  56. Bit rate                                 : 43.1 kb/s
  57. Count of elements                        : 2582
  58. Stream size                              : 31.0 MiB (0%)
  59. Title                                    : English SDH
  60. Language                                 : English
  61. Default                                  : No
  62. Forced                                   : No
  63. Text #2
  64. ID                                       : 4
  65. Format                                   : PGS
  66. Muxing mode                              : zlib
  67. Codec ID                                 : S_HDMV/PGS
  68. Codec ID/Info                            : Picture based subtitle format used on BDs/HD-DVDs
  69. Duration                                 : 1 h 41 min
  70. Bit rate                                 : 27.3 kb/s
  71. Count of elements                        : 1992
  72. Stream size                              : 19.9 MiB (0%)
  73. Title                                    : French
  74. Language                                 : French
  75. Default                                  : No
  76. Forced                                   : No
  77. Text #3
  78. ID                                       : 5
  79. Format                                   : PGS
  80. Muxing mode                              : zlib
  81. Codec ID                                 : S_HDMV/PGS
  82. Codec ID/Info                            : Picture based subtitle format used on BDs/HD-DVDs
  83. Duration                                 : 1 h 41 min
  84. Bit rate                                 : 26.2 kb/s
  85. Count of elements                        : 2024
  86. Stream size                              : 19.0 MiB (0%)
  87. Title                                    : Spanish
  88. Language                                 : Spanish
  89. Default                                  : No
  90. Forced                                   : No
  91. Text #4
  92. ID                                       : 6
  93. Format                                   : PGS
  94. Muxing mode                              : zlib
  95. Codec ID                                 : S_HDMV/PGS
  96. Codec ID/Info                            : Picture based subtitle format used on BDs/HD-DVDs
  97. Duration                                 : 1 h 37 min
  98. Bit rate                                 : 17.0 kb/s
  99. Count of elements                        : 1900
  100. Stream size                              : 11.8 MiB (0%)
  101. Title                                    : Japanese
  102. Language                                 : Japanese
  103. Default                                  : No
  104. Forced                                   : No
  105. Text #5
  106. ID                                       : 7
  107. Format                                   : PGS
  108. Muxing mode                              : zlib
  109. Codec ID                                 : S_HDMV/PGS
  110. Codec ID/Info                            : Picture based subtitle format used on BDs/HD-DVDs
  111. Duration                                 : 1 h 7 min
  112. Bit rate                                 : 268 b/s
  113. Count of elements                        : 14
  114. Stream size                              : 132 KiB (0%)
  115. Title                                    : French
  116. Language                                 : French
  117. Default                                  : No
  118. Forced                                   : No
  119. Text #6
  120. ID                                       : 8
  121. Format                                   : PGS
  122. Muxing mode                              : zlib
  123. Codec ID                                 : S_HDMV/PGS
  124. Codec ID/Info                            : Picture based subtitle format used on BDs/HD-DVDs
  125. Duration                                 : 1 h 7 min
  126. Bit rate                                 : 295 b/s
  127. Count of elements                        : 18
  128. Stream size                              : 146 KiB (0%)
  129. Title                                    : Spanish
  130. Language                                 : Spanish
  131. Default                                  : No
  132. Forced                                   : No
  133. Text #7
  134. ID                                       : 9
  135. Format                                   : PGS
  136. Muxing mode                              : zlib
  137. Codec ID                                 : S_HDMV/PGS
  138. Codec ID/Info                            : Picture based subtitle format used on BDs/HD-DVDs
  139. Duration                                 : 45 min 18 s
  140. Bit rate                                 : 613 b/s
  141. Count of elements                        : 30
  142. Stream size                              : 204 KiB (0%)
  143. Title                                    : Japanese
  144. Language                                 : Japanese
  145. Default                                  : No
  146. Forced                                   : No
  147. Menu
  148. 00:00:00.000                             : en:Chapter 01
  149. 00:03:47.060                             : en:Chapter 02
  150. 00:05:46.680                             : en:Chapter 03
  151. 00:08:49.279                             : en:Chapter 04
  152. 00:11:28.730                             : en:Chapter 05
  153. 00:13:43.239                             : en:Chapter 06
  154. 00:19:27.458                             : en:Chapter 07
  155. 00:25:08.173                             : en:Chapter 08
  156. 00:31:16.041                             : en:Chapter 09
  157. 00:35:56.654                             : en:Chapter 10
  158. 00:41:09.550                             : en:Chapter 11
  159. 00:51:22.663                             : en:Chapter 12
  160. 00:57:38.580                             : en:Chapter 13
  161. 01:03:27.637                             : en:Chapter 14
  162. 01:06:33.656                             : en:Chapter 15
  163. 01:13:43.836                             : en:Chapter 16
  164. 01:15:13.217                             : en:Chapter 17
  165. 01:19:27.054                             : en:Chapter 18
  166. 01:22:51.341                             : en:Chapter 19
  167. 01:26:00.072                             : en:Chapter 20
  168. 01:28:45.070                             : en:Chapter 21
  169. 01:33:32.232                             : en:Chapter 22
  170. 01:37:58.289                             : en:Chapter 23
  171. 01:39:06.065                             : en:Chapter 24
复制代码













本帖隐藏的下载地址需要VIP会员才可阅读,您需要升级才可阅读,点击这里升级VIP
回复

使用道具 举报

级别:初级观众 Lv.1

注册时间
2020-10-13
最后登录
2020-10-25
听众
3
收听
0
主题
0
蓝光币
12 枚
贡献
0 点
QQ
发表于 2020-10-17 07:01:06 | 显示全部楼层
不错的片子,
回复

使用道具 举报

级别:初级观众 Lv.1

注册时间
2020-10-17
最后登录
2020-10-19
听众
2
收听
0
主题
0
蓝光币
2 枚
贡献
0 点
发表于 2020-10-17 19:03:30 | 显示全部楼层
非常棒,好喜欢
回复

使用道具 举报

级别:初级观众 Lv.1

注册时间
2020-10-19
最后登录
2020-10-19
听众
2
收听
0
主题
0
蓝光币
0 枚
贡献
0 点
发表于 6 天前 | 显示全部楼层

这个帖子不回对不起自己!我想我是一天也不能离开中国高清电影网
回复

使用道具 举报

级别:初级观众 Lv.1

注册时间
2020-10-20
最后登录
2020-10-22
听众
2
收听
0
主题
0
蓝光币
0 枚
贡献
0 点
发表于 5 天前 | 显示全部楼层
看看好不好看
回复

使用道具 举报

级别:初级观众 Lv.1

注册时间
2020-8-17
最后登录
2020-10-22
听众
3
收听
0
主题
0
蓝光币
39 枚
贡献
0 点
发表于 3 天前 | 显示全部楼层
楼主发贴辛苦了,谢谢楼主分享!我觉得中国高清电影网是注册对了!
回复

使用道具 举报

级别:初级观众 Lv.1

注册时间
2020-10-23
最后登录
2020-10-25
听众
2
收听
0
主题
0
蓝光币
1 枚
贡献
0 点
发表于 前天 21:06 | 显示全部楼层
谢谢楼主分享 小时候看过
回复

使用道具 举报

懒得打字嘛,点击右侧快捷回复 【右侧内容,后台自定义】
您需要登录后才可以回帖 登录 | 立即注册

本版积分规则

Archiver|手机版|小黑屋| 中国高清网 ( ICP备17007870号-2 ) |网站地图 

GMT+8, 2020-10-25 21:54 , Processed in 0.219067 second(s), 40 queries .

Powered by HDchina X3.4

Copyright 2017-2019©HDchina.All right reserved

返回顶部 联系我们