查看: 267|回复: 1

[10bit.HDR] 奥林匹斯的陷落/全面攻占:倒数救援 Olympus.Has.Fallen.2013.2160p.UHD.BluRay.x265.10bit.HDR.DTS-HD.MA.5.1-GETiT 12.42GB

[复制链接]

已抛锚 成长值: 11955

级别:资源管理组

注册时间
2017-10-20
最后登录
2022-5-9
听众
1
收听
0
主题
108287
蓝光币
241495 枚
贡献
21715 点
发表于 2020-10-4 00:15:14 | 显示全部楼层 |阅读模式
奥林匹斯的沦陷/周全攻占:倒数救济 Olympus.Has.Fallen.2013.2160p.UHD.BluRay.x265.10bit.HDR.DTS-HD.MA.5.1-GETiT 12.42GB-1.jpg



译  名 奥林匹斯的沦陷/End of White House/周全攻占:倒数救济(台)/奥林匹斯沦陷/白宫沦亡(港)/白宫沦陷
片  名 Olympus Has Fallen
年  代 2013
产  地 美国
类  别 行动 / 犯罪
语  言 英语,韩语
上映日期 2013-03-22(美国) / 2013-12-29(中国大陆)
IMDb评分  6.5/10 from 253386 users
IMDb链接  https://www.imdb.com/title/tt2302755/
豆瓣评分 6.4/10 from 63344 users
豆瓣链接 https://movie.douban.com/subject/10743974/
片  长 114分钟(中国大陆)
导  演 安东尼·福奎阿 Antoine Fuqua
编  剧 克赖顿·罗森博格 Creighton Rothenberger / 凯特琳·贝内迪克特 Katrin Benedikt
主  演 杰拉德·巴特勒 Gerard Butler
       艾伦·艾克哈特 Aaron Eckhart
       芬利·雅克布森 Finley Jacobsen
       迪伦·麦克德莫特 Dylan McDermott
       尹成植 Rick Yune
       摩根·弗里曼 Morgan Freeman
       安吉拉·贝塞特 Angela Bassett
       梅丽莎·里奥 Melissa Leo
       拉达·米切尔 Radha Mitchell
       科尔·豪瑟 Cole Hauser
       艾什莉·贾德 Ashley Judd
       弗莱迪·博什 Freddy Bosche
       凯文·穆 Kevin Moon
       山姆·麦地那 Sam Medina
       乔凡尼·席尔瓦 Giovanni Silva
       赵雅顿 Arden Cho
       马拉纳·李 Malana Lea
       泰伦·伍德利 Tyron Woodley
       伊恩·卡塞尔伯里 Ian Casselberry
       莎娜·福斯塔尔 Shanna Forrestall
       菲尔·奥斯汀 Phil Austin
       詹姆斯·英格索尔 James Ingersoll
       罗伯特·福斯特 Robert Forster
       Lance Broadway

标  签 美国 | 行动 | 豪杰主义 | 奸细 | 2013 | 政治 | 暴力 | 电影

简  介

  白宫,特情局奥秘代号为“奥林匹斯”,今朝正处在危机当中,一伙可骇份子先用重型的飞机和机枪攻击了这里,随后便派入了一群敢死队进入,他们完全占据了美国总统府,劫持了美国总统,并以此为威胁,企图控制天下格式。
  
  坐在文员办公室的迈克·班宁(杰拉德·巴特勒 Gerard Butler 饰)今后次攻击中活了下来。班宁本来是一个特种兵,负责第一夫人和美国总统(艾伦·艾克哈特 Aaron Eckhart 饰)的安危。可是在一个圣诞节的例利用命中,他的工作出了错,形成了第一夫人的灭亡。后来,班宁就被调剂到了文职工作上。
  
  姑且政府敏捷派遣美国突击队登陆白宫,诡计救援总统,却被可骇份子控制的白宫防御系统击退,救援计划几度失利。眼看可骇份子的诡计行将得逞。由于意外,班宁活了下来,他与姑且政府获得联系,并孤身一人救援总统,班宁成为了全部美国的最初一丝希望。这位前奸细依靠自己过硬的身手,在危机密布的白宫单身力挽狂澜,率先拯救了总统的儿子,让总统摆脱后顾之忧,可骇份子获得天堂犬密码的诡计被提早。经过艰辛的酣战和剧烈的厮杀,班宁拯救了被劫持的总统,并破坏了可骇份子诡计操纵核弹扑灭美国的诡计……

获奖情况

  第12届华盛顿影评人协会奖 ?(2013)
  华盛顿特区最好写照(提名)

  1. Video
  2. ID                                       : 1
  3. Format                                   : HEVC
  4. Format/Info                              : High Efficiency Video Coding
  5. Format profile                           : Main [email protected]@High
  6. HDR format                               : SMPTE ST 2086, HDR10 compatible
  7. Codec ID                                 : V_MPEGH/ISO/HEVC
  8. Duration                                 : 1 h 39 min
  9. Bit rate                                 : 13.9 Mb/s
  10. Width                                    : 3 840 pixels
  11. Height                                   : 1 608 pixels
  12. Display aspect ratio                     : 2.40:1
  13. Frame rate mode                          : Constant
  14. Frame rate                               : 24.000 FPS
  15. Color space                              : YUV
  16. Chroma subsampling                       : 4:2:0 (Type 2)
  17. Bit depth                                : 10 bits
  18. Bits/(Pixel*Frame)                       : 0.094
  19. Stream size                              : 9.66 GiB (79%)
  20. Writing library                          : x265 3.4+20-g06c52b0fd:[Windows][MSVC 1900][64 bit] 10bit
  21. Encoding settings                        : cpuid=1111039 / frame-threads=5 / numa-pools=16,16 / wpp / no-pmode / no-pme / no-psnr / no-ssim / log-level=2 / input-csp=1 / input-res=3840x1608 / interlace=0 / total-frames=142936 / level-idc=51 / high-tier=1 / uhd-bd=0 / ref=4 / no-allow-non-conformance / repeat-headers / annexb / aud / hrd / info / hash=0 / no-temporal-layers / no-open-gop / min-keyint=24 / keyint=250 / gop-lookahead=0 / bframes=4 / b-adapt=2 / b-pyramid / bframe-bias=0 / rc-lookahead=25 / lookahead-slices=4 / scenecut=40 / hist-scenecut=0 / radl=0 / no-splice / no-intra-refresh / ctu=64 / min-cu-size=8 / rect / no-amp / max-tu-size=32 / tu-inter-depth=1 / tu-intra-depth=1 / limit-tu=0 / rdoq-level=2 / dynamic-rd=0.00 / no-ssim-rd / signhide / no-tskip / nr-intra=0 / nr-inter=0 / no-constrained-intra / no-strong-intra-smoothing / max-merge=3 / limit-refs=3 / limit-modes / me=3 / subme=3 / merange=57 / temporal-mvp / no-frame-dup / no-hme / weightp / no-weightb / no-analyze-src-pics / deblock=-3:-3 / no-sao / no-sao-non-deblock / rd=4 / selective-sao=0 / no-early-skip / rskip / no-fast-intra / no-tskip-fast / no-cu-lossless / no-b-intra / no-splitrd-skip / rdpenalty=0 / psy-rd=2.00 / psy-rdoq=1.00 / no-rd-refine / no-lossless / cbqpoffs=0 / crqpoffs=0 / rc=crf / crf=13.0 / qcomp=0.60 / qpstep=4 / stats-write=0 / stats-read=0 / vbv-maxrate=160000 / vbv-bufsize=160000 / vbv-init=0.9 / crf-max=0.0 / crf-min=0.0 / ipratio=1.40 / pbratio=1.30 / aq-mode=2 / aq-strength=1.00 / cutree / zone-count=0 / no-strict-cbr / qg-size=32 / no-rc-grain / qpmax=69 / qpmin=0 / no-const-vbv / sar=1 / overscan=0 / videoformat=5 / range=0 / colorprim=9 / transfer=16 / colormatrix=9 / chromaloc=1 / chromaloc-top=2 / chromaloc-bottom=2 / display-window=0 / master-display=G(8500,39850)B(6550,2300)R(35400,14600)WP(15635,16450)L(10000000,01) / cll=906,824 / min-luma=0 / max-luma=1023 / log2-max-poc-lsb=8 / vui-timing-info / vui-hrd-info / slices=1 / no-opt-qp-pps / no-opt-ref-list-length-pps / no-multi-pass-opt-rps / scenecut-bias=0.05 / hist-threshold=0.03 / no-opt-cu-delta-qp / no-aq-motion / hdr10 / hdr10-opt / no-dhdr10-opt / no-idr-recovery-sei / analysis-reuse-level=0 / analysis-save-reuse-level=0 / analysis-load-reuse-level=0 / scale-factor=0 / refine-intra=0 / refine-inter=0 / refine-mv=1 / refine-ctu-distortion=0 / no-limit-sao / ctu-info=0 / no-lowpass-dct / refine-analysis-type=0 / copy-pic=1 / max-ausize-factor=1.0 / no-dynamic-refine / no-single-sei / no-hevc-aq / no-svt / no-field / qp-adaptation-range=1.00 / no-scenecut-aware-qpconformance-window-offsets / right=0 / bottom=0 / decoder-max-rate=0
  22. Default                                  : Yes
  23. Forced                                   : No
  24. Color range                              : Limited
  25. Color primaries                          : BT.2020
  26. Transfer characteristics                 : PQ
  27. Matrix coefficients                      : BT.2020 non-constant
  28. Mastering display color primaries        : BT.2020
  29. Mastering display luminance              : min: 0.0001 cd/m2, max: 1000 cd/m2
  30. Maximum Content Light Level              : 906 cd/m2
  31. Maximum Frame-Average Light Level        : 824 cd/m2

  32. Audio
  33. ID                                       : 2
  34. Format                                   : DTS XLL
  35. Format/Info                              : Digital Theater Systems
  36. Commercial name                          : DTS-HD Master Audio
  37. Codec ID                                 : A_DTS
  38. Duration                                 : 1 h 39 min
  39. Bit rate mode                            : Variable
  40. Bit rate                                 : 3 660 kb/s
  41. Channel(s)                               : 6 channels
  42. Channel layout                           : C L R Ls Rs LFE
  43. Sampling rate                            : 48.0 kHz
  44. Frame rate                               : 93.750 FPS (512 SPF)
  45. Bit depth                                : 24 bits
  46. Compression mode                         : Lossless
  47. Stream size                              : 2.54 GiB (21%)
  48. Title                                    : Surround 5.1
  49. Language                                 : English
  50. Default                                  : Yes
  51. Forced                                   : No

  52. Text #1
  53. ID                                       : 3
  54. Format                                   : UTF-8
  55. Codec ID                                 : S_TEXT/UTF8
  56. Codec ID/Info                            : UTF-8 Plain Text
  57. Duration                                 : 1 h 16 min
  58. Bit rate                                 : 0 b/s
  59. Count of elements                        : 14
  60. Stream size                              : 331 Bytes (0%)
  61. Title                                    : forced srt
  62. Language                                 : English
  63. Default                                  : Yes
  64. Forced                                   : No

  65. Text #2
  66. ID                                       : 4
  67. Format                                   : PGS
  68. Muxing mode                              : zlib
  69. Codec ID                                 : S_HDMV/PGS
  70. Codec ID/Info                            : Picture based subtitle format used on BDs/HD-DVDs
  71. Duration                                 : 1 h 16 min
  72. Bit rate                                 : 277 b/s
  73. Count of elements                        : 28
  74. Stream size                              : 156 KiB (0%)
  75. Title                                    : forced
  76. Language                                 : English
  77. Default                                  : No
  78. Forced                                   : No

  79. Text #3
  80. ID                                       : 5
  81. Format                                   : PGS
  82. Muxing mode                              : zlib
  83. Codec ID                                 : S_HDMV/PGS
  84. Codec ID/Info                            : Picture based subtitle format used on BDs/HD-DVDs
  85. Duration                                 : 1 h 38 min
  86. Bit rate                                 : 27.1 kb/s
  87. Count of elements                        : 3070
  88. Stream size                              : 19.1 MiB (0%)
  89. Language                                 : English
  90. Default                                  : No
  91. Forced                                   : No

  92. Text #4
  93. ID                                       : 6
  94. Format                                   : PGS
  95. Muxing mode                              : zlib
  96. Codec ID                                 : S_HDMV/PGS
  97. Codec ID/Info                            : Picture based subtitle format used on BDs/HD-DVDs
  98. Duration                                 : 1 h 38 min
  99. Bit rate                                 : 20.8 kb/s
  100. Count of elements                        : 1904
  101. Stream size                              : 14.6 MiB (0%)
  102. Language                                 : German
  103. Default                                  : No
  104. Forced                                   : No

  105. Menu
  106. 00:00:00.000                             : en:Chapter 01
  107. 00:10:36.125                             : en:Chapter 02
  108. 00:21:12.083                             : en:Chapter 03
  109. 00:33:52.125                             : en:Chapter 04
  110. 00:45:26.500                             : en:Chapter 05
  111. 00:57:35.583                             : en:Chapter 06
  112. 01:08:43.416                             : en:Chapter 07
  113. 01:17:54.666                             : en:Chapter 08
  114. 01:32:00.666                             : en:Chapter 09
复制代码


奥林匹斯的沦陷/周全攻占:倒数救济 Olympus.Has.Fallen.2013.2160p.UHD.BluRay.x265.10bit.HDR.DTS-HD.MA.5.1-GETiT 12.42GB-2.png


奥林匹斯的沦陷/周全攻占:倒数救济 Olympus.Has.Fallen.2013.2160p.UHD.BluRay.x265.10bit.HDR.DTS-HD.MA.5.1-GETiT 12.42GB-3.png


奥林匹斯的沦陷/周全攻占:倒数救济 Olympus.Has.Fallen.2013.2160p.UHD.BluRay.x265.10bit.HDR.DTS-HD.MA.5.1-GETiT 12.42GB-4.png




本帖隐藏的下载地址需要VIP会员才可阅读,您需要升级才可阅读,点击这里升级VIP
回复

使用道具 举报

级别:群众演员 Lv.3

注册时间
2020-5-26
最后登录
2022-5-13
听众
6
收听
0
主题
0
蓝光币
229 枚
贡献
0 点
QQ
发表于 5 天前 | 显示全部楼层

这东西我收了!谢谢楼主!中国高清电影网真好!
回复

使用道具 举报

懒得打字嘛,点击右侧快捷回复 【右侧内容,后台自定义】
您需要登录后才可以回帖 登录 | 立即注册

本版积分规则

Archiver|手机版|小黑屋| 中国高清网 |网站地图 

GMT+8, 2022-5-18 04:27 , Processed in 0.116903 second(s), 29 queries .

Powered by HDchina X3.4

Copyright 2017-2019©HDchina.All right reserved

返回顶部 联系我们