查看: 286|回复: 2

[动作片] 毒战/信徒 Believer.2018.KOREAN.EXTENDED.1080p.BluRay.x264.DTS-FGT 11.97GB

[复制链接]

 成长值: 7735

级别:资源管理组

注册时间
2017-10-20
最后登录
2020-10-23
听众
1
收听
0
主题
104417
蓝光币
207784 枚
贡献
21715 点
发表于 2020-9-10 00:02:55 | 显示全部楼层 |阅读模式




译  名 毒战 / Believer / Drug War / 信徒(台) / 毒战暖流(港) / 毒战韩国版
片  名 ??
年  代 2018
产  地 韩国
类  别 行动 / 犯罪
语  言 韩语
上映日期 2018-05-22(韩国)
IMDb评分  6.5/10 from 1503 users
IMDb链接  https://www.imdb.com/title/tt7095654
豆瓣评分 6.6/10 from 14985 users
豆瓣链接 https://movie.douban.com/subject/26934399/
片  长 123分钟
导  演 李海暎 Hae-yeong Lee
编  剧 郑瑞景 Seo-Gyeong Jeong / 李海暎 Hae-yeong Lee
主  演 赵震雄 Jin-woong Jo
       柳俊烈 Jun-yeol Ryu
       金柱赫 Ju-hyuk Kim
       金成铃 Sung-ryeong Kim
       朴海俊 Hea-jun Park
       车胜元 Seung-won Cha
       郑家兰 JUNG Garam
       南文哲 Moon-cheol Nam
       徐贤宇 Seo Hyeon-woo
       姜承贤 Seung-hyun Kang
       京熙妍 Seo-yeon Jin
       金东英 Dong-yeong Kim
       李周英 Lee Joo-young
       琴世禄 Keum Sae-rok
       郑钟宇 Jung Jong-woo
       权度云 Do-woon Kwon


标  签 韩国 | 犯罪 | 韩国电影 | 翻拍 | 行动 | 2018 | 柳俊烈 | 赵震雄

简  介  

  韩国最大范围贩毒构造的奥秘BOSS李师长气势猖狂,他新近经过一路爆炸案撤除了无用的干部,甚至连侥幸逃生的主干也被害死在警局当中。缉毒组组长赵元浩(赵震雄 饰)从爆炸案现场救出在构造内担任联络工作的徐永乐(柳俊烈 饰),经过审判得知,徐原本负责与占据在中国吉林的毒枭陈河霖(金柱赫 饰)联系,因提早返国而误卷入构造清洗当中。赵组长将计就计,决议周旋在李师长和陈河霖中心上演双鐄,以将贩毒构造连根拔起。这一进程险象环生,危机不竭,而实在的李师长却还未显现出他实在的专心……
  本片翻拍自杜琪峰的同名原作。

获奖情况  

  第39届韩国电影青龙奖(2018)
  最好男配角 金柱赫
  最好女配角(提名) 京熙妍 / 李周英
  最好配乐

  第13届亚洲电影大奖(2019)
  最好女配角(提名) 京熙妍
  最好原创音乐(提名) 达班伦

  第55届百想艺术大赏(2019)
  电影类 最好导演(提名) 李海暎
  电影类 最好男配角 金柱赫
  电影类 最好男配角(提名) 朴海俊
  电影类 最好女配角(提名) 京熙妍
  电影类 最好新人女演员(提名) 李周英
  电影类 最好艺术奖(提名)

  第55届韩国电影大钟奖(2018)
  最好男配角(提名) 赵震雄
  最好男配角 金柱赫
  最好女配角 京熙妍
  最好摄影(提名)
  最好美术(提名)
  最好音乐(提名) 姜其永
  最好技术奖(提名)

  1. Video
  2. ID                                       : 1
  3. Format                                   : AVC
  4. Format/Info                              : Advanced Video Codec
  5. Format profile                           : High@L4.1
  6. Format settings                          : CABAC / 4 Ref Frames
  7. Format settings, CABAC                   : Yes
  8. Format settings, Reference frames        : 4 frames
  9. Codec ID                                 : V_MPEG4/ISO/AVC
  10. Duration                                 : 2 h 11 min
  11. Bit rate                                 : 11.5 Mb/s
  12. Width                                    : 1 920 pixels
  13. Height                                   : 804 pixels
  14. Display aspect ratio                     : 2.40:1
  15. Frame rate mode                          : Constant
  16. Frame rate                               : 23.976 (24000/1001/45378) FPS
  17. Color space                              : YUV
  18. Chroma subsampling                       : 4:2:0
  19. Bit depth                                : 8 bits
  20. Scan type                                : Progressive
  21. Bits/(Pixel*Frame)                       : 0.311
  22. Stream size                              : 10.6 GiB (88%)
  23. Title                                    : Believer.2018.KOREAN.EXTENDED.1080p.BluRay.x264.DTS-FGT
  24. Writing library                          : x264 core 148 r2748 97eaef2
  25. Encoding settings                        : cabac=1 / ref=4 / deblock=1:-2:-2 / analyse=0x3:0x113 / me=umh / subme=9 / psy=1 / psy_rd=1.00:0.15 / mixed_ref=1 / me_range=16 / chroma_me=1 / trellis=2 / 8x8dct=1 / cqm=0 / deadzone=21,11 / fast_pskip=1 / chroma_qp_offset=-3 / threads=72 / lookahead_threads=3 / sliced_threads=0 / nr=0 / decimate=1 / interlaced=0 / bluray_compat=0 / constrained_intra=0 / bframes=3 / b_pyramid=2 / b_adapt=1 / b_bias=0 / direct=3 / weightb=1 / open_gop=0 / weightp=2 / keyint=250 / keyint_min=25 / scenecut=40 / intra_refresh=0 / rc_lookahead=50 / rc=2pass / mbtree=1 / bitrate=11500 / ratetol=1.0 / qcomp=0.60 / qpmin=0 / qpmax=69 / qpstep=4 / cplxblur=20.0 / qblur=0.5 / vbv_maxrate=31250 / vbv_bufsize=31250 / nal_hrd=none / filler=0 / ip_ratio=1.40 / aq=1:1.00
  26. Language                                 : Korean
  27. Default                                  : Yes
  28. Forced                                   : No

  29. Audio
  30. ID                                       : 2
  31. Format                                   : DTS
  32. Format/Info                              : Digital Theater Systems
  33. Codec ID                                 : A_DTS
  34. Duration                                 : 2 h 11 min
  35. Bit rate mode                            : Constant
  36. Bit rate                                 : 1 509 kb/s
  37. Channel(s)                               : 6 channels
  38. Channel layout                           : C L R Ls Rs LFE
  39. Sampling rate                            : 48.0 kHz
  40. Frame rate                               : 93.750 FPS (512 SPF)
  41. Bit depth                                : 24 bits
  42. Compression mode                         : Lossy
  43. Stream size                              : 1.39 GiB (12%)
  44. Title                                    : Believer.2018.KOREAN.EXTENDED.1080p.BluRay.x264.DTS-FGT
  45. Language                                 : Korean
  46. Default                                  : Yes
  47. Forced                                   : No

  48. Text
  49. ID                                       : 3
  50. Format                                   : UTF-8
  51. Codec ID                                 : S_TEXT/UTF8
  52. Codec ID/Info                            : UTF-8 Plain Text
  53. Duration                                 : 2 h 5 min
  54. Bit rate                                 : 37 b/s
  55. Count of elements                        : 1232
  56. Stream size                              : 34.1 KiB (0%)
  57. Language                                 : English
  58. Default                                  : Yes
  59. Forced                                   : No

  60. Menu
  61. 00:00:00.000                             : en:Chapter 01
  62. 00:08:23.503                             : en:Chapter 02
  63. 00:19:33.047                             : en:Chapter 03
  64. 00:27:56.633                             : en:Chapter 04
  65. 00:40:02.400                             : en:Chapter 05
  66. 00:53:31.834                             : en:Chapter 06
  67. 01:03:19.295                             : en:Chapter 07
  68. 01:13:07.466                             : en:Chapter 08
  69. 01:30:08.111                             : en:Chapter 09
  70. 01:41:15.611                             : en:Chapter 10
  71. 01:58:03.952                             : en:Chapter 11
  72. 02:05:51.252                             : en:Chapter 12
复制代码













回复

使用道具 举报

级别:初级观众 Lv.1

注册时间
2020-9-10
最后登录
2020-9-13
听众
2
收听
0
主题
0
蓝光币
1 枚
贡献
0 点
发表于 2020-9-10 22:25:49 | 显示全部楼层

楼主,大恩不言谢了!中国高清电影网是最棒的!
回复

使用道具 举报

级别:群众演员 Lv.3

注册时间
2019-3-25
最后登录
2020-10-17
听众
14
收听
0
主题
0
蓝光币
85 枚
贡献
0 点
发表于 2020-10-17 17:47:30 | 显示全部楼层

楼主太厉害了!楼主,电影应该很好看我觉得中国高清电影网真是个好地方!
回复

使用道具 举报

懒得打字嘛,点击右侧快捷回复 【右侧内容,后台自定义】
您需要登录后才可以回帖 登录 | 立即注册

本版积分规则

Archiver|手机版|小黑屋| 中国高清网 ( ICP备17007870号-2 ) |网站地图 

GMT+8, 2020-10-25 22:20 , Processed in 0.177021 second(s), 39 queries .

Powered by HDchina X3.4

Copyright 2017-2019©HDchina.All right reserved

返回顶部 联系我们