查看: 423|回复: 8

[动作片] 巴尔干边界/绝密突袭 The.Balkan.Line.2019.RUSSIAN.1080p.BluRay.x264-HANDJOB 11.52GB

[复制链接]

 成长值: 7735

级别:资源管理组

注册时间
2017-10-20
最后登录
2020-10-23
听众
1
收听
0
主题
104417
蓝光币
207772 枚
贡献
21715 点
发表于 2020-9-10 00:02:48 | 显示全部楼层 |阅读模式




译  名 巴尔干鸿沟 / The Balkan Line / 绝密突袭
片  名 Балканский рубеж
年  代 2019
产  地 俄罗斯 / 塞尔维亚
类  别 行动 / 战争
语  言 俄语 / 塞尔维亚语 / 英语
上映日期 2019(中国大陆) / 2019-03-21(俄罗斯)
IMDb评分  6.5/10 from 7180 users
IMDb链接  https://www.imdb.com/title/tt5951188
豆瓣评分 7.2/10 from 10964 users
豆瓣链接 https://movie.douban.com/subject/30391372/
片  长 151分钟
导  演 安德烈·沃金 Andrey Volgin
编  剧 安德烈·阿纳金 Andrey Anaykin / 伊凡·瑙莫夫 Ivan Naumov / 纳塔莉亚·纳扎洛娃 Natalia Nazarova
主  演 安东·庞布施尼 Anton Pampushnyy
       尤里·库琴科 Yuriy Kutsenko
       米洛斯·比柯维奇 Milos Bikovic
       米莱纳拉·德罗维奇 Milena Radulovic
       拉芙珊娜·库珂娃 Ravshana Kurkova
       阿勒克山达·斯雷科维奇 Aleksandar Sreckovic
       乔基科·米提克 Gojko Mitic
       德米特里·弗里德 Dmitry Fried
       米奥德拉格·拉多尼奇 Miodrag Radonjic
       埃米尔·库斯图里卡 Emir Kusturi?a
       谢尔盖·马林 Sergey Marin
       尼基塔·科洛格利维 Nikita Kologrivyy
       罗曼·库特辛 Roman Kurtsyn
       亚历山大·拉多伊契奇 Aleksandar Radojicic
       埃菲姆·彼得鲁宁 Efim Petrunin
       安瓦尔·哈里路拉耶夫 Anvar Khalilulaev
       瓦西利萨·涅姆科娃 Vasilisa Nemcova


标  签 战争 | 俄罗斯 | 军事 | 塞尔维亚 | 实在事务改编 | 行动 | 2019 | 科索沃

简  介  

  1999年, 南斯拉夫。 俄罗斯特遣军队被号令控制科索沃的斯拉蒂纳机场,直到支援军队到达。但这一计谋方针对于阿尔巴尼亚战地批示官和北约将军来说极为重要。该构造被迫与可骇份子停止分歧等的战役。俄罗斯维和军队和北约军队正赶往机场。天下再次接近一场大战。可是出格构造的批示官安德烈 ·沙塔洛夫并不接管政治:在机场,他心爱的女孩亚斯纳是人质之一......

  1. Video
  2. ID                                       : 1
  3. Format                                   : AVC
  4. Format/Info                              : Advanced Video Codec
  5. Format profile                           : High@L4.1
  6. Format settings                          : CABAC / 4 Ref Frames
  7. Format settings, CABAC                   : Yes
  8. Format settings, Reference frames        : 4 frames
  9. Codec ID                                 : V_MPEG4/ISO/AVC
  10. Duration                                 : 2 h 31 min
  11. Bit rate                                 : 10.3 Mb/s
  12. Width                                    : 1 920 pixels
  13. Height                                   : 800 pixels
  14. Display aspect ratio                     : 2.40:1
  15. Frame rate mode                          : Constant
  16. Frame rate                               : 23.976 (24000/1001/45378) FPS
  17. Color space                              : YUV
  18. Chroma subsampling                       : 4:2:0
  19. Bit depth                                : 8 bits
  20. Scan type                                : Progressive
  21. Bits/(Pixel*Frame)                       : 0.279
  22. Stream size                              : 10.8 GiB (94%)
  23. Writing library                          : x264 core 157 r2935 545de2f
  24. Encoding settings                        : cabac=1 / ref=4 / deblock=1:-3:-3 / analyse=0x3:0x133 / me=umh / subme=9 / psy=1 / psy_rd=1.00:0.00 / mixed_ref=1 / me_range=24 / chroma_me=1 / trellis=2 / 8x8dct=1 / cqm=0 / deadzone=21,11 / fast_pskip=0 / chroma_qp_offset=-2 / threads=12 / lookahead_threads=1 / sliced_threads=0 / nr=0 / decimate=1 / interlaced=0 / bluray_compat=0 / constrained_intra=0 / bframes=5 / b_pyramid=2 / b_adapt=2 / b_bias=0 / direct=3 / weightb=1 / open_gop=0 / weightp=2 / keyint=240 / keyint_min=24 / scenecut=40 / intra_refresh=0 / rc_lookahead=50 / rc=crf / mbtree=0 / crf=18.8 / qcomp=0.60 / qpmin=0 / qpmax=69 / qpstep=4 / vbv_maxrate=62500 / vbv_bufsize=78125 / crf_max=0.0 / nal_hrd=none / filler=0 / ip_ratio=1.40 / pb_ratio=1.30 / aq=2:1.00
  25. Default                                  : Yes
  26. Forced                                   : No
  27. Color range                              : Limited
  28. Color primaries                          : BT.709
  29. Transfer characteristics                 : BT.709
  30. Matrix coefficients                      : BT.709

  31. Audio
  32. ID                                       : 2
  33. Format                                   : AC-3
  34. Format/Info                              : Audio Coding 3
  35. Commercial name                          : Dolby Digital
  36. Codec ID                                 : A_AC3
  37. Duration                                 : 2 h 31 min
  38. Bit rate mode                            : Constant
  39. Bit rate                                 : 640 kb/s
  40. Channel(s)                               : 6 channels
  41. Channel layout                           : L R C LFE Ls Rs
  42. Sampling rate                            : 48.0 kHz
  43. Frame rate                               : 31.250 FPS (1536 SPF)
  44. Compression mode                         : Lossy
  45. Delay relative to video                  : -5 ms
  46. Stream size                              : 692 MiB (6%)
  47. Language                                 : Russian
  48. Service kind                             : Complete Main
  49. Default                                  : Yes
  50. Forced                                   : No

  51. Text
  52. ID                                       : 3
  53. Format                                   : UTF-8
  54. Codec ID                                 : S_TEXT/UTF8
  55. Codec ID/Info                            : UTF-8 Plain Text
  56. Duration                                 : 2 h 25 min
  57. Bit rate                                 : 39 b/s
  58. Count of elements                        : 1252
  59. Stream size                              : 41.8 KiB (0%)
  60. Language                                 : English
  61. Default                                  : Yes
  62. Forced                                   : No

  63. Menu
  64. 00:00:00.000                             : :Chapter 1
  65. 00:08:50.030                             : :Chapter 2
  66. 00:22:11.831                             : :Chapter 3
  67. 00:32:55.599                             : :Chapter 4
  68. 00:47:48.366                             : :Chapter 5
  69. 01:00:28.708                             : :Chapter 6
  70. 01:17:46.579                             : :Chapter 7
  71. 01:31:32.737                             : :Chapter 8
  72. 01:46:26.922                             : :Chapter 9
  73. 02:01:19.272                             : :Chapter 10
  74. 02:14:36.360                             : :Chapter 11
  75. 02:26:42.335                             : :Chapter 12
复制代码













回复

使用道具 举报

级别:普通观众 Lv.2

注册时间
2020-6-24
最后登录
2020-10-25
听众
3
收听
0
主题
0
蓝光币
6 枚
贡献
0 点
发表于 2020-9-10 15:59:10 | 显示全部楼层

这东西我收了!谢谢楼主!中国高清电影网真好!
回复

使用道具 举报

级别:专业龙套 Lv.4

注册时间
2019-12-20
最后登录
2020-10-25
听众
4
收听
0
主题
0
蓝光币
268 枚
贡献
0 点
QQ
发表于 2020-9-10 18:45:10 | 显示全部楼层

论坛不能没有像楼主这样的人才啊!我会一直支持中国高清电影网
回复

使用道具 举报

级别:荣升主角 Lv.5

注册时间
2019-10-27
最后登录
2020-10-24
听众
4
收听
0
主题
0
蓝光币
710 枚
贡献
0 点
发表于 2020-9-10 22:16:45 | 显示全部楼层
楼主发贴辛苦了,谢谢楼主分享!我觉得中国高清电影网是注册对了!
回复

使用道具 举报

级别:专业龙套 Lv.4

注册时间
2019-4-24
最后登录
2020-10-21
听众
16
收听
0
主题
0
蓝光币
379 枚
贡献
0 点
发表于 2020-9-11 17:07:08 | 显示全部楼层

楼主太厉害了!楼主,电影应该很好看我觉得中国高清电影网真是个好地方!
回复

使用道具 举报

级别:初级观众 Lv.1

注册时间
2020-9-14
最后登录
2020-10-3
听众
2
收听
0
主题
0
蓝光币
3 枚
贡献
0 点
QQ
发表于 2020-9-14 22:52:30 | 显示全部楼层
谢谢楼主!中国高清电影网真好!
回复

使用道具 举报

级别:初级观众 Lv.1

注册时间
2020-9-16
最后登录
2020-10-17
听众
2
收听
0
主题
0
蓝光币
1 枚
贡献
0 点
发表于 2020-9-16 19:43:33 | 显示全部楼层
感想分享。。。
回复

使用道具 举报

级别:群众演员 Lv.3

注册时间
2019-3-25
最后登录
2020-10-17
听众
14
收听
0
主题
0
蓝光币
85 枚
贡献
0 点
发表于 2020-10-17 17:49:01 | 显示全部楼层

我看不错噢 谢谢楼主!中国高清电影网越来越好!
回复

使用道具 举报

级别:初级观众 Lv.1

注册时间
2020-2-17
最后登录
2020-10-23
听众
4
收听
0
主题
0
蓝光币
7 枚
贡献
0 点
QQ
发表于 5 天前 | 显示全部楼层


我看不错噢 谢谢楼主!
回复

使用道具 举报

懒得打字嘛,点击右侧快捷回复 【右侧内容,后台自定义】
您需要登录后才可以回帖 登录 | 立即注册

本版积分规则

Archiver|手机版|小黑屋| 中国高清网 ( ICP备17007870号-2 ) |网站地图 

GMT+8, 2020-10-25 21:02 , Processed in 0.185431 second(s), 40 queries .

Powered by HDchina X3.4

Copyright 2017-2019©HDchina.All right reserved

返回顶部 联系我们