查看: 269|回复: 1

[10bit.HDR] 大侦探福尔摩斯/神探福尔摩斯 Sherlock.Holmes.2009.2160p.UHD.BluRay.x265.10bit.HDR.DTS-HD.MA.5.1-SWTYBLZ 22.48GB

[复制链接]

 成长值: 7735

级别:资源管理组

注册时间
2017-10-20
最后登录
2020-10-23
听众
1
收听
0
主题
104417
蓝光币
207778 枚
贡献
21715 点
发表于 2020-9-3 14:23:59 | 显示全部楼层 |阅读模式
大侦察福尔摩斯/神探福尔摩斯 Sherlock.Holmes.2009.2160p.UHD.BluRay.x265.10bit.HDR.DTS-HD.MA.5.1-SWTYBLZ 22.48GB-1.jpg



译  名 大侦察福尔摩斯 / 神探福尔摩斯(港) / 福尔摩斯(台) / 福尔摩斯和华生
片  名 Sherlock Holmes
年  代 2009
产  地 美国 / 德国
类  别 行动 / 悬疑 / 犯罪
语  言 英语 / 法语
上映日期 2009-12-25(美国) / 2010-02-25(中国大陆)
IMDb评分  7.6/10 from 570522 users
IMDb链接  https://www.imdb.com/title/tt0988045
豆瓣评分 7.6/10 from 260616 users
豆瓣链接 https://movie.douban.com/subject/2998270/
片  长 128分钟
导  演 盖·里奇 Guy Ritchie
编  剧 迈克尔·罗伯特·约翰逊 Michael Robert Johnson / 安东尼·佩卡姆 Anthony Peckham / 西蒙·金伯格 Simon Kinberg
主  演 小罗伯特·唐尼 Robert Downey Jr.
       裘德·洛 Jude Law
       瑞秋·麦克亚当斯 Rachel McAdams
       马克·斯特朗 2 Mark Strong
       凯利·蕾莉 Kelly Reilly


标  签 推理 | 悬疑 | 美国 | 行动 | 犯罪 | 黑色诙谐 | 2009 | 笑剧

简  介  

  大侦察福尔摩斯(小罗伯特·唐尼 Robert Downer Jr. 饰)即使在置人于死地之时也异常的逻辑清楚,但是办案时杂乱无章的他在私底下的生活中简直就是个“怪胎”,最少在他的助手华生医生(裘德·洛 Jude Law饰)眼中他是这样一小我。他们亲手清闲法外的“黑暗巫师”布莱克大人(马克·斯特朗 Mark Strong 饰)在临死前说灭亡即是起头,随后艾琳·艾德勒(瑞秋·麦克亚当斯 Rachel McAdams 饰)出现在他的身旁要他帮手找个失落的人,而她身旁有个影子般可怕人物。坊间传闻黑暗巫师已经新生,他的墓地遭到破坏,而躺在棺材里的人还有其人。又到了大侦察福尔摩斯出马的时辰了,但是观察进程从一路头就险象环生,助手华生医生在观察中更是几乎丧命,福尔摩斯也堕入连串的迷团当中。
  本片按照著名同名漫画改编,作者莱昂纳尔·威格拉姆(Lionel Wigram)。2010年第82届奥斯卡最好艺术指导、最好配乐2项提名、第67届金球奖音乐/笑剧类最好男配角Robert Downey Jr.

获奖情况  

  第82届奥斯卡金像奖(2010)
  最好艺术指导(提名) 莎拉·格林伍德 / 凯蒂·斯宾塞
  最好原创配乐(提名) 汉斯·季默

  第67届金球奖(2010)
  电影类 音乐/笑剧片最好男配角 小罗伯特·唐尼

  第19届MTV电影奖(2010)
  MTV电影奖 最好打架(提名) 小罗伯特·唐尼 / 马克·斯特朗

  第12届美国青少年挑选奖(2010)
  最好行动冒险电影
  最好行动冒险电影男演员(提名) 小罗伯特·唐尼
  最好行动冒险电影女演员 瑞秋·麦克亚当斯

  1. Video
  2. ID                                       : 1
  3. Format                                   : HEVC
  4. Format/Info                              : High Efficiency Video Coding
  5. Format profile                           : Main 10@L5.1@High
  6. HDR format                               : SMPTE ST 2086, HDR10 compatible
  7. Codec ID                                 : V_MPEGH/ISO/HEVC
  8. Duration                                 : 2 h 8 min
  9. Bit rate                                 : 19.9 Mb/s
  10. Width                                    : 3 840 pixels
  11. Height                                   : 2 160 pixels
  12. Display aspect ratio                     : 16:9
  13. Frame rate mode                          : Constant
  14. Frame rate                               : 23.976 (24000/1001/45378) FPS
  15. Color space                              : YUV
  16. Chroma subsampling                       : 4:2:0 (Type 2)
  17. Bit depth                                : 10 bits
  18. Bits/(Pixel*Frame)                       : 0.100
  19. Stream size                              : 17.9 GiB (80%)
  20. Title                                    : Sherlock.Holmes.2009.2160p.UHD.BluRay.x265.10bit.HDR.DTS-HD.MA.5.1-SWTYBLZ
  21. Writing library                          : x265 3.0_Au+10-74a8672ea4f7:[Windows][GCC 8.2.1][64 bit] 10bit
  22. Encoding settings                        : cpuid=1111039 / frame-threads=6 / numa-pools=24,24,24,24 / wpp / no-pmode / no-pme / no-psnr / no-ssim / log-level=2 / input-csp=1 / input-res=3840x2160 / interlace=0 / total-frames=0 / level-idc=51 / high-tier=1 / uhd-bd=0 / ref=3 / no-allow-non-conformance / repeat-headers / annexb / aud / hrd / info / hash=0 / no-temporal-layers / no-open-gop / min-keyint=1 / keyint=24 / gop-lookahead=0 / bframes=4 / b-adapt=2 / b-pyramid / bframe-bias=0 / rc-lookahead=25 / lookahead-slices=4 / scenecut=40 / radl=0 / no-splice / no-intra-refresh / ctu=64 / min-cu-size=8 / no-rect / no-amp / max-tu-size=32 / tu-inter-depth=1 / tu-intra-depth=1 / limit-tu=0 / rdoq-level=0 / dynamic-rd=0.00 / no-ssim-rd / signhide / no-tskip / nr-intra=0 / nr-inter=0 / no-constrained-intra / strong-intra-smoothing / max-merge=2 / limit-refs=3 / no-limit-modes / me=1 / subme=2 / merange=57 / temporal-mvp / weightp / no-weightb / no-analyze-src-pics / deblock=0:0 / no-sao / no-sao-non-deblock / rd=3 / no-early-skip / rskip / no-fast-intra / no-tskip-fast / no-cu-lossless / no-b-intra / no-splitrd-skip / rdpenalty=0 / psy-rd=2.00 / psy-rdoq=0.00 / no-rd-refine / no-lossless / cbqpoffs=0 / crqpoffs=0 / rc=crf / crf=16.0 / qcomp=0.60 / qpstep=4 / stats-write=0 / stats-read=0 / vbv-maxrate=160000 / vbv-bufsize=160000 / vbv-init=0.9 / crf-max=0.0 / crf-min=0.0 / ipratio=1.40 / pbratio=1.30 / aq-mode=1 / aq-strength=1.00 / cutree / zone-count=0 / no-strict-cbr / qg-size=32 / no-rc-grain / qpmax=69 / qpmin=0 / no-const-vbv / sar=1 / overscan=0 / videoformat=5 / range=0 / colorprim=9 / transfer=16 / colormatrix=9 / chromaloc=1 / chromaloc-top=2 / chromaloc-bottom=2 / display-window=0 / master-display=G(13250,34500)B(7500,3000)R(34000,16000)WP(15635,16450)L(40000000,50) / max-cll=343,106 / min-luma=0 / max-luma=1023 / log2-max-poc-lsb=8 / vui-timing-info / vui-hrd-info / slices=1 / opt-qp-pps / opt-ref-list-length-pps / no-multi-pass-opt-rps / scenecut-bias=0.05 / no-opt-cu-delta-qp / no-aq-motion / hdr / hdr-opt / no-dhdr10-opt / no-idr-recovery-sei / analysis-reuse-level=5 / scale-factor=0 / refine-intra=0 / refine-inter=0 / refine-mv=0 / refine-ctu-distortion=0 / no-limit-sao / ctu-info=0 / no-lowpass-dct / refine-analysis-type=340986933 / copy-pic=1 / max-ausize-factor=1.0 / no-dynamic-refine / no-single-sei / no-hevc-aq / no-svt / qp-adaptation-range=1.00
  23. Default                                  : Yes
  24. Forced                                   : No
  25. Color range                              : Limited
  26. Color primaries                          : BT.2020
  27. Transfer characteristics                 : PQ
  28. Matrix coefficients                      : BT.2020 non-constant
  29. Mastering display color primaries        : Display P3
  30. Mastering display luminance              : min: 0.0050 cd/m2, max: 4000 cd/m2
  31. Maximum Content Light Level              : 343 cd/m2
  32. Maximum Frame-Average Light Level        : 106 cd/m2

  33. Audio #1
  34. ID                                       : 2
  35. Format                                   : DTS XLL
  36. Format/Info                              : Digital Theater Systems
  37. Commercial name                          : DTS-HD Master Audio
  38. Codec ID                                 : A_DTS
  39. Duration                                 : 2 h 8 min
  40. Bit rate mode                            : Variable
  41. Bit rate                                 : 3 979 kb/s
  42. Channel(s)                               : 6 channels
  43. Channel layout                           : C L R Ls Rs LFE
  44. Sampling rate                            : 48.0 kHz
  45. Frame rate                               : 93.750 FPS (512 SPF)
  46. Bit depth                                : 24 bits
  47. Compression mode                         : Lossless
  48. Stream size                              : 3.57 GiB (16%)
  49. Title                                    : Sherlock.Holmes.2009.2160p.UHD.BluRay.x265.10bit.HDR.DTS-HD.MA.5.1-SWTYBLZ
  50. Language                                 : English
  51. Default                                  : Yes
  52. Forced                                   : No

  53. Audio #2
  54. ID                                       : 3
  55. Format                                   : AC-3
  56. Format/Info                              : Audio Coding 3
  57. Commercial name                          : Dolby Digital
  58. Codec ID                                 : A_AC3
  59. Duration                                 : 2 h 8 min
  60. Bit rate mode                            : Constant
  61. Bit rate                                 : 640 kb/s
  62. Channel(s)                               : 6 channels
  63. Channel layout                           : L R C LFE Ls Rs
  64. Sampling rate                            : 48.0 kHz
  65. Frame rate                               : 31.250 FPS (1536 SPF)
  66. Compression mode                         : Lossy
  67. Stream size                              : 588 MiB (3%)
  68. Title                                    : Sherlock.Holmes.2009.2160p.UHD.BluRay.x265.10bit.HDR.DTS-HD.MA.5.1-SWTYBLZ
  69. Language                                 : English
  70. Service kind                             : Complete Main
  71. Default                                  : No
  72. Forced                                   : No

  73. Text #1
  74. ID                                       : 4
  75. Format                                   : UTF-8
  76. Codec ID                                 : S_TEXT/UTF8
  77. Codec ID/Info                            : UTF-8 Plain Text
  78. Duration                                 : 1 h 58 min
  79. Bit rate                                 : 57 b/s
  80. Count of elements                        : 1499
  81. Stream size                              : 50.1 KiB (0%)
  82. Title                                    : English-SRT
  83. Language                                 : English
  84. Default                                  : Yes
  85. Forced                                   : No

  86. Text #2
  87. ID                                       : 5
  88. Format                                   : PGS
  89. Muxing mode                              : zlib
  90. Codec ID                                 : S_HDMV/PGS
  91. Codec ID/Info                            : Picture based subtitle format used on BDs/HD-DVDs
  92. Duration                                 : 2 h 0 min
  93. Bit rate                                 : 32.8 kb/s
  94. Count of elements                        : 3016
  95. Stream size                              : 28.2 MiB (0%)
  96. Title                                    : English-PGS
  97. Language                                 : English
  98. Default                                  : No
  99. Forced                                   : No

  100. Text #3
  101. ID                                       : 6
  102. Format                                   : PGS
  103. Muxing mode                              : zlib
  104. Codec ID                                 : S_HDMV/PGS
  105. Codec ID/Info                            : Picture based subtitle format used on BDs/HD-DVDs
  106. Duration                                 : 2 h 6 min
  107. Bit rate                                 : 16.0 kb/s
  108. Count of elements                        : 2884
  109. Stream size                              : 14.5 MiB (0%)
  110. Title                                    : Arabic-PGS
  111. Language                                 : Arabic
  112. Default                                  : No
  113. Forced                                   : No

  114. Text #4
  115. ID                                       : 7
  116. Format                                   : PGS
  117. Muxing mode                              : zlib
  118. Codec ID                                 : S_HDMV/PGS
  119. Codec ID/Info                            : Picture based subtitle format used on BDs/HD-DVDs
  120. Duration                                 : 2 h 8 min
  121. Bit rate                                 : 28.0 kb/s
  122. Count of elements                        : 2820
  123. Stream size                              : 25.7 MiB (0%)
  124. Title                                    : Bulgarian-PGS
  125. Language                                 : Bulgarian
  126. Default                                  : No
  127. Forced                                   : No

  128. Text #5
  129. ID                                       : 8
  130. Format                                   : PGS
  131. Muxing mode                              : zlib
  132. Codec ID                                 : S_HDMV/PGS
  133. Codec ID/Info                            : Picture based subtitle format used on BDs/HD-DVDs
  134. Duration                                 : 2 h 6 min
  135. Bit rate                                 : 21.5 kb/s
  136. Count of elements                        : 2860
  137. Stream size                              : 19.5 MiB (0%)
  138. Title                                    : Chinese-PGS
  139. Language                                 : Chinese
  140. Default                                  : No
  141. Forced                                   : No

  142. Text #6
  143. ID                                       : 9
  144. Format                                   : PGS
  145. Muxing mode                              : zlib
  146. Codec ID                                 : S_HDMV/PGS
  147. Codec ID/Info                            : Picture based subtitle format used on BDs/HD-DVDs
  148. Duration                                 : 1 h 58 min
  149. Bit rate                                 : 25.1 kb/s
  150. Count of elements                        : 2912
  151. Stream size                              : 21.3 MiB (0%)
  152. Title                                    : Chinese-PGS
  153. Language                                 : Chinese
  154. Default                                  : No
  155. Forced                                   : No

  156. Text #7
  157. ID                                       : 10
  158. Format                                   : PGS
  159. Muxing mode                              : zlib
  160. Codec ID                                 : S_HDMV/PGS
  161. Codec ID/Info                            : Picture based subtitle format used on BDs/HD-DVDs
  162. Duration                                 : 2 h 6 min
  163. Bit rate                                 : 25.0 kb/s
  164. Count of elements                        : 2892
  165. Stream size                              : 22.6 MiB (0%)
  166. Title                                    : Chinese-PGS
  167. Language                                 : Chinese
  168. Default                                  : No
  169. Forced                                   : No

  170. Text #8
  171. ID                                       : 11
  172. Format                                   : PGS
  173. Muxing mode                              : zlib
  174. Codec ID                                 : S_HDMV/PGS
  175. Codec ID/Info                            : Picture based subtitle format used on BDs/HD-DVDs
  176. Duration                                 : 2 h 8 min
  177. Bit rate                                 : 25.4 kb/s
  178. Count of elements                        : 2832
  179. Stream size                              : 23.4 MiB (0%)
  180. Title                                    : Croatian-PGS
  181. Language                                 : Croatian
  182. Default                                  : No
  183. Forced                                   : No

  184. Text #9
  185. ID                                       : 12
  186. Format                                   : PGS
  187. Muxing mode                              : zlib
  188. Codec ID                                 : S_HDMV/PGS
  189. Codec ID/Info                            : Picture based subtitle format used on BDs/HD-DVDs
  190. Duration                                 : 2 h 6 min
  191. Bit rate                                 : 25.1 kb/s
  192. Count of elements                        : 2834
  193. Stream size                              : 22.8 MiB (0%)
  194. Title                                    : Czech-PGS
  195. Language                                 : Czech
  196. Default                                  : No
  197. Forced                                   : No

  198. Text #10
  199. ID                                       : 13
  200. Format                                   : PGS
  201. Muxing mode                              : zlib
  202. Codec ID                                 : S_HDMV/PGS
  203. Codec ID/Info                            : Picture based subtitle format used on BDs/HD-DVDs
  204. Duration                                 : 2 h 6 min
  205. Bit rate                                 : 26.6 kb/s
  206. Count of elements                        : 2592
  207. Stream size                              : 24.1 MiB (0%)
  208. Title                                    : Danish-PGS
  209. Language                                 : Danish
  210. Default                                  : No
  211. Forced                                   : No

  212. Text #11
  213. ID                                       : 14
  214. Format                                   : PGS
  215. Muxing mode                              : zlib
  216. Codec ID                                 : S_HDMV/PGS
  217. Codec ID/Info                            : Picture based subtitle format used on BDs/HD-DVDs
  218. Duration                                 : 1 h 59 min
  219. Bit rate                                 : 25.5 kb/s
  220. Count of elements                        : 2232
  221. Stream size                              : 21.8 MiB (0%)
  222. Title                                    : Dutch-PGS
  223. Language                                 : Dutch
  224. Default                                  : No
  225. Forced                                   : No

  226. Text #12
  227. ID                                       : 15
  228. Format                                   : PGS
  229. Muxing mode                              : zlib
  230. Codec ID                                 : S_HDMV/PGS
  231. Codec ID/Info                            : Picture based subtitle format used on BDs/HD-DVDs
  232. Duration                                 : 2 h 8 min
  233. Bit rate                                 : 25.4 kb/s
  234. Count of elements                        : 2860
  235. Stream size                              : 23.4 MiB (0%)
  236. Title                                    : Estonian-PGS
  237. Language                                 : Estonian
  238. Default                                  : No
  239. Forced                                   : No

  240. Text #13
  241. ID                                       : 16
  242. Format                                   : PGS
  243. Muxing mode                              : zlib
  244. Codec ID                                 : S_HDMV/PGS
  245. Codec ID/Info                            : Picture based subtitle format used on BDs/HD-DVDs
  246. Duration                                 : 2 h 6 min
  247. Bit rate                                 : 28.5 kb/s
  248. Count of elements                        : 2664
  249. Stream size                              : 25.8 MiB (0%)
  250. Title                                    : Finnish-PGS
  251. Language                                 : Finnish
  252. Default                                  : No
  253. Forced                                   : No

  254. Text #14
  255. ID                                       : 17
  256. Format                                   : PGS
  257. Muxing mode                              : zlib
  258. Codec ID                                 : S_HDMV/PGS
  259. Codec ID/Info                            : Picture based subtitle format used on BDs/HD-DVDs
  260. Duration                                 : 2 h 6 min
  261. Bit rate                                 : 23.5 kb/s
  262. Count of elements                        : 2980
  263. Stream size                              : 21.3 MiB (0%)
  264. Title                                    : French-PGS
  265. Language                                 : French
  266. Default                                  : No
  267. Forced                                   : No

  268. Text #15
  269. ID                                       : 18
  270. Format                                   : PGS
  271. Muxing mode                              : zlib
  272. Codec ID                                 : S_HDMV/PGS
  273. Codec ID/Info                            : Picture based subtitle format used on BDs/HD-DVDs
  274. Duration                                 : 2 h 8 min
  275. Bit rate                                 : 30.3 kb/s
  276. Count of elements                        : 2882
  277. Stream size                              : 27.8 MiB (0%)
  278. Title                                    : German-PGS
  279. Language                                 : German
  280. Default                                  : No
  281. Forced                                   : No

  282. Text #16
  283. ID                                       : 19
  284. Format                                   : PGS
  285. Muxing mode                              : zlib
  286. Codec ID                                 : S_HDMV/PGS
  287. Codec ID/Info                            : Picture based subtitle format used on BDs/HD-DVDs
  288. Duration                                 : 2 h 8 min
  289. Bit rate                                 : 21.5 kb/s
  290. Count of elements                        : 2894
  291. Stream size                              : 19.8 MiB (0%)
  292. Title                                    : Hebrew-PGS
  293. Language                                 : Hebrew
  294. Default                                  : No
  295. Forced                                   : No

  296. Text #17
  297. ID                                       : 20
  298. Format                                   : PGS
  299. Muxing mode                              : zlib
  300. Codec ID                                 : S_HDMV/PGS
  301. Codec ID/Info                            : Picture based subtitle format used on BDs/HD-DVDs
  302. Duration                                 : 2 h 6 min
  303. Bit rate                                 : 24.2 kb/s
  304. Count of elements                        : 2688
  305. Stream size                              : 22.0 MiB (0%)
  306. Title                                    : Hungarian-PGS
  307. Language                                 : Hungarian
  308. Default                                  : No
  309. Forced                                   : No

  310. Text #18
  311. ID                                       : 21
  312. Format                                   : PGS
  313. Muxing mode                              : zlib
  314. Codec ID                                 : S_HDMV/PGS
  315. Codec ID/Info                            : Picture based subtitle format used on BDs/HD-DVDs
  316. Duration                                 : 2 h 8 min
  317. Bit rate                                 : 23.6 kb/s
  318. Count of elements                        : 2872
  319. Stream size                              : 21.7 MiB (0%)
  320. Title                                    : Icelandic-pgs
  321. Language                                 : Icelandic
  322. Default                                  : No
  323. Forced                                   : No

  324. Text #19
  325. ID                                       : 22
  326. Format                                   : PGS
  327. Muxing mode                              : zlib
  328. Codec ID                                 : S_HDMV/PGS
  329. Codec ID/Info                            : Picture based subtitle format used on BDs/HD-DVDs
  330. Duration                                 : 2 h 8 min
  331. Bit rate                                 : 25.2 kb/s
  332. Count of elements                        : 2546
  333. Stream size                              : 23.1 MiB (0%)
  334. Title                                    : Italian-PGS
  335. Language                                 : Italian
  336. Default                                  : No
  337. Forced                                   : No

  338. Text #20
  339. ID                                       : 23
  340. Format                                   : PGS
  341. Muxing mode                              : zlib
  342. Codec ID                                 : S_HDMV/PGS
  343. Codec ID/Info                            : Picture based subtitle format used on BDs/HD-DVDs
  344. Duration                                 : 1 h 59 min
  345. Bit rate                                 : 21.7 kb/s
  346. Count of elements                        : 2789
  347. Stream size                              : 18.5 MiB (0%)
  348. Title                                    : Japanese-PGS
  349. Language                                 : Japanese
  350. Default                                  : No
  351. Forced                                   : No

  352. Text #21
  353. ID                                       : 24
  354. Format                                   : PGS
  355. Muxing mode                              : zlib
  356. Codec ID                                 : S_HDMV/PGS
  357. Codec ID/Info                            : Picture based subtitle format used on BDs/HD-DVDs
  358. Duration                                 : 2 h 6 min
  359. Bit rate                                 : 17.4 kb/s
  360. Count of elements                        : 2810
  361. Stream size                              : 15.7 MiB (0%)
  362. Title                                    : Korean-PGS
  363. Language                                 : Korean
  364. Default                                  : No
  365. Forced                                   : No

  366. Text #22
  367. ID                                       : 25
  368. Format                                   : PGS
  369. Muxing mode                              : zlib
  370. Codec ID                                 : S_HDMV/PGS
  371. Codec ID/Info                            : Picture based subtitle format used on BDs/HD-DVDs
  372. Duration                                 : 2 h 8 min
  373. Bit rate                                 : 23.6 kb/s
  374. Count of elements                        : 2872
  375. Stream size                              : 21.7 MiB (0%)
  376. Title                                    : Latvian-PGS
  377. Language                                 : Latvian
  378. Default                                  : No
  379. Forced                                   : No

  380. Text #23
  381. ID                                       : 26
  382. Format                                   : PGS
  383. Muxing mode                              : zlib
  384. Codec ID                                 : S_HDMV/PGS
  385. Codec ID/Info                            : Picture based subtitle format used on BDs/HD-DVDs
  386. Duration                                 : 2 h 8 min
  387. Bit rate                                 : 28.7 kb/s
  388. Count of elements                        : 2944
  389. Stream size                              : 26.4 MiB (0%)
  390. Title                                    : Lithuanian-PGS
  391. Language                                 : Lithuanian
  392. Default                                  : No
  393. Forced                                   : No

  394. Text #24
  395. ID                                       : 27
  396. Format                                   : PGS
  397. Muxing mode                              : zlib
  398. Codec ID                                 : S_HDMV/PGS
  399. Codec ID/Info                            : Picture based subtitle format used on BDs/HD-DVDs
  400. Duration                                 : 1 h 59 min
  401. Bit rate                                 : 28.3 kb/s
  402. Count of elements                        : 2854
  403. Stream size                              : 24.1 MiB (0%)
  404. Title                                    : Norwegian-PGS
  405. Language                                 : Norwegian
  406. Default                                  : No
  407. Forced                                   : No

  408. Text #25
  409. ID                                       : 28
  410. Format                                   : PGS
  411. Muxing mode                              : zlib
  412. Codec ID                                 : S_HDMV/PGS
  413. Codec ID/Info                            : Picture based subtitle format used on BDs/HD-DVDs
  414. Duration                                 : 1 h 58 min
  415. Bit rate                                 : 25.8 kb/s
  416. Count of elements                        : 2166
  417. Stream size                              : 21.9 MiB (0%)
  418. Title                                    : Polish-PGS
  419. Language                                 : Polish
  420. Default                                  : No
  421. Forced                                   : No

  422. Text #26
  423. ID                                       : 29
  424. Format                                   : PGS
  425. Muxing mode                              : zlib
  426. Codec ID                                 : S_HDMV/PGS
  427. Codec ID/Info                            : Picture based subtitle format used on BDs/HD-DVDs
  428. Duration                                 : 2 h 8 min
  429. Bit rate                                 : 28.6 kb/s
  430. Count of elements                        : 2850
  431. Stream size                              : 26.3 MiB (0%)
  432. Title                                    : Portuguese-PGS
  433. Language                                 : Portuguese
  434. Default                                  : No
  435. Forced                                   : No

  436. Text #27
  437. ID                                       : 30
  438. Format                                   : PGS
  439. Muxing mode                              : zlib
  440. Codec ID                                 : S_HDMV/PGS
  441. Codec ID/Info                            : Picture based subtitle format used on BDs/HD-DVDs
  442. Duration                                 : 2 h 8 min
  443. Bit rate                                 : 31.0 kb/s
  444. Count of elements                        : 2758
  445. Stream size                              : 28.5 MiB (0%)
  446. Title                                    : Portuguese-PGS
  447. Language                                 : Portuguese
  448. Default                                  : No
  449. Forced                                   : No

  450. Text #28
  451. ID                                       : 31
  452. Format                                   : PGS
  453. Muxing mode                              : zlib
  454. Codec ID                                 : S_HDMV/PGS
  455. Codec ID/Info                            : Picture based subtitle format used on BDs/HD-DVDs
  456. Duration                                 : 2 h 6 min
  457. Bit rate                                 : 29.7 kb/s
  458. Count of elements                        : 2900
  459. Stream size                              : 26.9 MiB (0%)
  460. Title                                    : Romanian-PGS
  461. Language                                 : Romanian
  462. Default                                  : No
  463. Forced                                   : No

  464. Text #29
  465. ID                                       : 32
  466. Format                                   : PGS
  467. Muxing mode                              : zlib
  468. Codec ID                                 : S_HDMV/PGS
  469. Codec ID/Info                            : Picture based subtitle format used on BDs/HD-DVDs
  470. Duration                                 : 2 h 8 min
  471. Bit rate                                 : 28.7 kb/s
  472. Count of elements                        : 2898
  473. Stream size                              : 26.3 MiB (0%)
  474. Title                                    : Russian-PGS
  475. Language                                 : Russian
  476. Default                                  : No
  477. Forced                                   : No

  478. Text #30
  479. ID                                       : 33
  480. Format                                   : PGS
  481. Muxing mode                              : zlib
  482. Codec ID                                 : S_HDMV/PGS
  483. Codec ID/Info                            : Picture based subtitle format used on BDs/HD-DVDs
  484. Duration                                 : 2 h 8 min
  485. Bit rate                                 : 25.9 kb/s
  486. Count of elements                        : 2808
  487. Stream size                              : 23.8 MiB (0%)
  488. Title                                    : Serbian-PGS
  489. Language                                 : Serbian
  490. Default                                  : No
  491. Forced                                   : No

  492. Text #31
  493. ID                                       : 34
  494. Format                                   : PGS
  495. Muxing mode                              : zlib
  496. Codec ID                                 : S_HDMV/PGS
  497. Codec ID/Info                            : Picture based subtitle format used on BDs/HD-DVDs
  498. Duration                                 : 2 h 8 min
  499. Bit rate                                 : 22.9 kb/s
  500. Count of elements                        : 2778
  501. Stream size                              : 21.0 MiB (0%)
  502. Title                                    : Slovenian-PGS
  503. Language                                 : Slovenian
  504. Default                                  : No
  505. Forced                                   : No

  506. Text #32
  507. ID                                       : 35
  508. Format                                   : PGS
  509. Muxing mode                              : zlib
  510. Codec ID                                 : S_HDMV/PGS
  511. Codec ID/Info                            : Picture based subtitle format used on BDs/HD-DVDs
  512. Duration                                 : 1 h 59 min
  513. Bit rate                                 : 30.1 kb/s
  514. Count of elements                        : 2844
  515. Stream size                              : 25.7 MiB (0%)
  516. Title                                    : Spanish-PGS
  517. Language                                 : Spanish
  518. Default                                  : No
  519. Forced                                   : No

  520. Text #33
  521. ID                                       : 36
  522. Format                                   : PGS
  523. Muxing mode                              : zlib
  524. Codec ID                                 : S_HDMV/PGS
  525. Codec ID/Info                            : Picture based subtitle format used on BDs/HD-DVDs
  526. Duration                                 : 2 h 6 min
  527. Bit rate                                 : 28.4 kb/s
  528. Count of elements                        : 2946
  529. Stream size                              : 25.7 MiB (0%)
  530. Title                                    : Spanish-PGS
  531. Language                                 : Spanish
  532. Default                                  : No
  533. Forced                                   : No

  534. Text #34
  535. ID                                       : 37
  536. Format                                   : PGS
  537. Muxing mode                              : zlib
  538. Codec ID                                 : S_HDMV/PGS
  539. Codec ID/Info                            : Picture based subtitle format used on BDs/HD-DVDs
  540. Duration                                 : 1 h 59 min
  541. Bit rate                                 : 30.6 kb/s
  542. Count of elements                        : 2762
  543. Stream size                              : 26.1 MiB (0%)
  544. Title                                    : Swedish-PGS
  545. Language                                 : Swedish
  546. Default                                  : No
  547. Forced                                   : No

  548. Text #35
  549. ID                                       : 38
  550. Format                                   : PGS
  551. Muxing mode                              : zlib
  552. Codec ID                                 : S_HDMV/PGS
  553. Codec ID/Info                            : Picture based subtitle format used on BDs/HD-DVDs
  554. Duration                                 : 2 h 6 min
  555. Bit rate                                 : 26.5 kb/s
  556. Count of elements                        : 2874
  557. Stream size                              : 24.0 MiB (0%)
  558. Title                                    : Thai-PGS
  559. Language                                 : Thai
  560. Default                                  : No
  561. Forced                                   : No

  562. Text #36
  563. ID                                       : 39
  564. Format                                   : PGS
  565. Muxing mode                              : zlib
  566. Codec ID                                 : S_HDMV/PGS
  567. Codec ID/Info                            : Picture based subtitle format used on BDs/HD-DVDs
  568. Duration                                 : 2 h 8 min
  569. Bit rate                                 : 28.8 kb/s
  570. Count of elements                        : 2860
  571. Stream size                              : 26.4 MiB (0%)
  572. Title                                    : Turkish-PGS
  573. Language                                 : Turkish
  574. Default                                  : No
  575. Forced                                   : No

  576. Menu
  577. 00:00:00.000                             : en:Catching A Killer
  578. 00:06:51.161                             : en:Case Of Stagnation
  579. 00:11:34.819                             : en:Telling About Mary
  580. 00:15:46.279                             : en:Blow By Blow
  581. 00:19:13.486                             : en:Last Request
  582. 00:23:33.662                             : en:Bound Together
  583. 00:27:54.464                             : en:Miss Adler For Hire
  584. 00:32:05.841                             : en:The Irene I Know
  585. 00:37:13.106                             : en:Resurrection
  586. 00:40:54.994                             : en:Apt Prediction
  587. 00:44:41.804                             : en:Sorcery And Science
  588. 00:47:44.278                             : en:Meat Or Potatoes?
  589. 00:50:56.762                             : en:Giving Up The Ship
  590. 00:55:22.194                             : en:Friends In High Places
  591. 00:59:09.045                             : en:Blackwood\'s Lineage
  592. 01:03:09.369                             : en:Mutual Danger
  593. 01:06:12.635                             : en:Dead And Bath
  594. 01:11:18.774                             : en:Remake The World
  595. 01:14:43.938                             : en:On Purpose
  596. 01:17:40.906                             : en:Lambs To Slaughter
  597. 01:23:39.681                             : en:Trap For Three
  598. 01:26:11.541                             : en:The Best You Can Do
  599. 01:31:01.748                             : en:Next Target
  600. 01:35:19.964                             : en:Smoking Out A Coward
  601. 01:39:50.568                             : en:Countdown To Noon
  602. 01:44:25.342                             : en:Bell And Death Tolls
  603. 01:48:26.542                             : en:Cutting A Conjurer Loose
  604. 01:54:07.299                             : en:My Weak Spot
  605. 01:56:12.090                             : en:Moriarty\'s Mark
  606. 02:00:30.807                             : en:End Credits
复制代码


大侦察福尔摩斯/神探福尔摩斯 Sherlock.Holmes.2009.2160p.UHD.BluRay.x265.10bit.HDR.DTS-HD.MA.5.1-SWTYBLZ 22.48GB-2.png


大侦察福尔摩斯/神探福尔摩斯 Sherlock.Holmes.2009.2160p.UHD.BluRay.x265.10bit.HDR.DTS-HD.MA.5.1-SWTYBLZ 22.48GB-3.png


大侦察福尔摩斯/神探福尔摩斯 Sherlock.Holmes.2009.2160p.UHD.BluRay.x265.10bit.HDR.DTS-HD.MA.5.1-SWTYBLZ 22.48GB-4.png


大侦察福尔摩斯/神探福尔摩斯 Sherlock.Holmes.2009.2160p.UHD.BluRay.x265.10bit.HDR.DTS-HD.MA.5.1-SWTYBLZ 22.48GB-5.png


大侦察福尔摩斯/神探福尔摩斯 Sherlock.Holmes.2009.2160p.UHD.BluRay.x265.10bit.HDR.DTS-HD.MA.5.1-SWTYBLZ 22.48GB-6.png


大侦察福尔摩斯/神探福尔摩斯 Sherlock.Holmes.2009.2160p.UHD.BluRay.x265.10bit.HDR.DTS-HD.MA.5.1-SWTYBLZ 22.48GB-7.png


大侦察福尔摩斯/神探福尔摩斯 Sherlock.Holmes.2009.2160p.UHD.BluRay.x265.10bit.HDR.DTS-HD.MA.5.1-SWTYBLZ 22.48GB-8.png


大侦察福尔摩斯/神探福尔摩斯 Sherlock.Holmes.2009.2160p.UHD.BluRay.x265.10bit.HDR.DTS-HD.MA.5.1-SWTYBLZ 22.48GB-9.png




本帖隐藏的下载地址需要VIP会员才可阅读,您需要升级才可阅读,点击这里升级VIP
回复

使用道具 举报

级别:初级观众 Lv.1

注册时间
2019-9-8
最后登录
2020-10-15
听众
4
收听
0
主题
0
蓝光币
4 枚
贡献
0 点
发表于 2020-10-14 16:26:19 | 显示全部楼层

楼主太厉害了!楼主,电影应该很好看我觉得中国高清电影网真是个好地方!
回复

使用道具 举报

懒得打字嘛,点击右侧快捷回复 【右侧内容,后台自定义】
您需要登录后才可以回帖 登录 | 立即注册

本版积分规则

Archiver|手机版|小黑屋| 中国高清网 ( ICP备17007870号-2 ) |网站地图 

GMT+8, 2020-10-25 22:13 , Processed in 0.286636 second(s), 40 queries .

Powered by HDchina X3.4

Copyright 2017-2019©HDchina.All right reserved

返回顶部 联系我们