查看: 43|回复: 0

[恐怖片] 小丑旅馆:亡灵崛起 Clown.Motel.2019.720p.BluRay.x264-GETiT 3.46GB

[复制链接]

 成长值: 6410

级别:资源管理组

注册时间
2017-10-20
最后登录
2020-8-7
听众
1
收听
0
主题
100960
蓝光币
179196 枚
贡献
21715 点
发表于 5 天前 | 显示全部楼层 |阅读模式

* c' O3 l) ?7 u
, J3 |- W# \9 L# X5 L
' I: u) y1 \* ^4 `( z. A" K3 j( M6 ~6 o% n
译  名 小丑旅店:亡灵突起 / Clown Motel
. f5 Y1 o) }/ w  m片  名 Clown Motel: Spirits Arise
2 U1 i  h3 J& f& s年  代 2019: \8 C- a$ U5 X1 c' l
产  地 美国& E; c4 d: c( S4 Z) g9 b
类  别 可骇2 N! T1 [8 Y# L. B- w
语  言 英语
5 S4 X) J) E5 {& \8 J6 J上映日期 2019-06-04(美国) / 2019-11-01(土耳其)3 Q( Y( N0 V; c4 t% m
IMDb评分  5.4/10 from 1025 users
' P- Z  o/ Y9 U6 `5 ^) iIMDb链接  https://www.imdb.com/title/tt6255230
. z" a- p; t+ q豆瓣评分 0/10 from 0 users
4 I; J  N, S+ N4 P4 ]7 F/ O( \豆瓣链接 https://movie.douban.com/subject/33459976/
' S8 N4 i6 I5 z. `0 ~5 L. G. i片  长 95分钟6 a, I, Z0 \  h+ L' Z/ A/ W. J( }- I0 [
导  演 Joseph Kelly: a$ I; @9 P& B9 D" [+ f) t5 Q
编  剧 Joseph Kelly2 S1 y8 `2 E  V; U3 l2 P5 T
主  演 马丁·科勒巴 Martin Klebba
' r9 c! a. ~3 E1 d  w) a8 |* b       Ari Lehman5 W: n$ s; o' m# h5 L0 |3 F1 ]+ F
       Tony Moran8 ]3 }8 Q; d% o6 g* ^
       朱莉·安妮·普雷斯科特 Julie Anne Prescott
2 A$ @( A# d' H! l# ]# r" \       Alyssa Leonard: ]/ g7 w" |/ ]% M
       Chalet Lizette Brannan
4 F7 P  n6 @, g' ~) O" l       Donald Schell% h* ^; d6 e) G/ O# @
       Angela Joseph
; V' \( p# u& j/ `  H* y  x$ _       Joseph Kelly' ~2 x. Z6 p; U7 N( k8 ~' ]( _" e
       Brandy Joseph& m' p/ g4 Z; Q
       Rachael Christenson9 ]( v, j3 {- b- }
       Amanda Kott
5 n2 ?$ }4 G) \' V- y6 f( F       Angeline Mirenda4 B. _0 f1 `" T1 U
       Elinor Price
) F: f4 {' h! i  G       Trevor Dow
  p8 {8 E6 z$ S2 A       Johnny Perotti: c$ `* @# A9 @3 u" e' h" L8 s
       Steven Vogel' ~9 Q& q! q- j; A. x
       Eric Prochnau
2 p# T7 I) T$ _3 c- }2 [       David W. Bailey
5 ?& D+ H% J: d8 B$ N+ F       Brittany Joseph
$ c" M0 E  d6 V& }" L       Robert B. Oliver
" w$ u, G# m. M; H4 K       Anson Days
4 b( w( D! U1 ~& x       Amanda Barboza. J8 {! A" F7 m" O( i. t
       Paul Kalish
! m+ w# V( K  D9 c       Wes Djao Roten% X% i4 N& G1 H5 D9 m
       DieTrich Thrall1 O0 u0 s( D, `3 `
       Ed Mckallen
3 v& O  l9 L1 K6 i. {- u) h. z       Scott Courson
3 R0 t5 x$ [( @       Alexandra Osborne
( s( m" U& ~2 O' n" [! U       Joe Vallejos
2 X" d- F, |7 {: A       Caroll Ferguson% c9 Y' o: h1 z% f5 ^9 x3 D
       Josiah Zimmerman( b% w* `5 b' w2 {4 j5 [
       Tom Days
& m5 Q3 \9 Q4 N* O- O- @  b; o( a2 T       Shane Samsel
" T/ S  P. f4 M' ]  m3 B- E; T+ P2 j- g2 j" ~1 t
- @7 k2 X, ~! d
标  签 小丑旅店 | 色彩不错,其他渣滓。 | 可骇 | [歐美]8 v9 X  v* L2 S2 _4 a

$ l# A4 x/ X% W  `0 F3 x1 g简  介  
" o  D5 T# R, C% F9 ]
! `5 Q) a6 e; p  l, P* M; K  小丑汽车旅店跟从一群鬼魂猎人,他们来自一个陈腐的鬼城和一个单身派对,从拉斯维加斯回家。当这些人误解时,他们会发现汽车旅店能否真的被抛弃了,能否曾居住在那边的小丑的灵魂所困扰。% T: c4 |7 e" k* t
9 m' l7 x6 d+ D. d. o  n
  1. Video
    # d. {8 z- l8 \+ ^+ t/ t  h( O' q
  2. ID                                       : 1% N+ D2 F" x- Q. m/ ^* C) c
  3. Format                                   : AVC
    5 k7 s5 w2 K; C( U$ |( |* a
  4. Format/Info                              : Advanced Video Codec
    ( c  z% b2 ]) n1 q: p
  5. Format profile                           : High@L4.15 Y4 H7 Q: f4 s2 _
  6. Format settings                          : CABAC / 8 Ref Frames. y3 c4 w1 T. D  a6 `; u% P( x
  7. Format settings, CABAC                   : Yes: h) b( }$ e( Y) i
  8. Format settings, Reference frames        : 8 frames0 k* w' a3 ?8 O5 A
  9. Codec ID                                 : V_MPEG4/ISO/AVC+ R5 _6 w  ?9 |2 B( ^  I
  10. Duration                                 : 1 h 35 min
    * q1 C4 f" n! D& k4 |
  11. Bit rate                                 : 4 519 kb/s# j5 \/ W/ |4 k: E/ B4 O
  12. Width                                    : 1 280 pixels
    ' E& z* ]! l) p8 [! j
  13. Height                                   : 720 pixels6 S& p6 Y6 h' L$ y5 F) i* |
  14. Display aspect ratio                     : 16:9
    : q7 c) i- e. O; P6 H
  15. Frame rate mode                          : Constant
    ' Z2 U. G+ ]( g
  16. Frame rate                               : 24.000 FPS
    ! D& s# C& Z: @' f3 N
  17. Color space                              : YUV
    $ ?) h7 f: d2 u0 s( V- U' ~2 H$ [
  18. Chroma subsampling                       : 4:2:0
    7 d" j0 n- t0 U/ R: ^- Q
  19. Bit depth                                : 8 bits' q! q# G* [6 p! r
  20. Scan type                                : Progressive2 q; k; s) y! @* b8 Y$ A
  21. Bits/(Pixel*Frame)                       : 0.204
    ! `3 {. T' s  v6 C4 [5 X+ g
  22. Stream size                              : 3.03 GiB (88%)
      R  k% y. N  I4 n& Y
  23. Writing library                          : x264 core 160 r3000 33f9e14$ V1 J* H" W  ]! }+ h
  24. Encoding settings                        : cabac=1 / ref=8 / deblock=1:-3:-3 / analyse=0x3:0x133 / me=umh / subme=9 / psy=1 / psy_rd=1.00:0.00 / mixed_ref=1 / me_range=16 / chroma_me=1 / trellis=2 / 8x8dct=1 / cqm=0 / deadzone=21,11 / fast_pskip=1 / chroma_qp_offset=-2 / threads=18 / lookahead_threads=1 / sliced_threads=0 / nr=0 / decimate=1 / interlaced=0 / bluray_compat=0 / constrained_intra=0 / bframes=3 / b_pyramid=2 / b_adapt=2 / b_bias=0 / direct=3 / weightb=1 / open_gop=0 / weightp=2 / keyint=250 / keyint_min=24 / scenecut=40 / intra_refresh=0 / rc_lookahead=60 / rc=crf / mbtree=1 / crf=17.0 / qcomp=0.60 / qpmin=0 / qpmax=69 / qpstep=4 / ip_ratio=1.40 / aq=3:0.80) ^, y6 |7 w7 j; k
  25. Language                                 : English
    . l( v7 }3 D: C2 q
  26. Default                                  : Yes: |$ c2 Q% V( h4 G, M* n
  27. Forced                                   : No
    5 u( y4 O1 i" `
  28. Color range                              : Limited5 T5 [2 [1 u# A+ D) o1 W  O
  29. Matrix coefficients                      : BT.709
    ( W( N% W9 Y& l6 c" p9 f6 j8 u6 C
  30. Audio# g7 f" M4 }3 x) m, Q- T
  31. ID                                       : 2  |1 K5 i/ U8 n5 r3 M. Z. G; x
  32. Format                                   : AC-3
      y  x3 e( h' E5 v# D8 g
  33. Format/Info                              : Audio Coding 37 i. l  j2 I: i
  34. Commercial name                          : Dolby Digital7 w# i% y$ _( h5 `5 W
  35. Codec ID                                 : A_AC3
    1 w9 t. M3 q& z6 @( w" O- S
  36. Duration                                 : 1 h 35 min, f; J% l/ X( U8 ^, w8 B
  37. Bit rate mode                            : Constant' R1 W+ ^) g. J: u7 h! `/ A
  38. Bit rate                                 : 640 kb/s
    1 }" Y# e% z6 g, r% G3 u) Z7 X
  39. Channel(s)                               : 2 channels; l9 a; t; b  H# B% y% B
  40. Channel layout                           : L R
    6 T' z# g) a) {; W( K+ `: K
  41. Sampling rate                            : 48.0 kHz5 D; |: n( s# R" P* f. _
  42. Frame rate                               : 31.250 FPS (1536 SPF)
    ; W1 z/ m" f6 y( P
  43. Bit depth                                : 16 bits
    5 n9 ~" V" u% j5 E
  44. Compression mode                         : Lossy
    9 a' D: k' x% E' `# H9 G0 _
  45. Stream size                              : 439 MiB (12%)
    ( i! Y, K2 a3 O8 h( j9 n8 K
  46. Title                                    : ac3
    / p( z4 X# ]4 I- c2 v1 D
  47. Language                                 : English9 U# [, [+ x0 I& M6 V
  48. Service kind                             : Complete Main7 _9 x' h8 u+ Y* z* y
  49. Default                                  : Yes
    0 R# ]4 A. _3 t: Q" i# r
  50. Forced                                   : No
    2 q4 E. |- }- I+ ^( g
  51. Menu3 |6 i8 }1 M5 }  H  f" z! S
  52. 00:00:00.000                             : en:00:00:00.000
    / H+ c& u/ G' L
  53. 00:11:53.000                             : en:00:11:53.000
    : {. a( t7 ^' T3 p2 ?
  54. 00:24:40.000                             : en:00:24:40.000; l) P, `) ~' _7 [
  55. 00:34:19.000                             : en:00:34:19.000
    8 U; `7 i3 a' c
  56. 00:46:34.000                             : en:00:46:34.0001 D1 W: K. f4 n0 Z
  57. 00:57:33.000                             : en:00:57:33.000, U* c, M. D; y1 P) \/ [5 \, ?& s
  58. 01:08:55.000                             : en:01:08:55.000
    . K# N4 Z: X0 E1 a/ t
  59. 01:20:09.000                             : en:01:20:09.000
    ! e, }) s2 `  K* r2 b
  60. 01:31:34.000                             : en:01:31:34.000
复制代码

! ?/ w% Z1 I3 @8 Q% D9 x$ F$ n0 X: Y" R' D* E
! W! t! T5 R4 c& F. T% }- l

0 I8 C4 [( H8 `4 x7 W
  Y8 P  S+ o7 p3 E( s5 L- R* Y' T7 C# i1 d' Y: c
$ N, N/ k% Z( T( D' R
回复

使用道具 举报

懒得打字嘛,点击右侧快捷回复 【右侧内容,后台自定义】
您需要登录后才可以回帖 登录 | 立即注册

本版积分规则

Archiver|手机版|小黑屋| 中国高清网 ( ICP备17007870号-2 ) |网站地图 

GMT+8, 2020-8-7 17:03 , Processed in 0.164574 second(s), 39 queries .

Powered by HDchina X3.4

Copyright 2017-2019©HDchina.All right reserved

返回顶部 联系我们