查看: 20|回复: 0

[动作片] 深海狂鲨3 Deep.Blue.Sea.3.2020.720p.BluRay.x264.DTS-FGT 4.91GB

[复制链接]

 成长值: 6410

级别:资源管理组

注册时间
2017-10-20
最后登录
2020-8-7
听众
1
收听
0
主题
100960
蓝光币
179212 枚
贡献
21715 点
发表于 5 天前 | 显示全部楼层 |阅读模式
# n3 U) K# J/ t* `
1 s& i; v8 v/ [0 A+ p7 H$ T" ~" d
, K/ h: Y% e- D+ R/ U
3 H- Y8 E$ N( q1 @! H- u, l9 W
译  名 深海狂鲨3$ ^4 k% I2 P  E
片  名 Deep Blue Sea 3
6 _! V5 o% r+ I9 r0 }年  代 20207 _! K/ d7 S. |( O8 Q3 O
产  地 美国/ E) \3 m0 S7 z7 B" k' n
类  别 行动 / 科幻 / 可骇
1 _, _$ N% H. k$ r; i2 l3 q语  言 英语* L9 S; }( M5 {/ S
上映日期 2020-07-28(美国)( r! ~# O; q. ~$ `5 y
IMDb链接  https://www.imdb.com/title/tt11946300
3 M' l, H1 c2 q' l, x豆瓣评分 0/10 from 0 users+ ]( F& s! X! n+ [/ @
豆瓣链接 https://movie.douban.com/subject/35101514/
7 C' f' `6 t% d  n# m/ e片  长 99分钟2 d0 A: U) b! e' K  |, h/ x8 E
导  演 约翰·波罗 John Pogue
+ K. a9 \# ~2 W6 R* c编  剧 德克·布莱克曼 Dirk Blackman
3 @# Q  [2 X7 x' F. Z主  演 纳撒尼尔·布佐尼克 Nathaniel Buzolic
1 z* _! m: K0 ?/ ~       Emerson Brooks
7 O# u2 z& q9 H       布伦·福斯特 Bren Foster
" J# X1 B( V# V+ q3 J       苍丽娜 Reina Aoi
$ T& h6 _1 y: X5 w) v       Alex Bhat
" T  |, H1 d3 i% x       Siya Mayola
* P- T- |1 |+ `  T       Ernest St Claire9 ^7 B$ V8 d7 S
       DeVille Vannik
5 b; P& H/ b: T! s" ^' n       Brashaad Mayweather' J+ N- z7 o3 R5 h: m, D
       坦妮娅·雷蒙德 Tania Raymonde
) {" W1 u8 r+ J       欧内斯特·圣·克莱尔 Ernest St.Clair
8 F8 Y( F+ r  o" J1 Q* H8 P( W. h3 a
3 m& M7 B1 c% |
标  签 2020 | 美国 | 线上
) C& C! d# @" ?! i4 T- J/ i
: j7 z3 ~! h8 @2 M- W简  介  
5 {8 {7 ~7 o8 G' ?. E3 x7 N6 ^; K+ N/ k, w- q
  Dr. Emma Collins and her team are spending their third summer on the island of Little Happy studying the effect of climate change on the great white sharks who come to the nearby nursery every year to give birth. Along with the last two inhabitants of this former fishing village, their peaceful life is disrupted when a "scientific" team led by her ex-boyfriend and marine biologist Richard show up looking for three bull sharks who we soon learn aren't just any bull sharks.9 ~/ Q, \( O& {/ r4 [: D

$ [9 N+ N- S. m5 Y' n; k0 g  谷歌为您翻译:
5 \4 w4 B: P2 B  艾玛·柯林斯(Emma Collins)博士和她的团队正在他们的第三个炎天度太小欢畅岛(Little Happy),研讨天气变化对每年来四周托儿所产卵的大白鲨的影响。与这个前渔村的最初两个居民一路,当由她的前男友和陆地生物学家理查德(Richard)带领的“科学”团队出现在寻觅三只公牛鲨鱼时,他们的和生平活遭到了破坏。鲨鱼。: ^1 h6 s, C  D/ @. Y" g" h% S
2 ?) y$ P4 X1 s, a1 x3 @
  腾讯为您翻译:
  }2 m9 v6 C1 v1 h" S  t  艾玛·柯林斯博士和她的团队正在小欢乐岛度过他们的第三个炎天,研讨天气变化对大白鲨的影响,这些大白鲨每年城市来到四周的托儿所产子。当她的前男友、陆地生物学家理查德率领的“科学”团队现身寻觅三条牛鲨时,他们和这个昔日渔村的最初两位居民的安静生活被打乱了。我们很快就晓得,这三条牛鲨并不是普通的牛鲨。* u8 y9 V0 S- a; q' g/ `
3 Q- g, h8 K( _* E6 z* {( X
- {* B, {* a2 ~2 u
  1. Video6 Q0 L* {6 \/ O. R# X7 n, u5 i
  2. ID                                       : 1
    5 V1 {+ _, L' q6 S, H
  3. Format                                   : AVC4 l$ V- m, _/ J6 v- }# k% v
  4. Format/Info                              : Advanced Video Codec) H9 Y5 t: h9 l" z9 C+ {9 ]
  5. Format profile                           : High@L4.1
    # ?1 F/ n9 u1 ~. ~
  6. Format settings                          : CABAC / 4 Ref Frames
    ( T" S' Y) C/ h2 w
  7. Format settings, CABAC                   : Yes) D' E5 Y; {* V3 I9 B$ j+ D( q
  8. Format settings, Reference frames        : 4 frames
    0 k1 m/ S: c* ~4 i! v8 j( ]
  9. Codec ID                                 : V_MPEG4/ISO/AVC
    + ]/ }7 \0 G1 |' @; x
  10. Duration                                 : 1 h 40 min
    $ n4 b  p( |4 w. M* T
  11. Bit rate                                 : 5 500 kb/s4 _) S% g/ C  W2 H; t% ~
  12. Width                                    : 1 280 pixels
      J& j' R: D! a- g
  13. Height                                   : 534 pixels
    - p+ g5 F9 ?' m( _; u
  14. Display aspect ratio                     : 2.40:1, Y$ G2 Z/ G4 L5 X
  15. Original display aspect ratio            : 2.40:1" j' `' I1 o% N0 z
  16. Frame rate mode                          : Constant6 p- e2 Q% N* v2 \
  17. Frame rate                               : 23.976 (24000/1001/45378) FPS
    / e- i' X0 X9 m( |) m. t
  18. Color space                              : YUV
    ; q/ i& J. R+ Q9 m
  19. Chroma subsampling                       : 4:2:0
    8 w. f: e3 a# C2 E' {
  20. Bit depth                                : 8 bits1 K: [8 A. q9 b* k7 r# t  [* }
  21. Scan type                                : Progressive' T  ^- T+ b3 ]; X7 c  a
  22. Bits/(Pixel*Frame)                       : 0.336
    % o. ~: ?& W2 _& ~7 |' J3 V
  23. Stream size                              : 3.85 GiB (78%)
    7 [# D1 ~& v  v
  24. Title                                    : Deep.Blue.Sea.3.2020.720p.BluRay.x264.DTS-FGT
      N: G& y* d; e/ ]) L
  25. Writing library                          : x264 core 148 r2795M aaa9aa82 e$ G1 T/ R* j. R6 t* v- e; D
  26. Encoding settings                        : cabac=1 / ref=4 / deblock=1:-2:-2 / analyse=0x3:0x113 / me=umh / subme=9 / psy=1 / psy_rd=1.00:0.15 / mixed_ref=1 / me_range=16 / chroma_me=1 / trellis=2 / 8x8dct=1 / cqm=0 / deadzone=21,11 / fast_pskip=1 / chroma_qp_offset=-3 / threads=24 / lookahead_threads=3 / sliced_threads=0 / nr=0 / decimate=1 / interlaced=0 / bluray_compat=0 / constrained_intra=0 / bframes=3 / b_pyramid=2 / b_adapt=1 / b_bias=0 / direct=3 / weightb=1 / open_gop=0 / weightp=2 / keyint=250 / keyint_min=25 / scenecut=40 / intra_refresh=0 / rc_lookahead=50 / rc=2pass / mbtree=1 / bitrate=5500 / ratetol=1.0 / qcomp=0.60 / qpmin=0 / qpmax=69 / qpstep=4 / cplxblur=20.0 / qblur=0.5 / vbv_maxrate=31250 / vbv_bufsize=31250 / nal_hrd=none / filler=0 / ip_ratio=1.40 / aq=1:1.00" |' q# {3 r0 ~8 S7 X, c
  27. Default                                  : Yes7 [$ D( R+ _* G& E0 ^1 V2 G
  28. Forced                                   : No
    $ [& s" ^8 R9 W  m' R: q1 B4 K; n

  29. 3 X6 [, K7 E+ Z2 @# `4 x
  30. Audio  Z' \* V" `! C8 W  t2 a
  31. ID                                       : 26 g6 b& d  P3 N4 c' C: Z
  32. Format                                   : DTS7 k, _8 f1 A* B2 t4 E. B* }# \
  33. Format/Info                              : Digital Theater Systems
    ! q3 b1 N% s) a4 q* U6 k1 D9 O, g( R
  34. Codec ID                                 : A_DTS
      u0 X  |. s4 B9 r6 O# ]
  35. Duration                                 : 1 h 40 min: B3 ~4 ~' F7 j8 K6 |* T5 l
  36. Bit rate mode                            : Constant
    7 J. v  p9 z5 F: p; w8 r7 N" l4 A
  37. Bit rate                                 : 1 509 kb/s+ Y: s% c9 S) f5 @
  38. Channel(s)                               : 6 channels. H$ J$ H. P* s1 L$ J) ^
  39. Channel layout                           : C L R Ls Rs LFE
    5 g0 z8 n- I. |9 H( I; R  Y
  40. Sampling rate                            : 48.0 kHz
    & M) ?% m: y" ]
  41. Frame rate                               : 93.750 FPS (512 SPF)
    * c. f% p! h. e5 Y! f
  42. Bit depth                                : 24 bits
    & b/ u$ d8 N! {5 y
  43. Compression mode                         : Lossy
    8 s- V: ~0 o+ E: \: U
  44. Stream size                              : 1.06 GiB (22%): ]/ O1 ]3 T+ e" \3 w) E( m
  45. Title                                    : Deep.Blue.Sea.3.2020.720p.BluRay.x264.DTS-FGT
    ) j0 I& a' ?! ]
  46. Language                                 : English
    5 ^2 S. O+ U* Q" r
  47. Default                                  : Yes8 k1 M' u) U$ |) V. f7 F
  48. Forced                                   : No
    0 H. |, q- R' R/ a& r) m# A9 t
  49. 8 l0 t2 v2 o3 E& d- Q" Q% r
  50. Text# z# i" h" [! P( Q* @
  51. ID                                       : 3
    0 E) O+ ]( v7 ^$ j5 U) E% j
  52. Format                                   : UTF-8/ U! X+ k( i- T4 p
  53. Codec ID                                 : S_TEXT/UTF8- U" ]2 s" F8 u% y' e
  54. Codec ID/Info                            : UTF-8 Plain Text
    ' i5 K0 D7 v9 F% b( S
  55. Duration                                 : 1 h 30 min
    ' m/ q3 p) I: K+ P) X$ \8 T+ z0 A
  56. Bit rate                                 : 48 b/s
    5 C( t6 ]+ q9 a0 D- T
  57. Count of elements                        : 1054% l1 s& Q  ]' f2 u1 ^
  58. Stream size                              : 32.1 KiB (0%)) X, a7 N: D; b# s7 w" O
  59. Language                                 : English
    8 ]: f2 _' |- e/ [7 {
  60. Default                                  : Yes- s0 V  ]6 p: K6 T  v5 a
  61. Forced                                   : No
    ' H" m3 d  J; F6 s6 Q% d9 F. [
  62. % W  ^1 i# R9 c0 p2 p& a
  63. Menu3 n0 ^8 f* c! {( ?1 s" ]: @) Q* q* m
  64. 00:00:00.000                             : en:Chapter 01; \: m" ?; J4 p# p: m& s% P: l
  65. 00:09:50.006                             : en:Chapter 02; ]& V, b/ ]& d( [8 E, I
  66. 00:19:15.154                             : en:Chapter 035 W4 {( b( o+ B
  67. 00:28:50.270                             : en:Chapter 040 B- k0 U- l5 U) T
  68. 00:38:06.034                             : en:Chapter 050 _6 y7 `. h" I* Q/ u* m4 I  u+ K
  69. 00:45:09.290                             : en:Chapter 06
    . |6 a. }( H( E. p2 X
  70. 00:54:28.891                             : en:Chapter 07
    + Z: W/ U6 |& N, \
  71. 01:04:14.142                             : en:Chapter 08
    ) s4 K: O! K0 s0 ?6 e% r3 ~
  72. 01:14:12.406                             : en:Chapter 09, g) f6 }$ m3 J
  73. 01:23:10.819                             : en:Chapter 10  m& {- D9 [; m, W
  74. 01:32:48.229                             : en:Chapter 11
复制代码

& y0 @" `5 Y+ e. x! B2 v- a. R7 V% s  l% ]# |
& |$ N8 {8 K, `# _! s5 b
/ U5 e, h1 v4 h% B, i
. Z/ ~) a6 i% k( y

( n- ~( v5 h6 L; l. Y: t; Q/ E- W+ W7 q

9 H! [- C8 I' [0 f3 R" j/ F3 ~
! c# E  o) Q; G
6 G6 G( B5 q" a/ h: z9 K+ o% K, j* M$ `0 K  f2 b4 r/ E
3 j* S# C! z) f4 Q+ T3 Z
% O3 P* |+ V# I. e! K1 t4 v
回复

使用道具 举报

懒得打字嘛,点击右侧快捷回复 【右侧内容,后台自定义】
您需要登录后才可以回帖 登录 | 立即注册

本版积分规则

Archiver|手机版|小黑屋| 中国高清网 ( ICP备17007870号-2 ) |网站地图 

GMT+8, 2020-8-7 18:08 , Processed in 0.169496 second(s), 39 queries .

Powered by HDchina X3.4

Copyright 2017-2019©HDchina.All right reserved

返回顶部 联系我们