查看: 83|回复: 2

[剧情片] 美国动物/美式禽兽 American.Animals.2018.1080p.BluRay.x264.DTS-HD.MA.5.1-FGT 9.52GB

[复制链接]

 成长值: 5940

级别:资源管理组

注册时间
2017-10-20
最后登录
2020-7-2
听众
1
收听
0
主题
97193
蓝光币
165671 枚
贡献
21572 点
发表于 前天 11:53 | 显示全部楼层 |阅读模式
美国动物/美式禽兽 American.Animals.2018.1080p.BluRay.x264.DTS-HD.MA.5.1-FGT 9.52GB-1.png


译  名 美国动物 / 美式禽兽(港)
片  名 American Animals
年  代 2018
产  地 英国 / 美国
类  别 剧情 / 犯罪
语  言 英语
上映日期 2018-01-19(圣丹斯电影节) / 2018-06-01(美国)
IMDb评分  7.0/10 from 35735 users
IMDb链接  https://www.imdb.com/title/tt6212478
豆瓣评分 7.0/10 from 15777 users
豆瓣链接 https://movie.douban.com/subject/26908280/
片  长 116分钟
导  演 巴特·雷顿 Bart Layton
编  剧 巴特·雷顿 Bart Layton
主  演 埃文·彼得斯 Evan Peters
       巴里·基奥根 Barry Keoghan
       布莱克·詹纳 Blake Jenner
       安·唐德 Ann Dowd
       乌多·基尔 Udo Kier
       杰瑞德·亚伯拉汉姆森 Jared Abrahamson
       盖里·巴萨拉巴 Gary Basaraba
       拉腊·格赖斯 Lara Grice
       简·麦克尼尔 Jane McNeill
       韦恩·杜瓦尔 Wayne Duvall


标  签 犯罪 | 美国 | 青春 | 剧情 | 2018 | 黑色诙谐 | 记载片 | 自力

简  介  

  儿时玩伴斯潘塞和沃伦很叛逆,他们和其他两个门生经营到特兰西瓦尼亚大学的出格收藏图书馆,去偷极为珍贵的奥杜邦版画和收藏书。这部电影是按照实在故事改编,源于2004年发生在美国肯塔基州列克星敦市的特兰西瓦尼亚大学的一次图书馆抢劫事务。这个故事看起来很是古怪,但大部分情节都是 实在发生的,四个年轻报酬了逐一幅画作毁了平生,实施了美国历史上最冒失的抢劫之一。《美国动物》将抢劫类电影发挥到极致,在金钱、电影、追随意义的疯狂故事中模糊现实与设想的界限。

获奖情况  

  第34届圣丹斯电影节(2018)
  评审团大奖 剧情片(提名) 巴特·雷顿

  第34届美国自力精神奖(2019)
  最好剪辑(提名)

  第21届英国自力电影奖(2018)
  最好英国自力电影(提名)
  最好导演(提名) 巴特·雷顿
  最好编剧(提名) 巴特·雷顿
  最好男配角(提名) 巴里·基奥恩 / 埃文·彼得斯
  最好新人编剧 巴特·雷顿
  最好选角(提名)
  最好摄影(提名)
  最好剪辑
  最好音乐(提名)
  最好音效(提名)

  第39届伦敦影评人协会奖(2019)
  技术成就奖(提名) 朱利安·哈特 / 尼克·芬顿 / 克里斯·吉尔

  第18届凤凰城影评人协会奖(2018)
  年度被疏忽影片
  十佳影片
  1. Video
  2. ID                                       : 1
  3. Format                                   : AVC
  4. Format/Info                              : Advanced Video Codec
  5. Format profile                           : High@L4
  6. Format settings                          : CABAC / 5 Ref Frames
  7. Format settings, CABAC                   : Yes
  8. Format settings, ReFrames                : 5 frames
  9. Codec ID                                 : V_MPEG4/ISO/AVC
  10. Duration                                 : 1 h 56 min
  11. Bit rate                                 : 9 200 kb/s
  12. Width                                    : 1 920 pixels
  13. Height                                   : 816 pixels
  14. Display aspect ratio                     : 2.35:1
  15. Frame rate mode                          : Constant
  16. Frame rate                               : 23.976 (24000/1001/189150) FPS
  17. Color space                              : YUV
  18. Chroma subsampling                       : 4:2:0
  19. Bit depth                                : 8 bits
  20. Scan type                                : Progressive
  21. Bits/(Pixel*Frame)                       : 0.245
  22. Stream size                              : 7.51 GiB (79%)
  23. Title                                    : American.Animals.2018.1080p.BluRay.x264.DTS-HD.MA.5.1-FGT
  24. Writing library                          : x264 core 155 r2901 7d0ff22
  25. Encoding settings                        : cabac=1 / ref=5 / deblock=1:-3:-3 / analyse=0x3:0x113 / me=umh / subme=8 / psy=1 / psy_rd=1.00:0.00 / mixed_ref=1 / me_range=16 / chroma_me=1 / trellis=1 / 8x8dct=1 / cqm=0 / deadzone=21,11 / fast_pskip=1 / chroma_qp_offset=-2 / threads=24 / lookahead_threads=4 / sliced_threads=0 / nr=0 / decimate=1 / interlaced=0 / bluray_compat=0 / constrained_intra=0 / bframes=3 / b_pyramid=2 / b_adapt=1 / b_bias=0 / direct=3 / weightb=1 / open_gop=0 / weightp=2 / keyint=250 / keyint_min=23 / scenecut=40 / intra_refresh=0 / rc_lookahead=50 / rc=2pass / mbtree=1 / bitrate=9200 / ratetol=1.0 / qcomp=0.60 / qpmin=0 / qpmax=69 / qpstep=4 / cplxblur=20.0 / qblur=0.5 / ip_ratio=1.40 / aq=1:1.00
  26. Language                                 : English
  27. Default                                  : Yes
  28. Forced                                   : No

  29. Audio
  30. ID                                       : 2
  31. Format                                   : DTS
  32. Format/Info                              : Digital Theater Systems
  33. Format profile                           : MA / Core
  34. Codec ID                                 : A_DTS
  35. Duration                                 : 1 h 56 min
  36. Bit rate mode                            : Variable / Constant
  37. Bit rate                                 : 2 416 kb/s / 1 509 kb/s
  38. Channel(s)                               : 6 channels
  39. Channel positions                        : Front: L C R, Side: L R, LFE
  40. Sampling rate                            : 48.0 kHz
  41. Frame rate                               : 93.750 FPS (512 SPF)
  42. Bit depth                                : 24 bits
  43. Compression mode                         : Lossless / Lossy
  44. Stream size                              : 1.97 GiB (21%)
  45. Title                                    : American.Animals.2018.1080p.BluRay.x264.DTS-HD.MA.5.1-FGT
  46. Language                                 : English
  47. Default                                  : Yes
  48. Forced                                   : No

  49. Text #1
  50. ID                                       : 3
  51. Format                                   : UTF-8
  52. Codec ID                                 : S_TEXT/UTF8
  53. Codec ID/Info                            : UTF-8 Plain Text
  54. Duration                                 : 1 h 47 min
  55. Bit rate                                 : 61 b/s
  56. Count of elements                        : 1401
  57. Stream size                              : 48.0 KiB (0%)
  58. Title                                    : English-SRT
  59. Language                                 : English
  60. Default                                  : Yes
  61. Forced                                   : No

  62. Text #2
  63. ID                                       : 4
  64. Format                                   : PGS
  65. Muxing mode                              : zlib
  66. Codec ID                                 : S_HDMV/PGS
  67. Codec ID/Info                            : Picture based subtitle format used on BDs/HD-DVDs
  68. Duration                                 : 1 h 56 min
  69. Bit rate                                 : 46.3 kb/s
  70. Count of elements                        : 3328
  71. Stream size                              : 38.4 MiB (0%)
  72. Title                                    : English-PGS
  73. Language                                 : English
  74. Default                                  : No
  75. Forced                                   : No

  76. Text #3
  77. ID                                       : 5
  78. Format                                   : PGS
  79. Muxing mode                              : zlib
  80. Codec ID                                 : S_HDMV/PGS
  81. Codec ID/Info                            : Picture based subtitle format used on BDs/HD-DVDs
  82. Duration                                 : 1 h 51 min
  83. Bit rate                                 : 35.6 kb/s
  84. Count of elements                        : 2407
  85. Stream size                              : 28.3 MiB (0%)
  86. Title                                    : Spanish-PGS
  87. Language                                 : Spanish
  88. Default                                  : No
  89. Forced                                   : No

  90. Menu
  91. 00:00:00.000                             : en:Chapter 01
  92. 00:06:57.583                             : en:Chapter 02
  93. 00:14:58.856                             : en:Chapter 03
  94. 00:21:21.947                             : en:Chapter 04
  95. 00:27:23.808                             : en:Chapter 05
  96. 00:36:22.805                             : en:Chapter 06
  97. 00:41:42.124                             : en:Chapter 07
  98. 00:48:53.305                             : en:Chapter 08
  99. 00:54:59.296                             : en:Chapter 09
  100. 01:04:23.067                             : en:Chapter 10
  101. 01:11:11.767                             : en:Chapter 11
  102. 01:16:28.375                             : en:Chapter 12
  103. 01:24:47.707                             : en:Chapter 13
  104. 01:30:18.996                             : en:Chapter 14
  105. 01:37:15.788                             : en:Chapter 15
  106. 01:45:36.455                             : en:Chapter 16
复制代码

美国动物/美式禽兽 American.Animals.2018.1080p.BluRay.x264.DTS-HD.MA.5.1-FGT 9.52GB-2.png
美国动物/美式禽兽 American.Animals.2018.1080p.BluRay.x264.DTS-HD.MA.5.1-FGT 9.52GB-3.png
美国动物/美式禽兽 American.Animals.2018.1080p.BluRay.x264.DTS-HD.MA.5.1-FGT 9.52GB-4.png
美国动物/美式禽兽 American.Animals.2018.1080p.BluRay.x264.DTS-HD.MA.5.1-FGT 9.52GB-5.png
美国动物/美式禽兽 American.Animals.2018.1080p.BluRay.x264.DTS-HD.MA.5.1-FGT 9.52GB-6.png
美国动物/美式禽兽 American.Animals.2018.1080p.BluRay.x264.DTS-HD.MA.5.1-FGT 9.52GB-7.png








回复

使用道具 举报

 成长值: 1890

级别:尊贵的会员

注册时间
2020-3-1
最后登录
2020-7-2
听众
4
收听
0
主题
0
蓝光币
447 枚
贡献
0 点
发表于 前天 19:22 | 显示全部楼层
楼主发贴辛苦了,谢谢楼主分享!我觉得中国高清电影网是注册对了!
回复

使用道具 举报

级别:荣升主角 Lv.5

注册时间
2019-10-27
最后登录
2020-7-1
听众
2
收听
0
主题
0
蓝光币
574 枚
贡献
0 点
发表于 前天 22:58 | 显示全部楼层
楼主发贴辛苦了,谢谢楼主分享!我觉得中国高清电影网是注册对了!
回复

使用道具 举报

懒得打字嘛,点击右侧快捷回复 【右侧内容,后台自定义】
您需要登录后才可以回帖 登录 | 立即注册

本版积分规则

Archiver|手机版|小黑屋| 中国高清网 ( ICP备17007870号-2 ) |网站地图 

GMT+8, 2020-7-2 20:10 , Processed in 0.436560 second(s), 39 queries .

Powered by HDchina X3.4

Copyright 2017-2019©HDchina.All right reserved

返回顶部 联系我们