查看: 359|回复: 1

[10bit.SDR] 变形金刚4:绝迹重生/变形金刚:歼灭世纪 Transformers.Age.of.Extinction.2014.2160p.BluRay.x265.10bit.SDR.DTS-HD.MA.TrueHD.7.1.Atmos-SWTYBLZ 40.81GB

[复制链接]

 成长值: 3210

级别:资源管理组

注册时间
2017-10-20
最后登录
2019-11-20
听众
1
收听
0
主题
87292
蓝光币
63258 枚
贡献
11651 点
发表于 2018-1-3 15:01:40 | 显示全部楼层 |阅读模式
014552dfc67e011re214e6.jpg
◎译  名 变形金刚4:绝迹更生/变形金刚:消灭世纪/变形金刚4:灭绝时代/变形金刚4/变4
◎片  名 Transformers: Age of Extinction
◎年  代 2014
◎产  地 美国/中国大陆
◎类  别 行动/科幻
◎语  言 英语/汉语普通话/粤语
◎上映日期 2014-06-19(香港首映)/2014-06-27(美国)/2014-06-27(中国大陆)
◎IMDb评分  5.7/10 from 266,960 users
◎IMDb链接  http://www.imdb.com/title/tt2109248/
◎豆瓣评分 6.5/10 from 196,155 users
◎豆瓣链接 https://movie.douban.com/subject/7054604/
◎片  长 166分钟
◎导  演 迈克尔·贝 Michael Bay
◎主  演 马克·沃尔伯格 Mark Wahlberg
      斯坦利·图齐 Stanley Tucci
      凯尔希·格兰莫 Kelsey Grammer
      妮可拉·佩尔茨  Nicola Peltz
      杰克·莱诺 Jack Reynor
      提图斯·维里沃 Titus Welliver
      索非亚·迈尔斯 Sophia Myles
      李冰冰 Bingbing Li
      托德·约瑟夫·米勒 T.J. Miller
      彼特·库伦 Peter Cullen
      约翰·迪·玛吉欧 John Di Maggio
      罗伯特·福克沃斯 Robert Foxworth
      约翰·古德曼 John Goodman
      马克·瑞安 Mark Ryan
      渡边谦 Ken Watanabe
      弗兰克·维尔克 Frank Welker
      雷诺·维尔森 Reno Wilson
      阿比盖尔·克莱因 Abigail Klein
      托马斯·列农 Thomas Lennon
      韩庚 Geng Han
      巫刚 Gang Wu
      吕良伟 Ray Lui
      王敏德  Michael Wong
      纪培慧 Teresa Daley
      邹市明 Shiming Zou

◎简  介

  昔时那场惨烈的芝加哥大战,汽车人虽然成功击退了霸天虎的入侵,却也让地球人对他们落空了应有的信赖与尊重。由美国中情局组建的“墓风”军队对一切的变形金刚停止无差此外猎杀,一时候汽车人和霸天虎全都在地球不见了踪影。某天,居住在得州的落魄机械发现家凯德·伊格(马克·沃尔伯格 Marky Mark 饰)买返来一辆陈旧的卡车车头,谁知那竟是处在休眠中的汽车人首领擎天柱。嗅到气味的墓风军队蜂拥而至,苏醒后的擎天柱救走了凯德一家,也和散落在各个角落的汽车人相继获得联系。另一方面,疯狂的人类科学家从变形金刚的残骸中获知了他们变形的奥秘,并诡计借此制造出人造金刚,而脱胎自威震天的惊破天正是他们的自得作品以及催命死神。
  新一轮的危机卷土而来,地球面临更大的灾难……

◎获奖情况

  第42届动画安妮奖  (2015)
  最好真人电影动画结果(提名) John Hansen

  第35届金酸莓奖  (2015)
  最差影片(提名)
  最差男配角 凯尔希·格兰莫 / 凯尔希·格兰莫
  最差女配角(提名) 妮可拉·佩尔茨
  最差导演 迈克尔·贝
  最差剧本(提名) 伊伦·克鲁格
  最差银幕组合(提名)
  最差前传、重拍、恶搞及续集电影(提名)

  第18届好莱坞电影奖  (2014)
  年度视觉结果 斯科特·法勒  

  第16届美国青少年挑选奖  (2014)
  最好电影反派(提名) 凯尔希·格兰莫
  最好冲破表演电影新星(提名) 妮可拉·佩尔茨
  最好暑期电影(提名)
  最好暑期电影明星(提名) 马克·沃尔伯格

  第1届豆瓣电影年度榜单  (2014)
  最受关注的院线电影(提名)
  6月最受关注电影(提名)

  第5届豆瓣电影鑫像奖  (2015)
  豆渣单元 最渣影片(外语)
  豆渣单元 最渣导演(外语) 迈克尔·贝
  豆渣单元 最渣男演员(外语)(提名) 马克·沃尔伯格



  1. Video
  2. ID                                       : 1
  3. Format                                   : HEVC
  4. Format/Info                              : High Efficiency Video Coding
  5. Format profile                           : Main [url=mailto:10@L5.1]10@L5.1[/url]@High
  6. Codec ID                                 : V_MPEGH/ISO/HEVC
  7. Duration                                 : 2 h 45 min
  8. Bit rate                                 : 25.0 Mb/s
  9. Width                                    : 3 840 pixels
  10. Height                                   : 1 600 pixels
  11. Display aspect ratio                     : 2.40:1
  12. Frame rate mode                          : Constant
  13. Frame rate                               : 23.976 (24000/1001) FPS
  14. Color space                              : YUV
  15. Chroma subsampling                       : 4:2:0
  16. Bit depth                                : 10 bits
  17. Bits/(Pixel*Frame)                       : 0.170
  18. Stream size                              : 28.8GB (71%)
  19. Title                                    : Transformers.Age.of.Extinction.2014.2160p.BluRay.x265.10bit.SDR.DTS-HD.MA.TrueHD.7.1.Atmos-SWTYBLZ
  20. Writing library                          : x265 2.5+4-b4a5bcfe29c7:[Windows][GCC 4.9.3][64 bit] 10bit
  21. Encoding settings                        : cpuid=1173503 / frame-threads=16 / numa-pools=24,24,24,24 / wpp / no-pmode / no-pme / no-psnr / no-ssim / log-level=2 / input-csp=1 / input-res=3840x1600 / interlace=0 / total-frames=0 / level-idc=51 / high-tier=1 / uhd-bd=0 / ref=3 / no-allow-non-conformance / repeat-headers / annexb / aud / hrd / info / hash=0 / no-temporal-layers / no-open-gop / min-keyint=1 / keyint=24 / bframes=4 / b-adapt=2 / b-pyramid / bframe-bias=0 / rc-lookahead=25 / lookahead-slices=4 / scenecut=40 / no-intra-refresh / ctu=64 / min-cu-size=8 / no-rect / no-amp / max-tu-size=32 / tu-inter-depth=1 / tu-intra-depth=1 / limit-tu=0 / rdoq-level=0 / dynamic-rd=0.00 / no-ssim-rd / signhide / no-tskip / nr-intra=0 / nr-inter=0 / no-constrained-intra / strong-intra-smoothing / max-merge=2 / limit-refs=3 / no-limit-modes / me=1 / subme=2 / merange=57 / temporal-mvp / weightp / no-weightb / no-analyze-src-pics / deblock=0:0 / no-sao / no-sao-non-deblock / rd=3 / no-early-skip / rskip / no-fast-intra / no-tskip-fast / no-cu-lossless / no-b-intra / rdpenalty=0 / psy-rd=2.00 / psy-rdoq=0.00 / no-rd-refine / analysis-reuse-mode=0 / no-lossless / cbqpoffs=0 / crqpoffs=0 / rc=crf / crf=20.0 / qcomp=0.60 / qpstep=4 / stats-write=0 / stats-read=0 / vbv-maxrate=160000 / vbv-bufsize=160000 / vbv-init=0.9 / crf-max=0.0 / crf-min=0.0 / ipratio=1.40 / pbratio=1.30 / aq-mode=1 / aq-strength=1.00 / cutree / zone-count=0 / no-strict-cbr / qg-size=32 / no-rc-grain / qpmax=69 / qpmin=0 / no-const-vbv / sar=1 / overscan=0 / videoformat=5 / range=0 / colorprim=2 / transfer=2 / colormatrix=2 / chromaloc=0 / display-window=0 / max-cll=0,0 / min-luma=0 / max-luma=1023 / log2-max-poc-lsb=8 / vui-timing-info / vui-hrd-info / slices=1 / opt-qp-pps / opt-ref-list-length-pps / no-multi-pass-opt-rps / scenecut-bias=0.05 / no-opt-cu-delta-qp / no-aq-motion / no-hdr / no-hdr-opt / no-dhdr10-opt / analysis-reuse-level=5 / scale-factor=0 / refine-intra=0 / refine-inter=0 / refine-mv=0 / no-limit-sao / ctu-info=0
  22. Default                                  : Yes
  23. Forced                                   : No

  24. Audio #1
  25. ID                                       : 2
  26. Format                                   : TrueHD
  27. Format profile                           : TrueHD+Atmos / TrueHD
  28. Codec ID                                 : A_TRUEHD
  29. Duration                                 : 2 h 45 min
  30. Bit rate mode                            : Variable
  31. Bit rate                                 : 5 025 kb/s
  32. Maximum bit rate                         : 8 262 kb/s
  33. Channel(s)                               : Object Based / 8 channels
  34. Channel positions                        : Object Based / Front: L C R, Side: L R, Back: L R, LFE
  35. Sampling rate                            :  / 48.0 kHz
  36. Frame rate                               : 1 200.000 FPS (40 SPF)
  37. Compression mode                         : Lossless
  38. Delay relative to video                  : 32 ms
  39. Stream size                              : 5.80GB (14%)
  40. Title                                    : Transformers.Age.of.Extinction.2014.2160p.BluRay.x265.10bit.SDR.DTS-HD.MA.TrueHD.7.1.Atmos-SWTYBLZ
  41. Language                                 : English
  42. Default                                  : Yes
  43. Forced                                   : No

  44. Audio #2
  45. ID                                       : 3
  46. Format                                   : DTS
  47. Format/Info                              : Digital Theater Systems
  48. Format profile                           : MA / Core
  49. Codec ID                                 : A_DTS
  50. Duration                                 : 2 h 45 min
  51. Bit rate mode                            : Variable / Constant
  52. Bit rate                                 : 4 280 kb/s / 1 509 kb/s
  53. Channel(s)                               : 8 channels / 6 channels
  54. Channel positions                        : Front: L C R, Side: L R, Back: L R, LFE / Front: L C R, Side: L R, LFE
  55. Sampling rate                            : 48.0 kHz
  56. Frame rate                               : 93.750 FPS (512 SPF)
  57. Bit depth                                : 24 bits
  58. Compression mode                         : Lossless / Lossy
  59. Stream size                              : 4.94GB (12%)
  60. Title                                    : Transformers.Age.of.Extinction.2014.2160p.BluRay.x265.10bit.SDR.DTS-HD.MA.TrueHD.7.1.Atmos-SWTYBLZ
  61. Language                                 : English
  62. Default                                  : No
  63. Forced                                   : No

  64. Audio #3
  65. ID                                       : 4
  66. Format                                   : AC-3
  67. Format/Info                              : Audio Coding 3
  68. Codec ID                                 : A_AC3
  69. Duration                                 : 2 h 45 min
  70. Bit rate mode                            : Constant
  71. Bit rate                                 : 640 kb/s
  72. Channel(s)                               : 6 channels
  73. Channel positions                        : Front: L C R, Side: L R, LFE
  74. Sampling rate                            : 48.0 kHz
  75. Frame rate                               : 31.250 FPS (1536 SPF)
  76. Bit depth                                : 16 bits
  77. Compression mode                         : Lossy
  78. Delay relative to video                  : 31 ms
  79. Stream size                              : 756 MiB (2%)
  80. Title                                    : Transformers.Age.of.Extinction.2014.2160p.BluRay.x265.10bit.SDR.DTS-HD.MA.TrueHD.7.1.Atmos-SWTYBLZ
  81. Language                                 : English
  82. Service kind                             : Complete Main
  83. Default                                  : No
  84. Forced                                   : No

  85. Text #1
  86. ID                                       : 5
  87. Format                                   : UTF-8
  88. Codec ID                                 : S_TEXT/UTF8
  89. Codec ID/Info                            : UTF-8 Plain Text
  90. Duration                                 : 2 h 34 min
  91. Bit rate                                 : 61 b/s
  92. Count of elements                        : 2154
  93. Stream size                              : 69.9 KiB (0%)
  94. Title                                    : English-SRT
  95. Language                                 : English
  96. Default                                  : Yes
  97. Forced                                   : No

  98. Text #2
  99. ID                                       : 6
  100. Format                                   : PGS
  101. Muxing mode                              : zlib
  102. Codec ID                                 : S_HDMV/PGS
  103. Codec ID/Info                            : Picture based subtitle format used on BDs/HD-DVDs
  104. Duration                                 : 2 h 34 min
  105. Bit rate                                 : 37.2 kb/s
  106. Count of elements                        : 4308
  107. Stream size                              : 41.1 MiB (0%)
  108. Title                                    : English-PGS
  109. Language                                 : English
  110. Default                                  : No
  111. Forced                                   : No

  112. Text #3
  113. ID                                       : 7
  114. Format                                   : PGS
  115. Muxing mode                              : zlib
  116. Codec ID                                 : S_HDMV/PGS
  117. Codec ID/Info                            : Picture based subtitle format used on BDs/HD-DVDs
  118. Duration                                 : 2 h 42 min
  119. Bit rate                                 : 16.7 kb/s
  120. Count of elements                        : 3768
  121. Stream size                              : 19.4 MiB (0%)
  122. Title                                    : Arabic-PGS
  123. Language                                 : Arabic
  124. Default                                  : No
  125. Forced                                   : No

  126. Text #4
  127. ID                                       : 8
  128. Format                                   : PGS
  129. Muxing mode                              : zlib
  130. Codec ID                                 : S_HDMV/PGS
  131. Codec ID/Info                            : Picture based subtitle format used on BDs/HD-DVDs
  132. Duration                                 : 2 h 43 min
  133. Bit rate                                 : 26.3 kb/s
  134. Count of elements                        : 3758
  135. Stream size                              : 30.8 MiB (0%)
  136. Title                                    : Czech-PGS
  137. Language                                 : Czech
  138. Default                                  : No
  139. Forced                                   : No

  140. Text #5
  141. ID                                       : 9
  142. Format                                   : PGS
  143. Muxing mode                              : zlib
  144. Codec ID                                 : S_HDMV/PGS
  145. Codec ID/Info                            : Picture based subtitle format used on BDs/HD-DVDs
  146. Duration                                 : 2 h 42 min
  147. Bit rate                                 : 28.7 kb/s
  148. Count of elements                        : 3222
  149. Stream size                              : 33.4 MiB (0%)
  150. Title                                    : Danish-PGS
  151. Language                                 : Danish
  152. Default                                  : No
  153. Forced                                   : No

  154. Text #6
  155. ID                                       : 10
  156. Format                                   : PGS
  157. Muxing mode                              : zlib
  158. Codec ID                                 : S_HDMV/PGS
  159. Codec ID/Info                            : Picture based subtitle format used on BDs/HD-DVDs
  160. Duration                                 : 2 h 43 min
  161. Bit rate                                 : 34.7 kb/s
  162. Count of elements                        : 4360
  163. Stream size                              : 40.7 MiB (0%)
  164. Title                                    : German-PGS
  165. Language                                 : German
  166. Default                                  : No
  167. Forced                                   : No

  168. Text #7
  169. ID                                       : 11
  170. Format                                   : PGS
  171. Muxing mode                              : zlib
  172. Codec ID                                 : S_HDMV/PGS
  173. Codec ID/Info                            : Picture based subtitle format used on BDs/HD-DVDs
  174. Duration                                 : 2 h 44 min
  175. Bit rate                                 : 32.5 kb/s
  176. Count of elements                        : 3766
  177. Stream size                              : 38.2 MiB (0%)
  178. Title                                    : Greek-PGS
  179. Language                                 : Greek
  180. Default                                  : No
  181. Forced                                   : No

  182. Text #8
  183. ID                                       : 12
  184. Format                                   : PGS
  185. Muxing mode                              : zlib
  186. Codec ID                                 : S_HDMV/PGS
  187. Codec ID/Info                            : Picture based subtitle format used on BDs/HD-DVDs
  188. Duration                                 : 2 h 43 min
  189. Bit rate                                 : 32.6 kb/s
  190. Count of elements                        : 3900
  191. Stream size                              : 38.2 MiB (0%)
  192. Title                                    : Spanish-PGS
  193. Language                                 : Spanish
  194. Default                                  : No
  195. Forced                                   : No

  196. Text #9
  197. ID                                       : 13
  198. Format                                   : PGS
  199. Muxing mode                              : zlib
  200. Codec ID                                 : S_HDMV/PGS
  201. Codec ID/Info                            : Picture based subtitle format used on BDs/HD-DVDs
  202. Duration                                 : 2 h 43 min
  203. Bit rate                                 : 28.2 kb/s
  204. Count of elements                        : 4088
  205. Stream size                              : 33.1 MiB (0%)
  206. Title                                    : French-PGS
  207. Language                                 : French
  208. Default                                  : No
  209. Forced                                   : No

  210. Text #10
  211. ID                                       : 14
  212. Format                                   : PGS
  213. Muxing mode                              : zlib
  214. Codec ID                                 : S_HDMV/PGS
  215. Codec ID/Info                            : Picture based subtitle format used on BDs/HD-DVDs
  216. Duration                                 : 2 h 42 min
  217. Bit rate                                 : 30.1 kb/s
  218. Count of elements                        : 4505
  219. Stream size                              : 35.0 MiB (0%)
  220. Title                                    : Hindi-PGS
  221. Language                                 : Hindi
  222. Default                                  : No
  223. Forced                                   : No

  224. Text #11
  225. ID                                       : 15
  226. Format                                   : PGS
  227. Muxing mode                              : zlib
  228. Codec ID                                 : S_HDMV/PGS
  229. Codec ID/Info                            : Picture based subtitle format used on BDs/HD-DVDs
  230. Duration                                 : 2 h 42 min
  231. Bit rate                                 : 29.9 kb/s
  232. Count of elements                        : 3754
  233. Stream size                              : 34.8 MiB (0%)
  234. Title                                    : Icelandic-PGS
  235. Language                                 : Icelandic
  236. Default                                  : No
  237. Forced                                   : No

  238. Text #12
  239. ID                                       : 16
  240. Format                                   : PGS
  241. Muxing mode                              : zlib
  242. Codec ID                                 : S_HDMV/PGS
  243. Codec ID/Info                            : Picture based subtitle format used on BDs/HD-DVDs
  244. Duration                                 : 2 h 44 min
  245. Bit rate                                 : 30.4 kb/s
  246. Count of elements                        : 3688
  247. Stream size                              : 35.7 MiB (0%)
  248. Title                                    : Italian-PGS
  249. Language                                 : Italian
  250. Default                                  : No
  251. Forced                                   : No

  252. Text #13
  253. ID                                       : 17
  254. Format                                   : PGS
  255. Muxing mode                              : zlib
  256. Codec ID                                 : S_HDMV/PGS
  257. Codec ID/Info                            : Picture based subtitle format used on BDs/HD-DVDs
  258. Duration                                 : 2 h 34 min
  259. Bit rate                                 : 26.5 kb/s
  260. Count of elements                        : 4212
  261. Stream size                              : 29.3 MiB (0%)
  262. Title                                    : Japanese-PGS
  263. Language                                 : Japanese
  264. Default                                  : No
  265. Forced                                   : No

  266. Text #14
  267. ID                                       : 18
  268. Format                                   : PGS
  269. Muxing mode                              : zlib
  270. Codec ID                                 : S_HDMV/PGS
  271. Codec ID/Info                            : Picture based subtitle format used on BDs/HD-DVDs
  272. Duration                                 : 2 h 44 min
  273. Bit rate                                 : 19.0 kb/s
  274. Count of elements                        : 3758
  275. Stream size                              : 22.3 MiB (0%)
  276. Title                                    : Korean-PGS
  277. Language                                 : Korean
  278. Default                                  : No
  279. Forced                                   : No

  280. Text #15
  281. ID                                       : 19
  282. Format                                   : PGS
  283. Muxing mode                              : zlib
  284. Codec ID                                 : S_HDMV/PGS
  285. Codec ID/Info                            : Picture based subtitle format used on BDs/HD-DVDs
  286. Duration                                 : 2 h 42 min
  287. Bit rate                                 : 27.9 kb/s
  288. Count of elements                        : 3456
  289. Stream size                              : 32.4 MiB (0%)
  290. Title                                    : Dutch-PGS
  291. Language                                 : Dutch
  292. Default                                  : No
  293. Forced                                   : No

  294. Text #16
  295. ID                                       : 20
  296. Format                                   : PGS
  297. Muxing mode                              : zlib
  298. Codec ID                                 : S_HDMV/PGS
  299. Codec ID/Info                            : Picture based subtitle format used on BDs/HD-DVDs
  300. Duration                                 : 2 h 42 min
  301. Bit rate                                 : 29.5 kb/s
  302. Count of elements                        : 3760
  303. Stream size                              : 34.3 MiB (0%)
  304. Title                                    : Norwegian-PGS
  305. Language                                 : Norwegian
  306. Default                                  : No
  307. Forced                                   : No

  308. Text #17
  309. ID                                       : 21
  310. Format                                   : PGS
  311. Muxing mode                              : zlib
  312. Codec ID                                 : S_HDMV/PGS
  313. Codec ID/Info                            : Picture based subtitle format used on BDs/HD-DVDs
  314. Duration                                 : 2 h 43 min
  315. Bit rate                                 : 32.8 kb/s
  316. Count of elements                        : 3866
  317. Stream size                              : 38.4 MiB (0%)
  318. Title                                    : Portuguese-PGS
  319. Language                                 : Portuguese
  320. Default                                  : No
  321. Forced                                   : No

  322. Text #18
  323. ID                                       : 22
  324. Format                                   : PGS
  325. Muxing mode                              : zlib
  326. Codec ID                                 : S_HDMV/PGS
  327. Codec ID/Info                            : Picture based subtitle format used on BDs/HD-DVDs
  328. Duration                                 : 2 h 43 min
  329. Bit rate                                 : 27.8 kb/s
  330. Count of elements                        : 3756
  331. Stream size                              : 32.5 MiB (0%)
  332. Title                                    : Romanian-PGS
  333. Language                                 : Romanian
  334. Default                                  : No
  335. Forced                                   : No

  336. Text #19
  337. ID                                       : 23
  338. Format                                   : PGS
  339. Muxing mode                              : zlib
  340. Codec ID                                 : S_HDMV/PGS
  341. Codec ID/Info                            : Picture based subtitle format used on BDs/HD-DVDs
  342. Duration                                 : 2 h 43 min
  343. Bit rate                                 : 28.3 kb/s
  344. Count of elements                        : 3760
  345. Stream size                              : 33.1 MiB (0%)
  346. Title                                    : Slovak-PGS
  347. Language                                 : Slovak
  348. Default                                  : No
  349. Forced                                   : No

  350. Text #20
  351. ID                                       : 24
  352. Format                                   : PGS
  353. Muxing mode                              : zlib
  354. Codec ID                                 : S_HDMV/PGS
  355. Codec ID/Info                            : Picture based subtitle format used on BDs/HD-DVDs
  356. Duration                                 : 2 h 42 min
  357. Bit rate                                 : 31.4 kb/s
  358. Count of elements                        : 4364
  359. Stream size                              : 36.5 MiB (0%)
  360. Title                                    : Finnish-PGS
  361. Language                                 : Finnish
  362. Default                                  : No
  363. Forced                                   : No

  364. Text #21
  365. ID                                       : 25
  366. Format                                   : PGS
  367. Muxing mode                              : zlib
  368. Codec ID                                 : S_HDMV/PGS
  369. Codec ID/Info                            : Picture based subtitle format used on BDs/HD-DVDs
  370. Duration                                 : 2 h 42 min
  371. Bit rate                                 : 30.2 kb/s
  372. Count of elements                        : 3744
  373. Stream size                              : 35.1 MiB (0%)
  374. Title                                    : Swedish-PGS
  375. Language                                 : Swedish
  376. Default                                  : No
  377. Forced                                   : No

  378. Text #22
  379. ID                                       : 26
  380. Format                                   : PGS
  381. Muxing mode                              : zlib
  382. Codec ID                                 : S_HDMV/PGS
  383. Codec ID/Info                            : Picture based subtitle format used on BDs/HD-DVDs
  384. Duration                                 : 2 h 44 min
  385. Bit rate                                 : 22.1 kb/s
  386. Count of elements                        : 3768
  387. Stream size                              : 25.9 MiB (0%)
  388. Title                                    : Thai-PGS
  389. Language                                 : Thai
  390. Default                                  : No
  391. Forced                                   : No

  392. Text #23
  393. ID                                       : 27
  394. Format                                   : PGS
  395. Muxing mode                              : zlib
  396. Codec ID                                 : S_HDMV/PGS
  397. Codec ID/Info                            : Picture based subtitle format used on BDs/HD-DVDs
  398. Duration                                 : 2 h 43 min
  399. Bit rate                                 : 31.2 kb/s
  400. Count of elements                        : 3768
  401. Stream size                              : 36.6 MiB (0%)
  402. Title                                    : Turkish-PGS
  403. Language                                 : Turkish
  404. Default                                  : No
  405. Forced                                   : No

  406. Text #24
  407. ID                                       : 28
  408. Format                                   : PGS
  409. Muxing mode                              : zlib
  410. Codec ID                                 : S_HDMV/PGS
  411. Codec ID/Info                            : Picture based subtitle format used on BDs/HD-DVDs
  412. Duration                                 : 2 h 42 min
  413. Bit rate                                 : 34.8 kb/s
  414. Count of elements                        : 4388
  415. Stream size                              : 40.5 MiB (0%)
  416. Title                                    : Ukranian-PGS
  417. Language                                 : Ukrainian
  418. Default                                  : No
  419. Forced                                   : No

  420. Menu
  421. 00:00:00.000                             : en:Chapter 1
  422. 00:06:51.577                             : en:Chapter 2
  423. 00:14:33.581                             : en:Chapter 3
  424. 00:21:37.462                             : en:Chapter 4
  425. 00:30:13.394                             : en:Chapter 5
  426. 00:38:45.990                             : en:Chapter 6
  427. 00:46:08.056                             : en:Chapter 7
  428. 00:51:39.513                             : en:Chapter 8
  429. 00:59:09.337                             : en:Chapter 9
  430. 01:07:48.647                             : en:Chapter 10
  431. 01:15:14.551                             : en:Chapter 11
  432. 01:23:25.291                             : en:Chapter 12
  433. 01:29:14.724                             : en:Chapter 13
  434. 01:37:16.956                             : en:Chapter 14
  435. 01:44:35.435                             : en:Chapter 15
  436. 01:51:25.053                             : en:Chapter 16
  437. 01:57:47.935                             : en:Chapter 17
  438. 02:04:48.481                             : en:Chapter 18
  439. 02:12:35.864                             : en:Chapter 19
  440. 02:21:04.205                             : en:Chapter 20
  441. 02:28:48.669                             : en:Chapter 21
  442. 02:37:09.628                             : en:Chapter 22

复制代码
复制代码
014553lpjlqpjz7gmw7gwk.png 014554i424gqtlfqgh2g3g.png 014555lx8lkk28f3j9m5zw.png 014556duifu72iolwrq7ub.png 014557sqtbs3svcp3epsp5.png 014558d6lo6idgv3rr66ik.png 014559wm432lp22npaoemm.png

                                                                                                


本帖隐藏的下载地址需要VIP会员才可阅读,您需要升级才可阅读,点击这里升级VIP

VIP会员免费任意下载本站所有资源!---点击开通
回复

使用道具 举报

 成长值: 5020

级别:尊贵的会员

注册时间
2018-6-4
最后登录
2019-11-19
听众
12
收听
0
主题
0
蓝光币
88 枚
贡献
0 点
发表于 2019-11-4 10:39:36 | 显示全部楼层

感谢楼主的无私分享!要想中国高清电影网好 就靠你我他
VIP会员免费任意下载本站所有资源!---点击开通
回复

使用道具 举报

懒得打字嘛,点击右侧快捷回复 【右侧内容,后台自定义】
您需要登录后才可以回帖 登录 | 立即注册

本版积分规则

QQ|Archiver|手机版|小黑屋| 中国高清网 |网站地图

GMT+8, 2019-11-20 23:18 , Processed in 0.239529 second(s), 37 queries .

Powered by HDchina X3.4

Copyright 2017-2019©HDchina.All right reserved

返回顶部 联系我们