查看: 44|回复: 2

[剧情片] 欲望号快车/撞车 Crash.1996.UNRATED.720p.BluRay.X264-AMIABLE 6.91GB

[复制链接]

 成长值: 5460

级别:资源管理组

注册时间
2017-10-20
最后登录
2020-5-28
听众
1
收听
0
主题
96235
蓝光币
152124 枚
贡献
20613 点
发表于 5 天前 | 显示全部楼层 |阅读模式
愿望号快车/撞车 Crash.1996.UNRATED.720p.BluRay.X264-AMIABLE 6.91GB-1.png 1 W8 l, r! f* R7 y

$ F9 c5 Z1 e# n5 p$ n1 V2 K译  名 愿望号快车 / 撞车 / 超速性追缉(台)
! V6 r8 k# h. N% e8 @. j6 x/ ?片  名 Crash
5 G2 I8 Z* P* @0 s/ q: l6 `' Q: e年  代 1996
* j# h5 N: o: U, E产  地 加拿大 / 英国
  y% `: y4 @- j类  别 剧情
6 s/ {5 B" r& F" S% J语  言 英语 / 瑞典语
4 l6 }, ^' i/ T+ P$ ]上映日期 1996-05-17(戛纳电影节) / 1996-10-04(加拿大)
4 |& T2 X0 R* P6 GIMDb评分  6.4/10 from 49760 users
% T9 p! d/ z$ u" Q0 \. HIMDb链接  https://www.imdb.com/title/tt0115964
" Z" g" Y- l: [2 w& {5 _豆瓣评分 6.9/10 from 8212 users! q2 [  d' s2 r2 ?4 o7 G
豆瓣链接 https://movie.douban.com/subject/1292682/
! c& g$ @$ K8 `! c9 K片  长 100分钟  }$ q; X' q5 H+ Z7 Y
导  演 大卫·柯南伯格 David Cronenberg
; u5 D6 s, N8 ]" m- b. l  D8 d. {编  剧 J·G·巴拉德 J.G. Ballard / 大卫·柯南伯格 David Cronenberg' g6 T3 K( I, h5 r- k/ G% f7 g* h+ z
主  演 詹姆斯·斯派德 James Spader
) G1 L6 Y. I1 [3 n9 }% q/ J       霍利·亨特 Holly Hunter
6 k1 N, e' \+ {9 X( C       伊莱亚斯·科泰斯 Elias Koteas
. M3 A2 y' d! y* g  `* B% b& X5 D4 o       黛博拉·卡拉·安格 Deborah Kara Unger& S: G. r. o) c2 ^
       罗姗娜·阿奎特 Rosanna Arquette6 n) v6 S$ {1 H; o
       彼得·麦克内尔 Peter MacNeill  w  j$ `2 J. b. j
       Yolande Julian
9 a. u: S7 D+ M" {3 O) V0 C# F) K       Cheryl Swarts; Y% C/ `% u3 ^& A+ i3 i$ U: U+ R& I
       朱达·卡茨 Judah Katz
" J+ d& [5 K3 u+ H* s% e9 W       妮基·瓜达尼 Nicky Guadagni' R" z0 k% N0 T- R3 A; E
       Ronn Sarosiak9 U5 r" v$ O- m( l
       博伊德·班克斯 Boyd Banks
  y* M" N9 c( k% B: W$ M+ W; K       Markus Parilo
( _) e7 ?9 n4 w& r7 z0 n  w       Alice Poon2 Q5 I# S' I' F* e5 H1 q
       John Stoneham Jr.# v) y* O" m7 Q; A
       大卫·柯南伯格 David Cronenberg( y7 o5 Q/ |3 l' A1 c5 i
       乔丹 Jordan
0 Q4 K4 T# t2 v) c1 C% m/ R8 T4 ~
& X. c+ n7 t5 u4 m7 h) T8 n+ v- T: v2 q: ^
标  签 情色 | 加拿大 | 1996 | 剧情 | 英国 | 美国 | 惊悚 | 人性8 M4 J% r' s+ d' R2 v; k) a6 p

6 T0 x$ Z1 I  g5 A+ s! X简  介  
7 \* x  E& I  u" A
1 m; ^) u+ k+ l! X  电影制片人詹姆斯(James Spader 饰)沉迷于性事,在女友凯瑟琳之外另有很多情人。一次开车回家的路上他与另一辆车相撞,詹姆斯腿部重伤,劈面车中的夫妻两人则丈夫灭亡妻子海伦(Holly Hunter 饰)负伤,詹姆斯在报废车场偶遇海伦,两人由此结识,未几海伦带他参观了由医生沃甘主持的撞车活动,这些爱好者热衷用实在的撞车复原某些变乱,詹姆斯进入了一个匪夷所思的圈子。沃甘身份奥秘,宣扬撞车是开释自我的有用路子,为此不惜以身犯险。随着詹姆斯与沃甘的交往不竭加深,两人终究在车上发生了关系,而随后沃甘驾车撞击詹姆斯与凯瑟琳却致使自己灭亡。詹姆斯浩劫不死后又驾驶者一辆废旧汽车撞向了凯瑟琳……1 K! K* {6 W; V* ~( {6 H( Q$ ^% Z
  本片获1996年加拿大吉尼奖导演奖等多项嘉奖。
+ D& j) D+ I+ I! `- b2 e1 r0 ~6 m/ f- B& l8 G; q" g
获奖情况  
" f; |1 i7 ]3 _# V: O7 Q! f; k
& ^/ A/ S/ X& T  第49届戛纳电影节(1996)5 Q6 t$ x% [! j' ~7 \! {7 M9 C3 B
  主比赛单元 金棕榈奖(提名) 大卫·柯南伯格4 A( r3 T& A  u0 y+ q7 d+ |/ G
  主比赛单元 评审团出格奖 大卫·柯南伯格
8 P3 d5 l, y# L/ T
  1. Video
    0 F0 e2 ^3 s' [  |9 d* L
  2. ID                                       : 1" p5 t$ F8 N6 ~8 L; S. `
  3. Format                                   : AVC
    $ S( w- Q1 V! F
  4. Format/Info                              : Advanced Video Codec4 K/ s% i0 w: c1 y+ I4 d% R
  5. Format profile                           : High@L4, k8 G3 {8 y4 E7 s* J' z' R
  6. Format settings                          : CABAC / 8 Ref Frames
    8 }( w, A% y" V, Y9 [- A
  7. Format settings, CABAC                   : Yes
    ! a+ ~2 p8 @9 c
  8. Format settings, Reference frames        : 8 frames, C" _" f  P  |% {: G- ]1 ?# m
  9. Codec ID                                 : V_MPEG4/ISO/AVC) B. p. Q% R9 \8 u9 H
  10. Duration                                 : 1 h 39 min, r! q8 Y: [0 D) f; u8 \
  11. Bit rate                                 : 9 256 kb/s
    & B/ p* I3 p! c- b( M5 r6 @9 g+ R
  12. Width                                    : 1 200 pixels
    6 |5 p+ ~( e4 j( |$ l
  13. Height                                   : 720 pixels
    ) U7 o8 p1 Y% \5 g
  14. Display aspect ratio                     : 5:3+ w. Z+ H# @+ D1 x. h
  15. Frame rate mode                          : Constant
    - T& {1 g/ [( m4 T* p. h
  16. Frame rate                               : 23.976 (24000/1001/189150) FPS
    : c; J4 _% x& ^/ Q2 H5 }
  17. Color space                              : YUV
    7 n9 N9 G! U  X) @1 |+ d3 Z  {
  18. Chroma subsampling                       : 4:2:03 C6 k  v5 p4 _( ~4 p- b8 j
  19. Bit depth                                : 8 bits
    " u% Y2 S9 K( `4 d0 a" V( p
  20. Scan type                                : Progressive
    - O; x1 X7 F% A2 l
  21. Bits/(Pixel*Frame)                       : 0.447; b5 M. v& P5 B" h, c
  22. Stream size                              : 6.45 GiB (93%)
    2 U, m3 p8 h/ ]& r! y: }- k! c
  23. Writing library                          : x264 core 160 r3000 33f9e14
    + [# l( b' \. u( D+ R5 e
  24. Encoding settings                        : cabac=1 / ref=8 / deblock=1:-3:-3 / analyse=0x3:0x133 / me=umh / subme=9 / psy=1 / psy_rd=1.12:0.00 / mixed_ref=1 / me_range=24 / chroma_me=1 / trellis=2 / 8x8dct=1 / cqm=0 / deadzone=21,11 / fast_pskip=0 / chroma_qp_offset=-2 / threads=22 / lookahead_threads=1 / sliced_threads=0 / nr=0 / decimate=0 / interlaced=0 / bluray_compat=0 / constrained_intra=0 / bframes=3 / b_pyramid=2 / b_adapt=2 / b_bias=0 / direct=3 / weightb=1 / open_gop=0 / weightp=2 / keyint=250 / keyint_min=23 / scenecut=40 / intra_refresh=0 / rc=crf / mbtree=0 / crf=19.8 / qcomp=0.60 / qpmin=0 / qpmax=69 / qpstep=4 / ip_ratio=1.40 / pb_ratio=1.30 / aq=3:0.70
    ; [3 Q: N1 @5 G& ~$ K7 O
  25. Default                                  : Yes
    6 q5 q) K' G  ], X) [
  26. Forced                                   : No) O2 z; ^9 Y$ P$ S; p
  27. Color range                              : Limited/ d/ V7 w6 p3 H5 Y7 P
  28. Matrix coefficients                      : BT.709% P. ~5 u/ s. \7 f9 R5 t# s

  29. . a+ G: b# @/ A! }, U7 F% u
  30. Audio
    + H9 @: i' P2 {- _# p3 {; t
  31. ID                                       : 2( _# U' |2 g! \3 d0 D
  32. Format                                   : AC-3# ]! T  I5 Z; ~) I" o
  33. Format/Info                              : Audio Coding 3& e4 r4 l( [% }1 W2 ^5 y
  34. Commercial name                          : Dolby Digital
    % Y4 f( P: w7 b: c+ N8 ^
  35. Codec ID                                 : A_AC38 k9 G/ k* q6 R" }4 j
  36. Duration                                 : 1 h 39 min) ~/ {9 P( m* @. ~# Y
  37. Bit rate mode                            : Constant9 N& o7 S; Q  R& o4 ]
  38. Bit rate                                 : 640 kb/s( R3 X& [( n2 \
  39. Channel(s)                               : 6 channels
    - i/ G" j# ~3 e) R% ~  \
  40. Channel layout                           : L R C LFE Ls Rs
    " ?  z7 E  f% S' a, ^! O
  41. Sampling rate                            : 48.0 kHz
    + h6 X! U9 F% N6 B, q/ b) y3 U
  42. Frame rate                               : 31.250 FPS (1536 SPF)
    7 ?' f' [8 i3 t$ y  L' L
  43. Bit depth                                : 16 bits
    ! Y. T4 k7 }, Z8 l
  44. Compression mode                         : Lossy0 S3 D" b: l2 M' B6 Y& `/ y
  45. Stream size                              : 457 MiB (6%)( |1 q: p0 d4 o* U: X
  46. Title                                    : AC-3 5.1
    & b. y. \9 X. J: M% h8 ]7 ]7 _/ ^1 G
  47. Language                                 : English& w' E+ I" \* F# z3 L- c
  48. Service kind                             : Complete Main
    " d0 j8 S4 M, T" s4 d
  49. Default                                  : Yes
    8 a  i: U  }& ]  M
  50. Forced                                   : No
    7 w* P7 j& j* z  {  @0 D1 u
  51. # B: ~4 y, J9 {8 Q5 `0 |! J
  52. Text #1
    / \6 \6 G1 Q/ O+ }, m- x
  53. ID                                       : 3
    5 B) G  T3 P7 f0 S
  54. Format                                   : UTF-8+ l7 l4 l* \. L* u) A1 h
  55. Codec ID                                 : S_TEXT/UTF8
    # K- o# A( ]& R  _, ?4 I5 N
  56. Codec ID/Info                            : UTF-8 Plain Text
    , }; T' m4 F6 E
  57. Duration                                 : 1 h 30 min
    $ m5 F& Y* E% I. h4 M8 w
  58. Bit rate                                 : 21 b/s
    , W1 }" Z' p0 G
  59. Count of elements                        : 434
    ; f' n& `8 Y5 |% x
  60. Stream size                              : 14.1 KiB (0%)% F3 |& }4 t8 S# _, t
  61. Title                                    : Full SRT3 M+ q4 Q9 n( T$ N8 P# u7 l* i
  62. Language                                 : English- D! n1 s3 m5 S
  63. Default                                  : No
    5 z& S" {6 p" d( E, R
  64. Forced                                   : No0 V4 i3 T3 b# Y: L  S7 I8 i8 K

  65. ' |$ a3 D0 L, h2 _- E
  66. Text #28 H6 ?6 S  G( s: z' e  v- D
  67. ID                                       : 4
    ! q. C0 K$ K3 u" N
  68. Format                                   : PGS- a- [( v4 w* U9 p- o3 m6 z
  69. Muxing mode                              : zlib
    3 k! `! k# s2 r' ?
  70. Codec ID                                 : S_HDMV/PGS+ }9 ]  T4 r; E3 s0 n) h
  71. Codec ID/Info                            : Picture based subtitle format used on BDs/HD-DVDs
    ) T8 W8 F/ c  i# F) U& U
  72. Duration                                 : 1 h 30 min
    7 W+ f/ m& I; S& h) ?# B4 Y
  73. Bit rate                                 : 13.9 kb/s
    8 |7 n: ?) j! j0 q/ e
  74. Count of elements                        : 8684 d. q( G7 ?& N/ o
  75. Stream size                              : 8.98 MiB (0%)1 Q, V! l. x) Q% e" h
  76. Title                                    : Full
    5 p0 V* c  n6 g5 M( n8 Z- I
  77. Language                                 : English
    - l* H+ N( p+ J! s( G! p6 _
  78. Default                                  : No" U' y( p! y' G. j) m
  79. Forced                                   : No' V7 Y0 \$ i/ U, g  D, a( A

  80. 1 X9 U  }$ p  {1 e
  81. Text #3
    5 A' Y9 J) T! r! u
  82. ID                                       : 55 }0 ?' [9 u# S% H6 d6 m
  83. Format                                   : PGS
    5 O. W3 u: p9 T3 \7 n2 ?# Q  ^  v# A
  84. Muxing mode                              : zlib/ L1 t  ~; T* ?
  85. Codec ID                                 : S_HDMV/PGS( W6 b* q2 n) R/ T
  86. Codec ID/Info                            : Picture based subtitle format used on BDs/HD-DVDs2 ~7 P* b, N% [: i; k; T9 @; j% `1 X
  87. Duration                                 : 1 h 30 min% B4 Q4 A+ {, y$ h5 _$ o
  88. Bit rate                                 : 16.0 kb/s$ ~. |: Z# B/ d4 N9 X) h4 L
  89. Count of elements                        : 814
    + W5 m0 z; p5 y1 d* K5 H0 H
  90. Stream size                              : 10.3 MiB (0%): L% x3 r. s) r( \
  91. Title                                    : German3 q0 d) A0 ^; }. J% c
  92. Language                                 : German
    1 I1 Z- S; i. Y# q% N. r
  93. Default                                  : No
    2 A9 E  I8 t+ a& v
  94. Forced                                   : No
    2 d. W  A0 t0 c& f# h3 o8 Q6 {# q- z
  95. 4 J" c* m. H9 z6 o2 j
  96. Menu4 n; d  M# C: a" t3 R+ u8 R
  97. 00:00:00.000                             : en:Chapter 01
    7 _/ l# s' u3 S8 n* r# x
  98. 00:02:47.167                             : en:Chapter 02
    - P# z; h' v- P1 [; F) D0 t
  99. 00:06:46.489                             : en:Chapter 03& U. q& e# ~) O8 T* N8 u/ H7 \: I
  100. 00:10:59.659                             : en:Chapter 04. D- e+ O9 l% a8 o/ C# R
  101. 00:16:07.967                             : en:Chapter 05& {; Z# m; S3 y1 `' j
  102. 00:20:09.208                             : en:Chapter 06( B' ]4 U; |+ A7 {
  103. 00:25:22.604                             : en:Chapter 07
    ; i, [1 z. w$ p
  104. 00:33:53.031                             : en:Chapter 08
    1 n) J, ~+ V3 p: ?0 F" z) U1 w$ n
  105. 00:36:54.212                             : en:Chapter 09; u! M4 W; N# d' i3 k
  106. 00:40:40.438                             : en:Chapter 10
    ! l9 R+ ~: E( v, W. J, D1 y
  107. 00:50:50.047                             : en:Chapter 11" t/ v4 I- `: d- C) {: [
  108. 00:58:03.480                             : en:Chapter 12' S$ E, L4 R* Y! @+ @0 W/ l, U
  109. 01:04:38.875                             : en:Chapter 13
    * J0 b* X! d6 }- L9 \  z2 I
  110. 01:11:25.281                             : en:Chapter 14; Q! w6 ^) p# z. o# c( d# r( g9 ~
  111. 01:17:03.619                             : en:Chapter 15
    6 O- |# Y9 L  D. J' v
  112. 01:24:38.073                             : en:Chapter 16
    5 M9 s) }0 T' |) t8 E$ t% f0 J
  113. 01:30:27.422                             : en:Chapter 176 W6 `3 z! }2 `% Q' n
  114. 01:36:13.768                             : en:Chapter 18
复制代码
. A' @  x6 ^  `9 z9 m
愿望号快车/撞车 Crash.1996.UNRATED.720p.BluRay.X264-AMIABLE 6.91GB-2.png
/ _- L" j3 I  S8 A8 `
- S6 ?: n! ?6 S9 Z/ u" e9 c. D( U* w5 d  t, }
2 S. l! _. c; W8 c- u/ p+ f
" G% j; b3 q  v
) ^+ P- z- V4 P- A6 v! C
本帖隐藏的下载地址需要VIP会员才可阅读,您需要升级才可阅读,点击这里升级VIP
3 ?, z, G9 f# e1 g3 }
回复

使用道具 举报

 成长值: 1290

级别:尊贵的会员

注册时间
2020-3-1
最后登录
2020-5-28
听众
2
收听
0
主题
0
蓝光币
331 枚
贡献
0 点
发表于 4 天前 | 显示全部楼层
楼主发贴辛苦了,谢谢楼主分享!我觉得中国高清电影网是注册对了!
回复

使用道具 举报

懒得打字嘛,点击右侧快捷回复 【右侧内容,后台自定义】
您需要登录后才可以回帖 登录 | 立即注册

本版积分规则

Archiver|手机版|小黑屋| 中国高清网 ( ICP备17007870号-2 ) |网站地图 

GMT+8, 2020-5-28 19:01 , Processed in 0.187420 second(s), 39 queries .

Powered by HDchina X3.4

Copyright 2017-2019©HDchina.All right reserved

返回顶部 联系我们