查看: 55|回复: 3

[剧情片] 圣女贞德:战争篇 Joan.the.Maid.1.The.Battles.1994.720p.BluRay.x264-DEPTH 8.89GB

[复制链接]

 成长值: 5460

级别:资源管理组

注册时间
2017-10-20
最后登录
2020-5-28
听众
1
收听
0
主题
96235
蓝光币
152168 枚
贡献
20613 点
发表于 5 天前 | 显示全部楼层 |阅读模式
圣女贞德:战争篇 Joan.the.Maid.1.The.Battles.1994.720p.BluRay.x264-DEPTH 8.89GB-1.png " D4 H* ]/ m4 I. s
* U8 F3 f6 I% @6 \
译  名 圣女贞德:战争篇 / Joan the Maid 1.: The Battles% ^6 X! r' D3 c
片  名 Jeanne la Pucelle I - Les batailles8 ^# C/ L, u) _  F0 p0 R  h
年  代 1994) P% _' N$ H* B; ^1 ^4 M3 h; b
产  地 法国4 g- _; \: L$ _1 n7 W( V5 S
类  别 剧情 / 列传 / 历史 / 战争  e. h- [* j- w9 _6 ?
语  言 法语7 p& p) p4 E/ q. e
上映日期 1994-02-09(法国)6 R5 ^! `) {4 A4 O0 }8 \, B( I
IMDb评分  7.1/10 from 547 users
! J/ W! y7 X! u6 x* t2 E  ZIMDb链接  https://www.imdb.com/title/tt0107259( s2 w! {8 h$ }3 _
豆瓣评分 7.3/10 from 103 users( ~# P/ |! I' X' P/ I# @! G4 w
豆瓣链接 https://movie.douban.com/subject/1957964/
" j  X+ p5 @! T. i  _" W片  长 160 分钟
1 e& a$ Y7 _- r* V( w- o% u' k) r+ `导  演 雅克·里维特 Jacques Rivette) g+ r9 D# a* l3 N# m! l
编  剧 帕斯卡尔·博尼策尔 Pascal Bonitzer / Christine Laurent / 雅克·里维特 Jacques Rivette
- [8 l: C  ~6 o主  演 Tatiana Moukhine
( R9 R+ B  Z+ Z& D6 Z/ c, C       桑德里娜·博内尔 Sandrine Bonnaire
9 E" [! a$ G  k: b1 I: w       Jean-Marie Richier* w7 o9 \+ F+ Y, c# Y  e2 H
       Baptiste Roussillon
) P2 D( q9 k& Y6 W1 e: K       Jean-Luc Petit
, T4 i  {. `2 H, j; l       Bernadette Giraud1 d  H+ ?: M% M2 V
       Jean-Claude Jay3 x# E& p3 w. b& ?0 ~5 U
       Olivier Cruveiller9 N$ f2 M! `8 P# R( |5 \0 I) i
       Benjamin Rataud( _. d, w6 a$ J# T+ P4 o
       Cyril Haouzi
' C; j( F7 I( W( A6 l$ k       Réginald Huguenin# T1 ~- L! J, x: X
       Patrick Adomian$ g& z1 R& V: E' l
       Nicolas Vian
- d+ g/ k/ F4 K) v       安德烈·马尔孔 André Marcon9 r" U/ ], |  G# q, O
       让-路易·里夏尔 Jean-Louis Richard: F" q2 K4 Y3 d% C5 I
       马塞尔·博佐内 Marcel Bozonnet3 R4 o, _4 Y0 J4 S! e/ E
       让-皮耶·罗利特 Jean-Pierre Lorit
& G2 M9 d& q1 h+ F' H# b       Jér?me Nicolin# [( t- [. H" I/ m3 {+ u0 ^' Z
       布鲁诺·沃尔科维奇 Bruno Wolkowitch
8 ]0 P4 v6 M& q) a5 J0 {# {       皮埃尔·巴约 Pierre Baillot
0 Q+ _3 ?5 _, x1 [+ v6 ?; U' q- f       马蒂亚斯·容 Mathias Jung
1 @' h% G5 J; d" B! L% [% Z, I       泽维尔·玛利 Xavier Maly
9 f2 C, S- c6 u       雅克·里维特 Jacques Rivette
0 X/ M* p$ G6 k  y* K$ A9 Z' ^7 J5 e3 v& L

8 e; W6 R" Y- a8 l1 F标  签 法国 | Jacques_Rivette | 法国电影 | JacquesRivette | 列传 | 雅克·里维特 | 1994 | 1990s
3 c8 _* d) V9 K& z  q# j& u& U9 c1 Z4 Q8 @/ Q6 h
简  介  9 i/ F& ]2 w- i1 ?. p6 m

# l( m: a! v- P7 ?3 H( N& e! P  ^* A/ p  暂无相关剧情先容/ Y2 r( S6 H- L5 o  A
  1. Video7 j% L* u) P- R; f* J/ h
  2. ID                                       : 1; j$ n  z8 w4 ~$ W  t" D
  3. Format                                   : AVC# G$ `7 O7 W+ m. e  |6 \
  4. Format/Info                              : Advanced Video Codec
    : f5 |# p, ]; v" l( r
  5. Format profile                           : High@L4$ [+ W+ o- ~% J9 q- t0 y3 w
  6. Format settings                          : CABAC / 9 Ref Frames
    7 v/ [) a8 g1 [
  7. Format settings, CABAC                   : Yes3 A( f# n, f2 u$ d/ p% Q
  8. Format settings, Reference frames        : 9 frames5 A& ~- F/ M( a/ N2 f
  9. Codec ID                                 : V_MPEG4/ISO/AVC
    5 U8 b! P( r& H( x# {% j
  10. Duration                                 : 2 h 40 min$ C+ I  W) {. n; |) Z! ^1 Q5 d. K
  11. Bit rate                                 : 7 285 kb/s
    . ?( U* ]! _; `4 Q% x
  12. Width                                    : 1 280 pixels
    6 M# i- @6 J9 b5 e% V1 ^' H
  13. Height                                   : 690 pixels# D- i0 \! j2 F7 j$ f
  14. Display aspect ratio                     : 1.85:1
    8 B: s& E+ S: o- A$ m5 |
  15. Frame rate mode                          : Constant: H2 ^+ }1 y+ J+ ?* N$ t
  16. Frame rate                               : 24.000 FPS9 c  C6 O  V- U% D6 y; l$ q; g
  17. Color space                              : YUV
    4 G0 t7 O5 S- ~7 @: N3 t* }
  18. Chroma subsampling                       : 4:2:0
    . h, U/ a% A2 u5 H8 ^0 N
  19. Bit depth                                : 8 bits1 l$ c- h) n0 k0 P4 Y/ o/ O+ O4 a( c
  20. Scan type                                : Progressive
      }$ w; S" r, J: Z* e9 C
  21. Bits/(Pixel*Frame)                       : 0.344# _' k! _! X, f/ Q
  22. Stream size                              : 8.16 GiB (92%)+ Q. w* n( f# Z( c  E
  23. Writing library                          : x264 core 160 r3000 33f9e14
    : y; C- d4 G; ?2 `2 u
  24. Encoding settings                        : cabac=1 / ref=9 / deblock=1:-3:-3 / analyse=0x3:0x133 / me=umh / subme=10 / psy=1 / psy_rd=1.00:0.15 / mixed_ref=1 / me_range=32 / chroma_me=1 / trellis=2 / 8x8dct=1 / cqm=0 / deadzone=21,11 / fast_pskip=0 / chroma_qp_offset=-3 / threads=22 / lookahead_threads=3 / sliced_threads=0 / nr=0 / decimate=1 / interlaced=0 / bluray_compat=0 / constrained_intra=0 / bframes=8 / b_pyramid=2 / b_adapt=2 / b_bias=0 / direct=3 / weightb=1 / open_gop=0 / weightp=2 / keyint=250 / keyint_min=24 / scenecut=40 / intra_refresh=0 / rc=crf / mbtree=0 / crf=17.5 / qcomp=0.60 / qpmin=0 / qpmax=69 / qpstep=4 / ip_ratio=1.40 / pb_ratio=1.30 / aq=3:0.80
    : c9 n+ y2 o! ]
  25. Default                                  : Yes0 {6 W  Z8 o  V
  26. Forced                                   : No$ w, ?/ W- p  Y  }( Q
  27. . M, J# U/ o1 [  P9 B; @
  28. Audio# U( j& Y: w( e
  29. ID                                       : 25 v% h2 u) `. L; |8 _
  30. Format                                   : AC-3! X8 b! A+ T. Q) E: ^% ?
  31. Format/Info                              : Audio Coding 3# W9 z3 `" |( V% \
  32. Commercial name                          : Dolby Digital3 B) w, k9 [9 j& X
  33. Codec ID                                 : A_AC3
    , `0 ?/ A9 ]- V- Q; a$ M7 \
  34. Duration                                 : 2 h 40 min
    0 F- }) L! h5 Y
  35. Bit rate mode                            : Constant) T/ @! c% ^* p1 i
  36. Bit rate                                 : 640 kb/s
    / \8 X! S! F6 C$ L: O6 u; H
  37. Channel(s)                               : 6 channels
    5 w3 P8 P( Z4 u& C  B: P7 k0 I
  38. Channel layout                           : L R C LFE Ls Rs
    : @& o# o4 i$ _+ {
  39. Sampling rate                            : 48.0 kHz
    # v- D- Q5 L& i* N! M
  40. Frame rate                               : 31.250 FPS (1536 SPF)+ A7 Q, H# f. B
  41. Bit depth                                : 16 bits
    ) I3 b' S/ h* e7 x; U
  42. Compression mode                         : Lossy  s& W4 r. c  y. p8 X2 ~
  43. Stream size                              : 734 MiB (8%)& ^" i& z: l, m& Q. L
  44. Language                                 : French
    ; d5 C# J; w# `8 w
  45. Service kind                             : Complete Main7 u* ?  z2 |% W( ~( F3 ]
  46. Default                                  : Yes" N2 x. [6 L+ s+ t( P
  47. Forced                                   : No6 g; z. |; h6 Q6 F

  48. : A( t8 C' W3 R$ J
  49. Text #1% [/ M9 {! Z+ [8 I& U- P
  50. ID                                       : 3. ]) i6 e8 ]$ L" Y
  51. Format                                   : UTF-8
    , w9 F: ^2 e  B6 H! ^$ z
  52. Codec ID                                 : S_TEXT/UTF8
    4 G" [5 a  P3 A# f( U4 G3 ?; ?7 j! B
  53. Codec ID/Info                            : UTF-8 Plain Text- G  x0 o  b. p4 t! _9 o
  54. Duration                                 : 2 h 32 min
    ( l6 A3 h/ F8 n! F! j% d/ R
  55. Bit rate                                 : 38 b/s8 L% t! |' P2 s% T7 [8 t7 a8 g# y' y
  56. Count of elements                        : 1498
    : s; R  |4 ^/ r4 D& b
  57. Stream size                              : 43.3 KiB (0%)
    # v$ w8 j1 h# Z! O7 j0 ~& f  j/ r+ Y
  58. Language                                 : English
    : ?8 B# [( I4 [+ P
  59. Default                                  : Yes& J4 x1 d, V3 x% g5 p+ b
  60. Forced                                   : Yes! @* a7 O1 E2 i; J) N+ y6 S8 p

  61.   h  _0 [4 T9 o; z% P
  62. Text #2. p- G1 E% ?- V: R
  63. ID                                       : 4
    . q& X1 \! W* o- N
  64. Format                                   : PGS8 v! U9 Q$ V! J% N7 Q+ r- I
  65. Muxing mode                              : zlib
    ! Q. z- _& y/ e7 Z9 H, {
  66. Codec ID                                 : S_HDMV/PGS
    9 v- i% h$ [9 _8 m
  67. Codec ID/Info                            : Picture based subtitle format used on BDs/HD-DVDs
    . I- f* o* b- R! S
  68. Duration                                 : 2 h 32 min
    * x# n% D7 T7 J3 r( m1 I; a6 Q, x
  69. Bit rate                                 : 27.9 kb/s
    . {# z+ ~$ z. c
  70. Count of elements                        : 2997
    0 D0 r) `' z% L
  71. Stream size                              : 30.5 MiB (0%)% y8 R' o% s$ }* g; k4 }1 U$ i
  72. Language                                 : English- E/ A8 h2 O9 i" x
  73. Default                                  : No
    ) H, b( a5 U  s5 w! o3 V3 q
  74. Forced                                   : No
    8 v" X' G  @+ ^* _& _
  75. 6 O% Q" n) n4 T! {# x
  76. Menu
    4 T1 }% g0 b+ ~
  77. 00:00:00.000                             : en:Chapter 01  s! j3 J  ^( e. |
  78. 00:07:40.875                             : en:Chapter 02
    ) }! u& S# f( H
  79. 00:21:30.625                             : en:Chapter 03
    ; U1 C- ^. _/ j" L
  80. 00:32:14.625                             : en:Chapter 04& n- v9 C7 `+ N6 G0 ]
  81. 00:38:37.167                             : en:Chapter 055 u( f: x; _3 i* ?4 \7 i
  82. 00:51:53.583                             : en:Chapter 06
    3 M7 o5 E, t. l5 _( d+ c
  83. 01:00:13.000                             : en:Chapter 078 J) z9 ]* @9 t5 x6 V
  84. 01:12:40.750                             : en:Chapter 08
    8 W$ H$ L1 w8 ^6 \* A; {' R
  85. 01:21:54.625                             : en:Chapter 096 m- I3 J  U7 [5 \
  86. 01:31:21.250                             : en:Chapter 10
    2 a/ Q$ H  Z1 S3 `# r4 `
  87. 01:41:35.083                             : en:Chapter 11  ^! C8 ~0 q1 K! [1 c+ q5 U
  88. 01:50:20.792                             : en:Chapter 122 o9 S) w" q: D! y8 ?; S
  89. 02:00:20.542                             : en:Chapter 13% d9 @9 i( H; |6 I/ {: ]
  90. 02:09:46.833                             : en:Chapter 14( _6 w7 v! Z' G* Q+ i
  91. 02:19:08.000                             : en:Chapter 15
    3 v: j/ ^9 p/ b$ W! d. B+ R
  92. 02:29:03.500                             : en:Chapter 16
复制代码
6 g  Q3 F- I$ h, k' O  Q
圣女贞德:战争篇 Joan.the.Maid.1.The.Battles.1994.720p.BluRay.x264-DEPTH 8.89GB-2.png
5 ~! z2 K3 S) Z( h  Z4 |5 _4 W: j  i* U

( x3 K. B. V$ J# ?! z: D: T! ?$ b) K% Z8 {/ u- P0 t) z4 d6 L+ ~8 T
( s6 G5 A* l# Y: A

! H7 E; ]% i+ {5 L' \. X  U' M, o1 P+ k+ x6 Q
回复

使用道具 举报

 成长值: 2875

级别:尊贵的会员

注册时间
2019-12-4
最后登录
2020-5-27
听众
1
收听
0
主题
0
蓝光币
8 枚
贡献
0 点
发表于 5 天前 | 显示全部楼层

5 r+ d3 l, m! \8 a6 b5 ]- m$ W: z楼主太厉害了!楼主,电影应该很好看我觉得中国高清电影网真是个好地方!
回复

使用道具 举报

级别:初级观众 Lv.1

注册时间
2019-3-12
最后登录
2020-5-27
听众
9
收听
0
主题
0
蓝光币
23 枚
贡献
0 点
发表于 4 天前 | 显示全部楼层
先支持一个。。。
回复

使用道具 举报

 成长值: 1290

级别:尊贵的会员

注册时间
2020-3-1
最后登录
2020-5-28
听众
2
收听
0
主题
0
蓝光币
331 枚
贡献
0 点
发表于 4 天前 | 显示全部楼层
楼主发贴辛苦了,谢谢楼主分享!我觉得中国高清电影网是注册对了!
回复

使用道具 举报

懒得打字嘛,点击右侧快捷回复 【右侧内容,后台自定义】
您需要登录后才可以回帖 登录 | 立即注册

本版积分规则

Archiver|手机版|小黑屋| 中国高清网 ( ICP备17007870号-2 ) |网站地图 

GMT+8, 2020-5-28 20:16 , Processed in 0.207921 second(s), 39 queries .

Powered by HDchina X3.4

Copyright 2017-2019©HDchina.All right reserved

返回顶部 联系我们