查看: 49|回复: 4

[恐怖片] 冷溪营地 Camp.Cold.Brook.2018.720p.BluRay.x264-LATENCY 4.64GB

[复制链接]

 成长值: 5460

级别:资源管理组

注册时间
2017-10-20
最后登录
2020-5-28
听众
1
收听
0
主题
96235
蓝光币
152156 枚
贡献
20613 点
发表于 5 天前 | 显示全部楼层 |阅读模式
冷溪营地 Camp.Cold.Brook.2018.720p.BluRay.x264-LATENCY 4.64GB-1.png 7 J' E7 N+ L: ^. L/ U" S
/ q; ?  N1 z. F8 u6 t
译  名 冷溪营地
2 a' a- o4 ^3 B, o$ y6 F3 y8 o2 m片  名 Camp Cold Brook8 e8 G3 s8 u: w+ h/ Q
年  代 2019
' h" w8 }! x5 O产  地 美国
/ T# E8 c5 ?5 l- H' q# ]类  别 可骇7 Z6 R7 q: s, g
语  言 英语* h$ X) ]3 f, w/ K3 g" V1 S4 \) M
上映日期 2018-08-25(美国); V. N1 L- A" @
IMDb评分  5.3/10 from 1116 users7 l- n1 r. v% b" n5 a' {4 |
IMDb链接  https://www.imdb.com/title/tt5829032" b; s$ J* Q$ i! p! \; z6 C
豆瓣评分 4.1/10 from 101 users% c5 B' c1 W$ s4 v! J$ Q2 v
豆瓣链接 https://movie.douban.com/subject/27109318/  V3 S  l3 l4 P* W2 o$ }3 A3 X; q
片  长 86分钟
! D, \) i0 T' Y7 n* C6 J. a导  演 安迪·帕尔默 Andy Palmer0 q# F% @6 ]: S7 Q' q4 A
编  剧 Alex Carl
/ O8 ~. Z5 ~/ h/ I3 j3 O主  演 丹妮尔·哈丽丝 Danielle Harris
+ D" G5 u7 w+ }       查德·迈克尔·墨瑞 Chad Michael Murray
' }% C1 B$ _! [       考特尼·盖恩斯 Courtney Gains. K4 B/ G2 C# k6 Z; y3 a
       凯特·琼斯 Cate Jones! I; L" k, m! V5 w: A2 E+ h/ D, L
       迈克尔·埃里克·里德 Michael Eric Reid
# x% P# a$ C2 N5 z# |. k+ K5 L       康迪斯·德·维瑟 Candice De Visser
$ b" d- r- q3 f/ p8 [       朱丽叶·吉达 Juliette Kida6 G& A" C6 R* \6 D# t
       Mary Kathryn Bryant3 O4 a# i* k5 Q/ N5 A% P
       Jason Van Eman
! @6 }1 t: R1 M! C1 O       Corbin Tyler
7 ^5 Z$ Q  I7 W$ c. _# j. j6 U8 f: W# h" Y2 ~! S
" c  N; f: B/ ?, X
标  签 可骇 | 美国 | 美国电影 | 惊悚 | 查德·迈克尔·墨瑞 | 2019 | 女巫 | 恶灵
) k* f( Y+ c( e4 `/ z" h, K8 Z2 ]* s9 |9 w2 @7 q4 @
简  介  
: }/ \6 G5 `* I. r, I3 W
7 ~2 l7 K, [: L# G3 i& j0 u  一个超自然的小组起头检查一个烧毁的夏令营,那边几十年前发生了一路大范围谋杀案。
6 Q% R2 f2 S2 N1 |. W, ]( _. q% Q
  1. Video
    : t$ W. A1 Z. v3 K9 x
  2. ID                                       : 15 ?2 Z$ w3 J! S  O% _
  3. Format                                   : AVC4 x2 G6 X& T4 ^( M) O3 ?
  4. Format/Info                              : Advanced Video Codec
    / j# c; W9 l- }/ b
  5. Format profile                           : High@L4' e3 ]0 |6 P6 P" B) t3 f3 u% D
  6. Format settings                          : CABAC / 8 Ref Frames
    1 \- U0 Q: F  w$ E" i% P4 i
  7. Format settings, CABAC                   : Yes
    # E& X: H. X7 @! u* g$ a; E
  8. Format settings, Reference frames        : 8 frames
    * O  u7 {4 u/ s5 N
  9. Codec ID                                 : V_MPEG4/ISO/AVC
    " H6 l7 e# S- V( x0 t
  10. Duration                                 : 1 h 28 min* Q9 `5 C7 a7 D8 M: i7 m
  11. Bit rate                                 : 6 813 kb/s
    4 @# v; K1 N1 T! Q! m5 Q. o
  12. Width                                    : 1 280 pixels
    5 N/ N0 k! {9 z5 }' V9 q
  13. Height                                   : 536 pixels
    3 ]' U8 N; a4 I$ k8 N
  14. Display aspect ratio                     : 2.40:1( M9 N# A. r* ~2 s: Q2 J
  15. Frame rate mode                          : Constant7 i% V1 e& k: P6 o& [% b
  16. Frame rate                               : 23.976 (24000/1001/189150) FPS" z0 E% o1 y9 _+ j3 g/ y2 Y" r
  17. Color space                              : YUV4 N# m# m) ]' ?4 ^
  18. Chroma subsampling                       : 4:2:0
    % T0 O! O% m& f
  19. Bit depth                                : 8 bits6 t: Q/ A- }5 g( S
  20. Scan type                                : Progressive
    4 Q1 C* o# P9 \
  21. Bits/(Pixel*Frame)                       : 0.414
    ; F* O  o! t" V7 s8 d' G$ b
  22. Stream size                              : 4.23 GiB (91%)
    ) j7 D  B/ X. d3 b  J
  23. Writing library                          : x264 core 160 r3000 33f9e14
    3 m8 C: e: j! `$ _2 d. _% e. e# v6 T
  24. Encoding settings                        : cabac=1 / ref=8 / deblock=1:-3:-3 / analyse=0x3:0x133 / me=umh / subme=9 / psy=1 / psy_rd=1.00:0.00 / mixed_ref=1 / me_range=32 / chroma_me=1 / trellis=2 / 8x8dct=1 / cqm=0 / deadzone=21,11 / fast_pskip=0 / chroma_qp_offset=-2 / threads=17 / lookahead_threads=2 / sliced_threads=0 / nr=0 / decimate=0 / interlaced=0 / bluray_compat=0 / constrained_intra=0 / bframes=9 / b_pyramid=2 / b_adapt=2 / b_bias=0 / direct=3 / weightb=1 / open_gop=0 / weightp=2 / keyint=250 / keyint_min=23 / scenecut=40 / intra_refresh=0 / rc=crf / mbtree=0 / crf=16.0 / qcomp=0.60 / qpmin=0 / qpmax=69 / qpstep=4 / ip_ratio=1.40 / pb_ratio=1.30 / aq=3:0.88
    . ^% R8 [, k* a/ c  w0 ~
  25. Default                                  : Yes
    . \3 ]! [7 l  P2 F' U6 p0 r7 u
  26. Forced                                   : No5 [, m' k/ z! W. l/ j# ^2 V
  27. Color range                              : Limited+ e9 [$ Q! J) s# M
  28. Color primaries                          : BT.709
    # _( D9 K& D, @; V
  29. Transfer characteristics                 : BT.709
    $ w. f: D. `% L" k' L5 H5 q
  30. Matrix coefficients                      : BT.709
    % d+ S. `( B8 `: b, {+ K

  31. , |4 L6 I* J$ z# a/ o8 K* _
  32. Audio
    " U4 H/ f& V: ?5 J8 D
  33. ID                                       : 2
      j4 x* y+ R6 j% x, M! ^1 k  \. x
  34. Format                                   : AC-32 ]+ O5 d' m7 I: v9 |* t! Z# L
  35. Format/Info                              : Audio Coding 3
    5 q- l. T) m& z+ g2 M5 ?
  36. Commercial name                          : Dolby Digital
    " j: N' u* S! b; I" I
  37. Codec ID                                 : A_AC3
    ' w8 W$ P5 x+ H) k1 w, A: R
  38. Duration                                 : 1 h 28 min
    7 |% A; M  M. Y: \. |$ A
  39. Bit rate mode                            : Constant
    " q7 P% X& M. l4 b$ V6 Z% x$ C3 C
  40. Bit rate                                 : 640 kb/s& n" Q; T8 a/ y0 @7 Z$ y- t0 P
  41. Channel(s)                               : 6 channels6 w, v; e# V$ o# K5 \
  42. Channel layout                           : L R C LFE Ls Rs
    : [; z0 Y! j' M; c: c: _0 h
  43. Sampling rate                            : 48.0 kHz
    & [) i$ N" _# ~# U# n+ d+ b
  44. Frame rate                               : 31.250 FPS (1536 SPF)" `+ A3 s* n- u( e1 Q( C& t$ v8 ~
  45. Bit depth                                : 16 bits  Z% D& w/ V5 W( B+ @
  46. Compression mode                         : Lossy: i! ]; ~8 P- N
  47. Stream size                              : 407 MiB (9%)
    4 I& i/ t  S+ V# b) L5 O
  48. Title                                    : English
    ) g1 y- y: e* c: T$ V( o
  49. Language                                 : English9 O+ w3 c1 a$ s. ~- c
  50. Service kind                             : Complete Main
    $ {( {2 w0 r0 M- U# y
  51. Default                                  : No$ p; \$ b3 p1 K  M2 B) n+ x/ V
  52. Forced                                   : No
    * n. n5 l8 c9 Y3 z3 c4 d5 X0 S; [
  53. 9 v% @  t* ]% O8 f+ h3 q3 R
  54. Text. x) [/ m8 j0 ]: j# s
  55. ID                                       : 3
    7 R4 Y+ U% T: x6 ^$ Y+ h, z5 X0 o
  56. Format                                   : PGS# v2 R- g# {  L* L+ j8 q& e' `8 V
  57. Muxing mode                              : zlib2 b) i! n& c- q: g# D
  58. Codec ID                                 : S_HDMV/PGS
    " l$ c; d% g" G) z8 T" s& X
  59. Codec ID/Info                            : Picture based subtitle format used on BDs/HD-DVDs- [! C- K: N3 g- H4 E+ c8 G  A
  60. Duration                                 : 1 h 26 min$ K; V) n. {( b9 m3 m0 d
  61. Bit rate                                 : 26.7 kb/s
    4 W$ |6 X5 n9 B. F
  62. Count of elements                        : 1610' {* c! v9 Z( L- ]/ ^5 g
  63. Stream size                              : 16.4 MiB (0%)0 q+ z. A) d5 e4 r7 x0 O
  64. Title                                    : English
    : Y* m6 ~% r4 e* g
  65. Language                                 : English3 q  d9 S/ V- X# E
  66. Default                                  : No$ k* s  D) G8 r+ @4 }6 C$ _& l
  67. Forced                                   : No) u% U/ ?4 ?8 t  `( i" u

  68. : J% b8 [9 b# S
  69. Menu
    0 n: M; O7 `& i2 W+ h6 r0 U
  70. 00:00:00.000                             : en:Chapter 01  [, O) y& c" |( f$ j
  71. 00:08:07.778                             : en:Chapter 02
    - v& |) W7 T4 P- H
  72. 00:14:35.916                             : en:Chapter 033 C& Z" D. D4 K7 |$ V4 f0 b% F0 @5 u
  73. 00:23:41.670                             : en:Chapter 04
    0 w5 h& e! [9 Y8 p& u1 P* O/ G  e+ g
  74. 00:30:43.216                             : en:Chapter 05
    # A) h6 x. u) t$ s- p5 ~9 n
  75. 00:36:52.877                             : en:Chapter 065 w; r* n6 W# Y( Y% Q
  76. 00:46:15.856                             : en:Chapter 07" S4 m# N! N$ v& U; i: o
  77. 00:53:50.977                             : en:Chapter 081 K  Z* k* N2 r1 o, K
  78. 01:01:51.082                             : en:Chapter 09+ S% p( [. H/ |; r4 ]7 |
  79. 01:08:35.069                             : en:Chapter 100 a2 D8 o0 Y* X$ j
  80. 01:16:21.994                             : en:Chapter 11
    $ D% p9 X6 x% I' H
  81. 01:24:20.847                             : en:Chapter 12
    % v! d/ \9 e( D+ u' n4 z5 J+ I
  82. 01:28:54.120                             : en:Chapter 13
复制代码

( S0 S+ M( G2 D- l/ H 冷溪营地 Camp.Cold.Brook.2018.720p.BluRay.x264-LATENCY 4.64GB-2.png - g# {. b# V7 Z6 B% G+ ~
0 U4 w! d$ [+ F( R1 P) H

. l( y0 `( F6 I3 H1 Q
$ ]6 l2 o' u, [$ T5 z
9 m" `7 K0 m" }8 E% l  t5 J' \; g6 g# ]5 a

- _* s9 q. m6 l, N- m4 l; k" Q6 s- Z) V- e, {! v
回复

使用道具 举报

级别:群众演员 Lv.3

注册时间
2019-12-20
最后登录
2020-5-28
听众
1
收听
0
主题
0
蓝光币
150 枚
贡献
0 点
QQ
发表于 5 天前 | 显示全部楼层

6 ^4 i' T4 l! [/ Q$ `/ b- J楼主太厉害了!楼主,电影应该很好看我觉得中国高清电影网真是个好地方!
回复

使用道具 举报

 成长值: 1290

级别:尊贵的会员

注册时间
2020-3-1
最后登录
2020-5-28
听众
2
收听
0
主题
0
蓝光币
331 枚
贡献
0 点
发表于 4 天前 | 显示全部楼层
楼主发贴辛苦了,谢谢楼主分享!我觉得中国高清电影网是注册对了!
回复

使用道具 举报

级别:初级观众 Lv.1

注册时间
2020-4-12
最后登录
2020-5-25
听众
2
收听
0
主题
0
蓝光币
0 枚
贡献
0 点
发表于 4 天前 | 显示全部楼层
每天都来论坛看看有什么好的电影,已经成为生活中的习惯了
回复

使用道具 举报

级别:荣升主角 Lv.5

注册时间
2019-4-11
最后登录
2020-5-28
听众
14
收听
0
主题
0
蓝光币
273 枚
贡献
0 点
发表于 3 天前 | 显示全部楼层

* f0 E* d9 l% X2 x这东西我收了!谢谢楼主!中国高清电影网真好!
回复

使用道具 举报

懒得打字嘛,点击右侧快捷回复 【右侧内容,后台自定义】
您需要登录后才可以回帖 登录 | 立即注册

本版积分规则

Archiver|手机版|小黑屋| 中国高清网 ( ICP备17007870号-2 ) |网站地图 

GMT+8, 2020-5-28 20:05 , Processed in 0.173315 second(s), 40 queries .

Powered by HDchina X3.4

Copyright 2017-2019©HDchina.All right reserved

返回顶部 联系我们