查看: 280|回复: 2

[8bit.SDR] 黑暗正义联盟:天启星战争 Justice.League.Dark.Apokolips.War.2020.2160p.BluRay.x264.8bit.SDR.DTS-HD.MA.5.1-SWTYBLZ 14.16GB

[复制链接]

 成长值: 5460

级别:资源管理组

注册时间
2017-10-20
最后登录
2020-5-28
听众
1
收听
0
主题
96229
蓝光币
152008 枚
贡献
20607 点
发表于 5 天前 | 显示全部楼层 |阅读模式
黑暗正义同盟:天启星战争 Justice.League.Dark.Apokolips.War.2020.2160p.BluRay.x264.8bit.SDR.DTS-HD.MA.5.1-SWTYBLZ 14.16GB-1.png

译  名 黑暗正义同盟:天启星战争
片  名 Justice League Dark: Apokolips War
年  代 2020
产  地 美国
类  别 动画
语  言 英语
上映日期 2020-05-05(美国)
IMDb评分  7.9/10 from 6668 users
IMDb链接  https://www.imdb.com/title/tt11079148
豆瓣评分 7.3/10 from 6032 users
豆瓣链接 https://movie.douban.com/subject/34777818/
片  长 90分钟
导  演 马特·皮特斯 Matt Peters / 克里斯蒂娜·索塔 Christina Sotta
编  剧 厄尼·阿特巴克 Ernie Altbacker / 麦格里德·斯科特 Mairghread Scott
主  演 托尼·托德 Tony Todd
       丽贝卡·罗梅恩 Rebecca Romijn
       罗莎里奥·道森 Rosario Dawson
       雷恩·威尔森 Rainn Wilson
       卡米拉·卢丁顿 Camilla Luddington
       泰莎·法米加 Taissa Farmiga
       杰瑞·奥康奈尔 Jerry O'Connell
       谢默·摩尔 Shemar Moore
       克里斯托弗·戈勒姆 Christopher Gorham
       马特·瑞安 Matt Ryan
       杰森·奥玛拉 Jason O'Mara
       连姆·麦肯泰尔 Liam McIntyre
       约翰·迪·马吉欧 John Di Maggio
       海登·瓦尔希 Hynden Walch
       罗杰·R.克劳斯 Roger R. Cross
       雷·蔡斯 Ray Chase
       斯图尔特·艾伦 Stuart Allan
       萨奇·阿莱西奥 Sachie Alessio


标  签 DC | 动画 | 正义同盟 | 超级豪杰 | 美国 | DC动漫 | 漫画改编 | 科幻

简  介  

  正义同盟集结地球上一切超级豪杰一路匹敌强大的反派达克赛德。
  1. Video
  2. ID                                       : 1
  3. Format                                   : AVC
  4. Format/Info                              : Advanced Video Codec
  5. Format profile                           : High@L4
  6. Format settings                          : CABAC / 5 Ref Frames
  7. Format settings, CABAC                   : Yes
  8. Format settings, Reference frames        : 5 frames
  9. Codec ID                                 : V_MPEG4/ISO/AVC
  10. Duration                                 : 1 h 30 min
  11. Bit rate                                 : 19.4 Mb/s
  12. Width                                    : 3 840 pixels
  13. Height                                   : 2 160 pixels
  14. Display aspect ratio                     : 16:9
  15. Frame rate mode                          : Constant
  16. Frame rate                               : 23.976 (24000/1001/189150) FPS
  17. Color space                              : YUV
  18. Chroma subsampling                       : 4:2:0
  19. Bit depth                                : 8 bits
  20. Scan type                                : Progressive
  21. Bits/(Pixel*Frame)                       : 0.098
  22. Stream size                              : 12.2 GiB (87%)
  23. Title                                    : Justice.League.Dark.Apokolips.War.2020.2160p.BluRay.x264.8bit.SDR.DTS-HD.MA.5.1-SWTYBLZ
  24. Writing library                          : x264 core 157 r2935 545de2f
  25. Encoding settings                        : cabac=1 / ref=5 / deblock=1:1:1 / analyse=0x3:0x113 / me=umh / subme=10 / psy=1 / psy_rd=0.40:0.00 / mixed_ref=1 / me_range=48 / chroma_me=1 / trellis=2 / 8x8dct=1 / cqm=0 / deadzone=21,11 / fast_pskip=1 / chroma_qp_offset=-2 / threads=48 / lookahead_threads=5 / sliced_threads=0 / nr=0 / decimate=0 / interlaced=0 / bluray_compat=0 / constrained_intra=0 / bframes=5 / b_pyramid=2 / b_adapt=2 / b_bias=0 / direct=3 / weightb=1 / open_gop=0 / weightp=2 / keyint=250 / keyint_min=23 / scenecut=40 / intra_refresh=0 / rc_lookahead=50 / rc=crf / mbtree=1 / crf=14.0 / qcomp=0.60 / qpmin=0 / qpmax=69 / qpstep=4 / ip_ratio=1.40 / aq=1:0.60
  26. Default                                  : Yes
  27. Forced                                   : No

  28. Audio #1
  29. ID                                       : 2
  30. ID in the original source medium         : 4352 (0x1100)
  31. Format                                   : DTS XLL
  32. Format/Info                              : Digital Theater Systems
  33. Commercial name                          : DTS-HD Master Audio
  34. Codec ID                                 : A_DTS
  35. Duration                                 : 1 h 30 min
  36. Bit rate mode                            : Variable
  37. Bit rate                                 : 2 320 kb/s
  38. Channel(s)                               : 6 channels
  39. Channel layout                           : C L R Ls Rs LFE
  40. Sampling rate                            : 48.0 kHz
  41. Frame rate                               : 93.750 FPS (512 SPF)
  42. Bit depth                                : 16 bits
  43. Compression mode                         : Lossless
  44. Stream size                              : 1.46 GiB (10%)
  45. Title                                    : Justice.League.Dark.Apokolips.War.2020.2160p.BluRay.x264.8bit.SDR.DTS-HD.MA.5.1-SWTYBLZ
  46. Language                                 : English
  47. Default                                  : Yes
  48. Forced                                   : No
  49. Original source medium                   : Blu-ray

  50. Audio #2
  51. ID                                       : 3
  52. Format                                   : AC-3
  53. Format/Info                              : Audio Coding 3
  54. Commercial name                          : Dolby Digital
  55. Codec ID                                 : A_AC3
  56. Duration                                 : 1 h 30 min
  57. Bit rate mode                            : Constant
  58. Bit rate                                 : 640 kb/s
  59. Channel(s)                               : 6 channels
  60. Channel layout                           : L R C LFE Ls Rs
  61. Sampling rate                            : 48.0 kHz
  62. Frame rate                               : 31.250 FPS (1536 SPF)
  63. Bit depth                                : 16 bits
  64. Compression mode                         : Lossy
  65. Stream size                              : 413 MiB (3%)
  66. Title                                    : Justice.League.Dark.Apokolips.War.2020.2160p.BluRay.x264.8bit.SDR.DTS-HD.MA.5.1-SWTYBLZ
  67. Language                                 : English
  68. Service kind                             : Complete Main
  69. Default                                  : No
  70. Forced                                   : No

  71. Text #1
  72. ID                                       : 4
  73. Format                                   : UTF-8
  74. Codec ID                                 : S_TEXT/UTF8
  75. Codec ID/Info                            : UTF-8 Plain Text
  76. Duration                                 : 1 h 24 min
  77. Bit rate                                 : 45 b/s
  78. Count of elements                        : 1004
  79. Stream size                              : 28.4 KiB (0%)
  80. Title                                    : English-SRT
  81. Language                                 : English
  82. Default                                  : Yes
  83. Forced                                   : No

  84. Text #2
  85. ID                                       : 5
  86. ID in the original source medium         : 4768 (0x12A0)
  87. Format                                   : PGS
  88. Muxing mode                              : zlib
  89. Codec ID                                 : S_HDMV/PGS
  90. Codec ID/Info                            : Picture based subtitle format used on BDs/HD-DVDs
  91. Duration                                 : 1 h 25 min
  92. Bit rate                                 : 32.6 kb/s
  93. Count of elements                        : 2490
  94. Stream size                              : 19.9 MiB (0%)
  95. Title                                    : English-PGS
  96. Language                                 : English
  97. Default                                  : No
  98. Forced                                   : No
  99. Original source medium                   : Blu-ray

  100. Text #3
  101. ID                                       : 6
  102. ID in the original source medium         : 4769 (0x12A1)
  103. Format                                   : PGS
  104. Muxing mode                              : zlib
  105. Codec ID                                 : S_HDMV/PGS
  106. Codec ID/Info                            : Picture based subtitle format used on BDs/HD-DVDs
  107. Duration                                 : 1 h 29 min
  108. Bit rate                                 : 27.9 kb/s
  109. Count of elements                        : 1974
  110. Stream size                              : 17.8 MiB (0%)
  111. Title                                    : French-PGS
  112. Language                                 : French
  113. Default                                  : No
  114. Forced                                   : No
  115. Original source medium                   : Blu-ray

  116. Text #4
  117. ID                                       : 7
  118. ID in the original source medium         : 4770 (0x12A2)
  119. Format                                   : PGS
  120. Muxing mode                              : zlib
  121. Codec ID                                 : S_HDMV/PGS
  122. Codec ID/Info                            : Picture based subtitle format used on BDs/HD-DVDs
  123. Duration                                 : 1 h 29 min
  124. Bit rate                                 : 27.9 kb/s
  125. Count of elements                        : 1978
  126. Stream size                              : 17.8 MiB (0%)
  127. Title                                    : Spanish-PGS
  128. Language                                 : Spanish
  129. Default                                  : No
  130. Forced                                   : No
  131. Original source medium                   : Blu-ray

  132. Menu
  133. 00:00:00.000                             : en:Chapter 01
  134. 00:08:30.593                             : en:Chapter 02
  135. 00:17:35.095                             : en:Chapter 03
  136. 00:27:06.625                             : en:Chapter 04
  137. 00:35:31.170                             : en:Chapter 05
  138. 00:44:35.673                             : en:Chapter 06
  139. 00:53:16.067                             : en:Chapter 07
  140. 01:01:53.543                             : en:Chapter 08
  141. 01:08:14.340                             : en:Chapter 09
  142. 01:17:38.195                             : en:Chapter 10
  143. 01:26:54.667                             : en:Chapter 11
复制代码

黑暗正义同盟:天启星战争 Justice.League.Dark.Apokolips.War.2020.2160p.BluRay.x264.8bit.SDR.DTS-HD.MA.5.1-SWTYBLZ 14.16GB-2.png 黑暗正义同盟:天启星战争 Justice.League.Dark.Apokolips.War.2020.2160p.BluRay.x264.8bit.SDR.DTS-HD.MA.5.1-SWTYBLZ 14.16GB-3.png 黑暗正义同盟:天启星战争 Justice.League.Dark.Apokolips.War.2020.2160p.BluRay.x264.8bit.SDR.DTS-HD.MA.5.1-SWTYBLZ 14.16GB-4.png 黑暗正义同盟:天启星战争 Justice.League.Dark.Apokolips.War.2020.2160p.BluRay.x264.8bit.SDR.DTS-HD.MA.5.1-SWTYBLZ 14.16GB-5.png 黑暗正义同盟:天启星战争 Justice.League.Dark.Apokolips.War.2020.2160p.BluRay.x264.8bit.SDR.DTS-HD.MA.5.1-SWTYBLZ 14.16GB-6.png 黑暗正义同盟:天启星战争 Justice.League.Dark.Apokolips.War.2020.2160p.BluRay.x264.8bit.SDR.DTS-HD.MA.5.1-SWTYBLZ 14.16GB-7.png 黑暗正义同盟:天启星战争 Justice.League.Dark.Apokolips.War.2020.2160p.BluRay.x264.8bit.SDR.DTS-HD.MA.5.1-SWTYBLZ 14.16GB-8.png







本帖隐藏的下载地址需要VIP会员才可阅读,您需要升级才可阅读,点击这里升级VIP
回复

使用道具 举报

级别:普通观众 Lv.2

注册时间
2020-3-27
最后登录
2020-5-23
听众
2
收听
0
主题
0
蓝光币
14 枚
贡献
0 点
QQ
发表于 5 天前 | 显示全部楼层

楼主太厉害了!楼主,电影应该很好看我觉得中国高清电影网真是个好地方!
回复

使用道具 举报

级别:普通观众 Lv.2

注册时间
2020-2-17
最后登录
2020-5-25
听众
1
收听
0
主题
0
蓝光币
6 枚
贡献
0 点
发表于 3 天前 | 显示全部楼层

楼主太厉害了!楼主,电影应该很好看我觉得中国高清电影网真是个好地方!
回复

使用道具 举报

懒得打字嘛,点击右侧快捷回复 【右侧内容,后台自定义】
您需要登录后才可以回帖 登录 | 立即注册

本版积分规则

Archiver|手机版|小黑屋| 中国高清网 ( ICP备17007870号-2 ) |网站地图 

GMT+8, 2020-5-28 14:50 , Processed in 0.270967 second(s), 40 queries .

Powered by HDchina X3.4

Copyright 2017-2019©HDchina.All right reserved

返回顶部 联系我们