查看: 41|回复: 1

[剧情片] 直到世界尽头 Until.the.End.of.the.World.1991.720p.BluRay.x264-DEPTH 16.16GB

[复制链接]

 成长值: 5460

级别:资源管理组

注册时间
2017-10-20
最后登录
2020-5-28
听众
1
收听
0
主题
96235
蓝光币
152128 枚
贡献
20613 点
发表于 6 天前 | 显示全部楼层 |阅读模式
p2282549699.jpg
: `7 H4 ^  v* j$ H' o' a5 c& p+ T+ Z* ]" i/ y0 Y0 A# F0 Z
译  名 直到天下绝顶 / Until the End of the World- Z' q! ]( v- Z1 x1 r% a5 ^
片  名 Bis ans Ende der Welt6 N- R9 ]8 y2 P  M, s2 y' b
年  代 1991/ j& ]2 O4 E8 x  t
产  地 德国 / 法国 / 澳大利亚' [2 K* l$ y2 F* q' t
类  别 剧情 / 科幻+ q% Q: N8 w% v- ]
语  言 英语 / 法语 / 意大利语 / 日语 / 德语0 }+ x2 }( ~* Z: v- I8 L' W
上映日期 1991-09-121 W8 o8 s7 K) G, a% Y/ l5 o, V7 P
IMDb评分  6.8/10 from 8616 users% p5 H1 F+ s* ^- @
IMDb链接  https://www.imdb.com/title/tt0101458! O+ r0 J2 |; r4 U# U2 \+ `. [3 B
豆瓣评分 8.2/10 from 1481 users: a8 S; D* z0 Z3 k% s# o6 ^; T
豆瓣链接 https://movie.douban.com/subject/1295897/9 s) b, D2 ~. B( }1 r2 O
片  长 280 分钟(director's cut)7 f( w$ V  j1 E
导  演 维姆·文德斯 Wim Wenders) i: y) ~1 @4 u( F
编  剧 维姆·文德斯 Wim Wenders / Peter Carey / 索尔维格·多马尔坦 Solveig Dommartin / 米歇尔·阿米瑞亚德 Michael Almereyda
! C* n4 k* b7 P3 C; y  ~) X主  演 索尔维格·多马尔坦 Solveig Dommartin
0 m; {( L( G* Z  T( M8 X       奇克·奥尔特加 Chick Ortega' I8 U, K$ a1 G' r2 z
       埃迪·米切尔 Eddy Mitchell
" C% T% r% @5 G% p. b       威廉·赫特 William Hurt
9 }! X" V2 I' H9 f4 i" ~       阿德尔·卢茨 Adelle Lutz% D  A9 E) J% N' Y
       厄尼·丁戈 Ernie Dingo" W7 m$ }) F- Z1 h' y- k0 Q: C
       让娜·莫罗 Jeanne Moreau" W; u+ H. S. i
       山姆·尼尔 Sam Neill; Y/ l1 k6 S% u: w0 H( J
       吕迪格·福格勒 Rüdiger Vogler5 M. Y. M' @7 _6 {" }: g7 }5 j% T
       Diogo Dória) `5 L% {' h# D, Q& O' R! E: }) r" h
       Amália Rodrigues
2 ]: D7 K% J9 q0 P/ b( C' |8 t       马克斯·冯·叙多夫 Max von Sydow- X+ e6 y- y6 U' R  Q# ^( E. D
       多洛莉丝·卓别林 Dolores Chaplin/ c- T7 C( @0 g" I3 Q$ K5 P2 F
       张进战 Jinzhan Zhang
$ V1 p7 ^! ]) I4 q       笠智众 Chish? Ry?. }9 z5 A; p  r- e+ b0 s' k, O
- J$ x/ Q, R4 Q4 s3 B! }: I
+ r, t2 \3 N+ E% y" Z4 A5 O& Y
标  签 德国 | 科幻 | 维姆·文德斯 | WimWenders | 德国电影 | 文德斯 | 1991 | Wim_Wenders
( f% N5 m" }4 t: s# {2 E
" h" v& P, n. ]; P! I5 r! [" I+ B9 m简  介  5 d8 d. U7 N: g8 Y5 n, s! N
( M' f) T  j" {% x& n0 C$ s
  1999年世纪末,一颗印度的核子卫星行将坠地,地球上一片发急,视之为天下末日的光临。住在巴黎的女子克蕾儿(Solveig Dommartin饰)在一次分开男友尤金(Sam Neill饰)的浪游中,熟悉疑为产业特务的崔佛(William Hurt饰),而且深深为之沉迷。一 次车祸意外中,克蕾儿熟悉二名抢匪,受托输送多量赃款,克蕾儿起头动身去寻觅迷一样的人物崔佛。他们的萍踪遍及四大洲:从尼斯、巴黎、柏林、里斯本、莫斯科、北京、东京、追逐到旧金山、雪梨,最初到达澳洲中部荒凉的库柏培地原居民生活区。进程中,克蕾儿终究晓得崔佛的本名是山姆法柏。他不是产业特务,而是一位科学家的儿子。很多私人侦察追逐他的缘由是老法柏(Max von Sydow饰)制造了一个可以让盲人看见的摄影机。为的是要让山姆目盲的母亲(Jeanne Moreau饰)可以看见她的亲人。就在一群人聚集澳洲峡谷的时辰,核子卫星被美国打下,核磁波干扰了所的电器装备,一切都规复原始的状态。外头的天下不知是生是死?这群人在地下尝试室里起头了连续串超越人类科技的尝试,数字摄影转换成脑波、再转换成影象的尝试成功,终究让山姆的母亲看见家人,未几终因体力不胜败荷而归天。临死前,他母亲说:「看不见反而更好,这天下竟变得如此丑陋。」温德斯的微言大义,在此作了深入的显现。以后,包括老法柏、山姆和克蕾儿都堕入对梦乡的痴迷中。他们把梦乡转成视觉,让人可以读梦(老法柏一向想是以获得诺贝尔奖),山姆和父亲的抵触冲突、克蕾儿对童年之梦的偏执,像一层层的牢笼,将他们牢牢网住。使每一小我都堕入偏执的丢失傍边。只要陈说此事务的尤金是苏醒的。他晓得天下并没有扑灭(只是时受核磁脉冲影响),只是这群人陷在不成自拔的梦乡追随中。因而一切如尤里西斯的周游遂都有了反应与解答。
/ b5 ?6 ~" b# |( ?5 A2 y7 u
  1. Video
    3 C# l- [# [/ f
  2. ID                                       : 1
    3 B6 I% u* Q3 ~# P1 F  l$ U
  3. Format                                   : AVC! D$ _7 L, h! l
  4. Format/Info                              : Advanced Video Codec( x5 p  s& y/ }: x" t8 b
  5. Format profile                           : High@L4/ K6 S; G  u) m" \$ i
  6. Format settings                          : CABAC / 9 Ref Frames+ X' C- o$ c  P4 q2 f7 Z0 X) u. S
  7. Format settings, CABAC                   : Yes/ ?1 O/ j6 i: u$ d; ~4 p
  8. Format settings, Reference frames        : 9 frames
    4 I$ V7 J1 P+ p5 T" p4 n4 c
  9. Codec ID                                 : V_MPEG4/ISO/AVC
    9 Y; h* `8 [1 }0 A7 b7 Y
  10. Duration                                 : 4 h 47 min
    . ]; A4 q" s1 H, I
  11. Bit rate                                 : 7 383 kb/s
    ' T6 @! ]+ |; m* H
  12. Width                                    : 1 194 pixels
    ) v) R. ]/ g  O) C# s. P+ c" w
  13. Height                                   : 720 pixels
    5 J1 n) |, ~1 ?+ ]! \! B; A$ J/ r
  14. Display aspect ratio                     : 5:3
    * ~+ Z% q/ r. |, \- I' E; o
  15. Frame rate mode                          : Constant
    * m; t9 f0 K# A9 O( {
  16. Frame rate                               : 23.976 (24000/1001/189150) FPS  W% V: c7 b- h8 e+ `
  17. Color space                              : YUV
    % }. k  o  k5 ^! A! D- `
  18. Chroma subsampling                       : 4:2:0$ }( g' x/ ]$ P4 q4 \3 Y
  19. Bit depth                                : 8 bits
    7 b2 |; d2 W% c+ D. c2 k
  20. Scan type                                : Progressive
    ! n* O9 x8 C$ z7 a! V- v1 ~" l
  21. Bits/(Pixel*Frame)                       : 0.358
    ! r5 K) B6 z8 }! O
  22. Stream size                              : 14.9 GiB (92%)
    " l' B# h' X! `, j7 h1 w2 N4 l3 P
  23. Writing library                          : x264 core 160 r3000 33f9e148 r  ]5 o# B, F" H( ^
  24. Encoding settings                        : cabac=1 / ref=9 / deblock=1:-3:-3 / analyse=0x3:0x133 / me=umh / subme=10 / psy=1 / psy_rd=1.00:0.15 / mixed_ref=1 / me_range=32 / chroma_me=1 / trellis=2 / 8x8dct=1 / cqm=0 / deadzone=21,11 / fast_pskip=0 / chroma_qp_offset=-3 / threads=22 / lookahead_threads=3 / sliced_threads=0 / nr=0 / decimate=1 / interlaced=0 / bluray_compat=0 / constrained_intra=0 / bframes=8 / b_pyramid=2 / b_adapt=2 / b_bias=0 / direct=3 / weightb=1 / open_gop=0 / weightp=2 / keyint=250 / keyint_min=23 / scenecut=40 / intra_refresh=0 / rc=crf / mbtree=0 / crf=17.5 / qcomp=0.60 / qpmin=0 / qpmax=69 / qpstep=4 / ip_ratio=1.40 / pb_ratio=1.30 / aq=3:0.80
    % S$ x2 u; P( F( }; Y# H: S# V
  25. Default                                  : Yes6 l  g% |$ Z8 A0 E4 h( E# ?2 X
  26. Forced                                   : No
    ) f1 Z1 W. P% z' L' n

  27. . t$ X2 c# p  y5 J0 c% |/ ?7 l1 n
  28. Audio6 p1 l/ f* D* c
  29. ID                                       : 2( H9 i  v  H" D, X) a9 c8 X
  30. Format                                   : AC-3" }: R8 {* f" Y5 k$ `! `6 H
  31. Format/Info                              : Audio Coding 3" Q; ^& @4 C7 d0 n& V+ ?- g
  32. Commercial name                          : Dolby Digital
    # Q" c) _% z( H$ e
  33. Codec ID                                 : A_AC30 o* a( l  n1 `- G6 I9 m, T
  34. Duration                                 : 4 h 47 min
    % O7 i1 M: M/ c. Y0 ]1 C9 }8 t
  35. Bit rate mode                            : Constant
    0 C* g9 Q6 [  d' Z5 x! J9 O* D
  36. Bit rate                                 : 640 kb/s' Y" {8 x7 e' |& @% O; K
  37. Channel(s)                               : 6 channels0 c! A' G8 }5 f  z2 L4 r  H% `
  38. Channel layout                           : L R C LFE Ls Rs
    - S8 V1 I* h  {2 h+ k) Z
  39. Sampling rate                            : 48.0 kHz" o& _6 e* u/ H% h6 d2 X5 E3 G
  40. Frame rate                               : 31.250 FPS (1536 SPF)
    ' a/ y, f3 C  U1 d
  41. Bit depth                                : 16 bits
    / ^/ ]: {" x- X* _+ r! w1 w
  42. Compression mode                         : Lossy
    " _6 q; _% V" A" }4 W
  43. Stream size                              : 1.29 GiB (8%)" D! J7 @5 r# q. W& B& L, H( G
  44. Language                                 : English
    8 I, Y9 u& o: `. e
  45. Service kind                             : Complete Main
    % `3 A* l& h+ O, y9 Y
  46. Default                                  : Yes
    ' b; N. Y' X- p3 i8 Z& |4 y4 @9 v
  47. Forced                                   : No; J, }3 K) \' L; |
  48. $ Z! }% H8 L: i% x
  49. Text #1
    " g, }8 f7 H) T! |1 K" {4 [* G! X
  50. ID                                       : 30 ]" I; o& T1 M; P) g
  51. Format                                   : UTF-8
    - V4 A3 k  G& [' v2 s
  52. Codec ID                                 : S_TEXT/UTF80 j! q, B  _# m
  53. Codec ID/Info                            : UTF-8 Plain Text) o; }" p( g( v  i& y. w
  54. Duration                                 : 4 h 39 min
    , B3 l5 b9 n: _& o( y) L& B
  55. Bit rate                                 : 3 b/s
    : h  G) a1 e9 v8 O
  56. Count of elements                        : 223
      t7 z3 i3 _  Q: u& f  X+ {5 l
  57. Stream size                              : 6.72 KiB (0%)9 d& m  X  w; E/ L" `( C( R2 f. V
  58. Title                                    : Forced0 V* \" j$ F3 U- B
  59. Language                                 : English9 T. u. B4 }: _6 s
  60. Default                                  : Yes
    ) ?2 |4 U. ^3 ?+ U: R! _
  61. Forced                                   : Yes5 {  V* v3 L; ~

  62. ( o4 V( |, h6 r- p+ J
  63. Text #2
    ; Q3 w( p- R/ }$ w, K
  64. ID                                       : 4
    # U0 v4 v9 g% Y  \
  65. Format                                   : PGS$ ]3 B4 N$ W1 ~; z. K
  66. Muxing mode                              : zlib' U% W+ }2 T9 `2 W9 l
  67. Codec ID                                 : S_HDMV/PGS! S# f$ d* s! N3 v  ]
  68. Codec ID/Info                            : Picture based subtitle format used on BDs/HD-DVDs. y0 b5 ]3 w" B6 w5 d
  69. Duration                                 : 4 h 39 min" t  {1 B  o4 E
  70. Bit rate                                 : 2 693 b/s- M) f9 Q8 [/ G, y
  71. Count of elements                        : 446
    % f4 L; d4 R5 n( ]- p8 c/ o
  72. Stream size                              : 5.39 MiB (0%)$ }$ B$ p0 D* c1 ]0 b7 J8 I; y. c
  73. Title                                    : Forced
    0 g2 f4 o: G" p8 M2 M6 m
  74. Language                                 : English$ j4 v  M" T) k
  75. Default                                  : No9 Y- v9 g% O4 Q+ c2 f
  76. Forced                                   : No$ {7 z2 H9 ~0 ?4 I# p$ e
  77. ; @2 T7 A9 t6 R7 M0 Q- F2 e
  78. Text #3
    , Y$ r+ d; i, j# J5 }
  79. ID                                       : 5
    . R- c/ d% E7 v3 h" `
  80. Format                                   : UTF-85 G# B, a; R# F0 ~' G
  81. Codec ID                                 : S_TEXT/UTF8
    7 ]: [4 Q7 W. U% S9 l  S+ ^9 q
  82. Codec ID/Info                            : UTF-8 Plain Text
      V3 s; K# o; q4 t; f( s9 B8 i) i
  83. Duration                                 : 4 h 43 min
    ! t7 c8 h& \* X
  84. Bit rate                                 : 50 b/s
    , r$ C9 M: |# k. T
  85. Count of elements                        : 2994
    0 b- |# U1 o( u  [9 o! t
  86. Stream size                              : 104 KiB (0%)
    7 E7 ^: f9 ^4 v- B( ^
  87. Title                                    : Full
    . O: v7 N" B; L# D( @
  88. Language                                 : English
    . d1 M- g: c4 i; H; [7 {: J8 l4 o
  89. Default                                  : No
    4 w" ^: V, Y! u5 j: T! ~% l
  90. Forced                                   : No
    ) L; j+ S6 P7 p/ I) }0 y$ d

  91. 6 t/ Y* `) C1 U5 j. n7 Y( g4 F0 h
  92. Text #4
    : y4 l( |& r$ V; [* y
  93. ID                                       : 6
    ' r5 B# |3 l/ {+ G3 Z# p
  94. Format                                   : UTF-87 R, Y$ N* N% i) n6 a
  95. Codec ID                                 : S_TEXT/UTF8
    * z1 t: W- N- `" F; k
  96. Codec ID/Info                            : UTF-8 Plain Text
    : ]- U7 S7 |! J3 U) m1 u! I- M# h
  97. Duration                                 : 4 h 43 min
    * J2 s( X* x' w4 x. c; [$ g
  98. Bit rate                                 : 54 b/s/ }9 Y7 ^0 S6 h/ ?; o/ B
  99. Count of elements                        : 32879 c) E- z& P9 j1 c- z8 a5 E1 f
  100. Stream size                              : 113 KiB (0%)
      b$ ~8 |- e8 t6 }6 d7 d1 t$ x8 w
  101. Title                                    : SDH
    ' \  E8 G2 Y& x
  102. Language                                 : English8 T* G% \3 Q6 O" S3 l
  103. Default                                  : No
    & M7 i: e. J0 U* M6 @
  104. Forced                                   : No
    8 p$ K7 w4 _$ i6 V+ j" n
  105. " [9 M! S8 J0 _
  106. Text #5: _. h* k! v% Q2 ]
  107. ID                                       : 7
    * t8 H: m7 l) e7 g, ?2 v
  108. Format                                   : PGS
    # \9 F$ ]" I9 C$ g: V3 j
  109. Muxing mode                              : zlib! W  G$ g! C2 J/ o; |
  110. Codec ID                                 : S_HDMV/PGS4 Y+ P7 G) D2 j1 U. d$ Q2 m6 Z
  111. Codec ID/Info                            : Picture based subtitle format used on BDs/HD-DVDs9 l  I8 E0 w3 V7 V* y1 t
  112. Duration                                 : 4 h 43 min& P# V! X& ?( ^- e& w4 Y5 z
  113. Bit rate                                 : 43.5 kb/s: |  E8 s" N# N1 C3 C: ]
  114. Count of elements                        : 6574
    3 Y8 i; }1 V1 P( V% i7 o# V
  115. Stream size                              : 88.1 MiB (1%)% N4 t6 n0 t; u
  116. Title                                    : SDH9 h1 \3 y6 V2 W9 L, u
  117. Language                                 : English
    / W$ z5 w4 o/ I
  118. Default                                  : No5 m% B# \9 P( |% @$ a
  119. Forced                                   : No+ o, V" a9 s9 o( O6 G- K" c

  120. 9 L$ U; K) m, y2 L+ I1 H. u
  121. Menu
    0 Z6 V9 K% ^# z: n9 P' D
  122. 00:00:00.000                             : en:Chapter 01# g) I/ _9 t# d! V* n, e
  123. 00:08:46.151                             : en:Chapter 02
    ) \& i# @% a* r  |' a
  124. 00:21:12.104                             : en:Chapter 032 ~7 f4 k: b1 V* `+ J; g
  125. 00:35:37.677                             : en:Chapter 048 Q) l1 j: k  B- n0 G9 H7 `; g7 C1 {
  126. 00:43:43.371                             : en:Chapter 05
    - P* N/ g7 Y6 p% {5 N
  127. 00:52:13.380                             : en:Chapter 066 v9 i  J8 Z/ ^- d! ~2 _  G
  128. 01:00:23.286                             : en:Chapter 07- w& K- G/ l$ ~7 z% l4 W
  129. 01:08:59.510                             : en:Chapter 08; V# B% C( W: M$ V2 ~; I& ^! \6 e
  130. 01:17:34.441                             : en:Chapter 09% o- y) a7 B0 [( e% I. d7 k) I, `
  131. 01:27:51.308                             : en:Chapter 10
    2 t# D: d! V& T+ S
  132. 01:41:03.808                             : en:Chapter 114 ^) Q7 B) |& w
  133. 01:55:33.844                             : en:Chapter 12
    / b5 m5 n, L4 c/ k/ F8 q  u
  134. 02:05:55.256                             : en:Chapter 13# n1 f; A3 Z, R
  135. 02:11:27.968                             : en:Chapter 14* L+ [* W! v$ @+ {
  136. 02:25:47.201                             : en:Chapter 154 b- Y/ L& w+ l  G, h7 h' q
  137. 02:38:35.052                             : en:Chapter 16
    9 e2 C+ B" L9 g
  138. 02:47:53.526                             : en:Chapter 17
    9 e3 h9 E0 y5 w0 U5 t( Z  D5 L. l+ m
  139. 02:55:26.729                             : en:Chapter 18- R! e- E6 ?1 M5 f: u
  140. 03:08:22.754                             : en:Chapter 19
    ) q9 Z5 P/ ^% N5 [: L+ q' L4 i5 ~
  141. 03:16:25.153                             : en:Chapter 20, s+ u( @6 P* H  R
  142. 03:30:49.391                             : en:Chapter 21
    ' N* V: Z9 {3 \5 Y
  143. 03:38:40.487                             : en:Chapter 22
    1 y; C/ i* S# ?" m4 \' Z
  144. 03:48:39.544                             : en:Chapter 23
    . \: M7 k% O* X  @" m8 m
  145. 03:57:28.697                             : en:Chapter 24$ e/ H( H6 Y  o5 I
  146. 04:09:07.229                             : en:Chapter 25  M" w- c: v* ~7 b- W
  147. 04:19:10.039                             : en:Chapter 26# U/ @/ h0 Y3 x6 c9 Z, w7 ?
  148. 04:27:14.565                             : en:Chapter 27" V3 n" n: s  c. k; [
  149. 04:34:04.683                             : en:Chapter 28
    / l; ?) u  v7 w' Z
  150. 04:38:19.854                             : en:Chapter 29
复制代码
1 @; H0 c& r& D' [2 L$ Z9 N
直到天下绝顶 Until.the.End.of.the.World.1991.720p.BluRay.x264-DEPTH 16.16GB-1.png
% _" J$ H. O4 b, E+ Y6 K# Q/ `& j, R# V8 f+ O2 [6 p

2 v& U. Y, B1 ]! c# e
- ^% B, n5 c- G5 _6 z$ T- }- z% U

! X0 k# V3 E0 h7 |% ?- e
本帖隐藏的下载地址需要VIP会员才可阅读,您需要升级才可阅读,点击这里升级VIP
9 v& F+ A( T" o( |! h
回复

使用道具 举报

 成长值: 1290

级别:尊贵的会员

注册时间
2020-3-1
最后登录
2020-5-28
听众
2
收听
0
主题
0
蓝光币
331 枚
贡献
0 点
发表于 4 天前 | 显示全部楼层
楼主发贴辛苦了,谢谢楼主分享!我觉得中国高清电影网是注册对了!
回复

使用道具 举报

懒得打字嘛,点击右侧快捷回复 【右侧内容,后台自定义】
您需要登录后才可以回帖 登录 | 立即注册

本版积分规则

Archiver|手机版|小黑屋| 中国高清网 ( ICP备17007870号-2 ) |网站地图 

GMT+8, 2020-5-28 19:07 , Processed in 0.185797 second(s), 39 queries .

Powered by HDchina X3.4

Copyright 2017-2019©HDchina.All right reserved

返回顶部 联系我们