查看: 60|回复: 1

[悬疑片] 费雪小姐和泪之穴 Miss.Fisher.And.The.Crypt.Of.Tears.2020.720p.BluRay.x264-PFa 2.34GB

[复制链接]

 成长值: 5460

级别:资源管理组

注册时间
2017-10-20
最后登录
2020-5-28
听众
1
收听
0
主题
96235
蓝光币
152154 枚
贡献
20613 点
发表于 7 天前 | 显示全部楼层 |阅读模式
费雪蜜斯和泪之穴 Miss.Fisher.And.The.Crypt.Of.Tears.2020.720p.BluRay.x264-PFa 2.34GB-1.png ) E% E1 G6 |  y$ k

4 p0 p$ s- f$ g7 J译  名 费雪蜜斯和泪之穴 / Miss Fisher and the Crypt of Tears / 费雪蜜斯与泪穴 / 费雪蜜斯电影版8 v' t$ q; ~" G1 m- ]0 g
片  名 Miss Fisher & the Crypt of Tears
; L! X8 M" H9 F) U: _4 j年  代 2020
) g% r( [, Y; b) P产  地 澳大利亚
+ i. l9 I* Y) O/ z' _& a- b类  别 悬疑# T: v8 ^, s- |  j" }5 ]
语  言 英语
# W' I9 X2 H! \" E: E上映日期 2020-02-27(澳大利亚)
  A& c# y7 Q' D. u9 Y- F9 TIMDb评分  6.1/10 from 1581 users1 s: h0 f' s4 S. p0 Y4 m
IMDb链接  https://www.imdb.com/title/tt9010738
& H3 M1 t  F: S3 X1 Y  i0 ]) C豆瓣评分 5.9/10 from 218 users2 R( T2 f* z$ V% C, ^' j, X4 U
豆瓣链接 https://movie.douban.com/subject/30129753/
3 }( W0 f) n) U2 {4 W片  长 101分钟9 h/ V/ P3 O) S9 h0 d- X
导  演 托尼·蒂尔斯 Tony Tilse
5 C9 m& |0 a8 [1 P, G4 A9 o1 H编  剧 Deborah Cox
- {! A3 G; g8 b3 ]5 n2 B, s. s9 o主  演 艾斯 戴维斯 Essie Davis
0 d4 H4 h5 D7 X       内森·佩吉 Nathan Page
1 w0 O5 V- W4 G/ y2 z/ X' C8 s       艾什莉 康宁思 Ashleigh Cummings
, H8 m9 C! B* v  j2 I/ \8 ~       鲁伯特·彭利-琼斯 Rupert Penry-Jones% u5 C% h; l5 j4 k5 O+ V
       米瑞安·玛格莱斯 Miriam Margolyes
% t2 q. X6 Q2 Y* A5 @
  E8 z8 \8 n& [) Q1 b/ C3 O+ W3 y7 g% k
标  签 澳大利亚 | 侦察 | MissFisher | 推理 | 女性 | 悬疑 | 探案 | 电影
$ m* ?/ ?9 Y8 d/ E# N( n, \! g1 l) {' k
简  介  
% ^' u% K/ }( m7 a+ ~) a) R6 f+ }$ |% H# R, H2 b8 X( k  \5 Q; K
  基于Kerry Greenwood所著同名畅销书,报告20年月私人侦察芙里妮·费雪在澳洲探案的履历。
4 _  [% r+ I" H9 _  b
  1. Video
    ! h9 }( n, B1 g% g( z( |
  2. ID                                       : 1
    6 o! w: `/ _3 t$ f) s( o6 S7 R
  3. Format                                   : AVC
    ( e. `, e( M. ]* z5 m
  4. Format/Info                              : Advanced Video Codec: X  w# Y9 }4 H
  5. Format profile                           : High@L4
    9 Q, e4 C; ^' X! e8 i, w
  6. Format settings                          : CABAC / 8 Ref Frames
    % ?. m% P' M' S5 D! X2 L3 m" {; ]
  7. Format settings, CABAC                   : Yes
    , H# l) N5 f& S( ?+ l
  8. Format settings, Reference frames        : 8 frames, F: U) x, }9 A+ U. c  J
  9. Codec ID                                 : V_MPEG4/ISO/AVC
    / s' `$ U1 q) S. g: ^
  10. Duration                                 : 1 h 41 min' c3 C* p: Y$ e" [" T, h8 o9 n& [
  11. Bit rate                                 : 2 666 kb/s5 C. h0 y) O$ h7 b# d" G
  12. Width                                    : 1 280 pixels  R& r- W2 Q' @  {6 E
  13. Height                                   : 640 pixels
    . M/ }- ?7 X4 {7 g" {6 L: E2 y' Y
  14. Display aspect ratio                     : 2.000, h+ p/ h4 M& y2 [+ h
  15. Frame rate mode                          : Constant
    1 n; J+ ^6 i% i. r: o, B5 v
  16. Frame rate                               : 24.000 FPS- c6 V  W, O& J8 |$ w$ ~& c* k
  17. Color space                              : YUV8 W( o5 q4 u1 B: `8 H
  18. Chroma subsampling                       : 4:2:0- N5 W! T7 Y7 ~  M, a. {) A: O
  19. Bit depth                                : 8 bits" |2 P; w- z& ]2 N* @' C9 U
  20. Scan type                                : Progressive8 C) W/ w# L3 P, r. [9 B2 Q
  21. Bits/(Pixel*Frame)                       : 0.136- j% E1 a, H: r3 v( v
  22. Stream size                              : 1.88 GiB (81%)5 D( c+ g5 F5 J: A
  23. Writing library                          : x264 core 157 r2969 d4099dd* c9 n9 P( I7 t$ B' q' a
  24. Encoding settings                        : cabac=1 / ref=8 / deblock=1:-3:-3 / analyse=0x3:0x133 / me=umh / subme=9 / psy=1 / psy_rd=1.00:0.00 / mixed_ref=1 / me_range=16 / chroma_me=1 / trellis=2 / 8x8dct=1 / cqm=0 / deadzone=21,11 / fast_pskip=1 / chroma_qp_offset=-2 / threads=12 / lookahead_threads=1 / sliced_threads=0 / nr=0 / decimate=1 / interlaced=0 / bluray_compat=0 / constrained_intra=0 / bframes=3 / b_pyramid=2 / b_adapt=2 / b_bias=0 / direct=3 / weightb=1 / open_gop=0 / weightp=2 / keyint=250 / keyint_min=24 / scenecut=40 / intra_refresh=0 / rc_lookahead=60 / rc=crf / mbtree=1 / crf=16.0 / qcomp=0.60 / qpmin=0 / qpmax=69 / qpstep=4 / ip_ratio=1.40 / aq=1:0.700 s; H3 @9 h2 h- w
  25. Language                                 : English8 d8 C1 v0 c  m+ @: c0 [% U, }
  26. Default                                  : Yes
    % [. X4 w+ N3 P' W
  27. Forced                                   : No4 C. S% o  Z) ^2 ~+ k' z3 |+ @
  28. + Y) A: E1 [# k4 V/ O
  29. Audio
    / z$ U( R) w4 K! a
  30. ID                                       : 2
      B- ]7 Q3 m% ?: q& h  H
  31. Format                                   : AC-3; N! Q4 U# m& t2 d: J4 P* g
  32. Format/Info                              : Audio Coding 3
      K# Z  V6 @5 ^2 [' }' J: G
  33. Commercial name                          : Dolby Digital
    ! I9 Q9 ], A( }1 a) M. n' H
  34. Codec ID                                 : A_AC32 W6 D9 x" @8 I: F; X
  35. Duration                                 : 1 h 41 min
    4 Y8 Q8 j3 ^( C# l
  36. Bit rate mode                            : Constant' k  S7 y/ r6 \8 I) s7 I
  37. Bit rate                                 : 640 kb/s$ y! i% t# z* f+ O/ z( n3 J5 |
  38. Channel(s)                               : 6 channels
    3 ~1 d- N9 r& [5 r- U8 O
  39. Channel layout                           : L R C LFE Ls Rs
    ' z( Q# I% e6 c/ x. ~7 [; f
  40. Sampling rate                            : 48.0 kHz9 M. Q% P6 F9 X" G  S2 f/ S
  41. Frame rate                               : 31.250 FPS (1536 SPF): r4 f+ I7 @+ m7 y+ M
  42. Bit depth                                : 16 bits0 D$ a$ z$ X  L9 }, }- R# I
  43. Compression mode                         : Lossy, s; W$ P2 B' S" q! W* e+ n
  44. Stream size                              : 463 MiB (19%)5 {+ A/ d: G8 M. H% A) t# Y
  45. Service kind                             : Complete Main3 e/ }. W, c# @& R, y% i
  46. Default                                  : Yes5 h3 Q0 j" k2 v* U) M
  47. Forced                                   : No
复制代码

7 D! A7 B1 X" h* k! a" o 费雪蜜斯和泪之穴 Miss.Fisher.And.The.Crypt.Of.Tears.2020.720p.BluRay.x264-PFa 2.34GB-2.png 2 f/ @" c4 F: J4 V. l

% o' F3 q3 d: L, {
& E4 c  Q) O2 g5 }. A3 H& s5 W* _- }3 V  B! J

' s4 ?# E. ^6 ~8 v. }; {# H: ]& O/ h0 {1 n

7 p6 a* d: X: C8 ]0 s" G  h) b
回复

使用道具 举报

级别:荣升主角 Lv.5

注册时间
2019-4-11
最后登录
2020-5-28
听众
14
收听
0
主题
0
蓝光币
273 枚
贡献
0 点
发表于 3 天前 | 显示全部楼层
) O7 s5 h* |& F5 m5 q
楼主太厉害了!楼主,电影应该很好看我觉得中国高清电影网真是个好地方!
回复

使用道具 举报

懒得打字嘛,点击右侧快捷回复 【右侧内容,后台自定义】
您需要登录后才可以回帖 登录 | 立即注册

本版积分规则

Archiver|手机版|小黑屋| 中国高清网 ( ICP备17007870号-2 ) |网站地图 

GMT+8, 2020-5-28 20:01 , Processed in 0.147711 second(s), 39 queries .

Powered by HDchina X3.4

Copyright 2017-2019©HDchina.All right reserved

返回顶部 联系我们