查看: 52|回复: 0

[恐怖片] 灵偶契约2 Brahms.The.Boy.II.2020.720p.BluRay.x264-GECKOS 3.19GB

[复制链接]

 成长值: 5460

级别:资源管理组

注册时间
2017-10-20
最后登录
2020-5-28
听众
1
收听
0
主题
96235
蓝光币
152168 枚
贡献
20613 点
发表于 7 天前 | 显示全部楼层 |阅读模式
灵偶契约2 Brahms.The.Boy.II.2020.720p.BluRay.x264-GECKOS 3.19GB-1.png 7 b/ s8 y3 h3 U5 [" }) I
+ `# K1 r: @# d9 t% ^
译  名 灵偶契约2 / The Boy 2
' `3 l8 }6 z% S% s片  名 Brahms: The Boy II
! g* X8 O/ O0 o8 d  T: v; a* E年  代 2020
  _' j: n. z! [" A5 q) h$ i产  地 美国
! O1 c* H. z* ?, P7 u类  别 悬疑 / 惊悚 / 可骇  ]/ a* X4 D: I! C4 \* i
语  言 英语
# }/ t% q8 i9 @* N5 E上映日期 2020-02-21(美国)
. ^) T0 Y; M4 X2 V" Y7 }IMDb评分  4.5/10 from 5878 users! Z. E" ]' a; F" n5 `
IMDb链接  https://www.imdb.com/title/tt91734187 R8 X5 L& m7 [/ u. \
豆瓣评分 4.9/10 from 866 users
' Z' L; S2 N) g0 S/ E8 z$ M8 [豆瓣链接 https://movie.douban.com/subject/30359790/
! E+ W2 r3 J. I4 ?/ w片  长 86分钟2 J. v1 Y0 g0 I+ u
导  演 威廉·布伦特·贝尔 William Brent Bell, r9 Z* I7 v7 x+ n# |
编  剧 史黛西·马妮尔 Stacey Menear0 c0 p" @4 Y$ l6 x. t
主  演 凯蒂·霍尔姆斯 Katie Holmes) Z' D4 y: y8 E/ I1 B8 o
       欧文·约曼 Owain Yeoman1 w. Q# }4 y; x: S7 w
       克里斯托弗·康夫瑞 Christopher Convery
* V# k/ j8 W  ?( c. C( S* f       拉尔夫·伊内森 Ralph Ineson
8 B- E- l4 p: ^4 c& k& `       安贾莉·杰 Anjali Jay  @7 {: x; f. o$ u
       奥利弗·莱斯 Oliver Rice% X& w3 F0 W1 X8 z- J+ F
       娜塔莉·穆恩 Natalie Moon
" o' o: j7 g" @  M6 ^3 m  Q( L       达芙妮·霍斯金斯 Daphne Hoskins
# U4 a; u# p9 X% A$ Q5 s       乔莉·柯林斯 Joely Collins. K( i- r; j, A. y6 i  K% a4 I
       艾莉·金 Ellie King/ ^/ q2 Z4 m8 t# }
       乔安妮·金 Joanne Kimm: J4 s0 E9 B# Z' X, G/ x2 ~5 N
       查尔斯·贾曼 Charles Jarman
" C* c; l) o6 f" V5 x0 O
9 I! Y' l+ K* K, ]( N$ Q& c0 o& L
1 i3 `( }+ q% V, O3 N, r标  签 可骇 | 惊悚 | 灵异 | 美国 | 2020 | 悬疑 | 电影 | 悬疑惊悚
1 s# o# q8 q4 N9 Q
& E2 W4 q( M* H8 t$ S简  介  
$ D" Y$ m# v0 ^2 i- b% r) n
" H8 ]7 D$ [* p! |( c  一位母亲发现儿子身上的“怪异”行为,因而百口搬到了一座别墅居住,但是儿子却和一小我形玩偶交上了“朋友”,母亲也逐步发现了人偶身上的邪恶奥秘……
( ?& x) u- y# x9 O3 q) R: X4 P
  1. Video
    ; u( H+ a  J3 P  D9 v9 @
  2. ID                                       : 1" I% j" b+ s% c4 [7 |3 m
  3. Format                                   : AVC
    6 e6 z  w& i4 w% Q1 o
  4. Format/Info                              : Advanced Video Codec8 l  H$ F2 L- U  m4 R/ c/ J3 t
  5. Format profile                           : High@L4" O- q3 B  v1 y7 y; ~7 K4 H8 N
  6. Format settings                          : CABAC / 12 Ref Frames
    / z& \. x$ [( J' j4 _" g
  7. Format settings, CABAC                   : Yes
    / B; S2 O( p' T* Z4 z
  8. Format settings, Reference frames        : 12 frames' U# ?$ S; ]7 i- ^1 o
  9. Codec ID                                 : V_MPEG4/ISO/AVC
    6 q( @7 d+ Q. ^5 T
  10. Duration                                 : 1 h 27 min7 j) [( ^, H, u: V2 b2 a/ E+ G0 u+ V
  11. Bit rate                                 : 4 574 kb/s/ m: r  m9 y+ B7 e& ?4 d
  12. Width                                    : 1 280 pixels6 V, C$ y2 P  I3 y) C6 r
  13. Height                                   : 536 pixels9 H# J! p6 Z. x8 l3 V! @8 s+ `
  14. Display aspect ratio                     : 2.40:1) |! q* w+ ~& e$ d4 P
  15. Frame rate mode                          : Constant
    2 a' h9 \# k! |) }
  16. Frame rate                               : 23.976 (24000/1001/189150) FPS
    , E4 S; N% J5 {* N: O
  17. Color space                              : YUV! _/ b. d# k/ A$ r
  18. Chroma subsampling                       : 4:2:0' k$ b7 i, a* b. g
  19. Bit depth                                : 8 bits! s( K+ ~3 `6 O3 V& {) f
  20. Scan type                                : Progressive
    ; F% S) Z8 L1 C8 h5 |9 |0 }
  21. Bits/(Pixel*Frame)                       : 0.278
    ' ~) a$ p' p% J+ i8 U
  22. Stream size                              : 2.78 GiB (87%): M, S3 z! R3 R5 M3 x6 I
  23. Writing library                          : x264 core 160 r3000 33f9e14  k, T0 Z/ n. T- E1 U2 s5 Y; G  x
  24. Encoding settings                        : cabac=1 / ref=12 / deblock=1:-3:-3 / analyse=0x3:0x133 / me=umh / subme=10 / psy=1 / psy_rd=1.20:0.00 / mixed_ref=1 / me_range=24 / chroma_me=1 / trellis=2 / 8x8dct=1 / cqm=0 / deadzone=21,11 / fast_pskip=0 / chroma_qp_offset=-2 / threads=17 / lookahead_threads=2 / sliced_threads=0 / nr=0 / decimate=0 / interlaced=0 / bluray_compat=0 / constrained_intra=0 / bframes=8 / b_pyramid=2 / b_adapt=2 / b_bias=0 / direct=3 / weightb=1 / open_gop=0 / weightp=2 / keyint=250 / keyint_min=23 / scenecut=40 / intra_refresh=0 / rc=crf / mbtree=0 / crf=15.0 / qcomp=0.60 / qpmin=0 / qpmax=69 / qpstep=4 / ip_ratio=1.40 / pb_ratio=1.30 / aq=3:0.90
      |0 \$ O* B5 W- w" T3 {
  25. Default                                  : Yes$ g# ^, `+ S3 |( m3 L0 r
  26. Forced                                   : No
    1 I. E9 o3 f: w; k+ D  ]- ?' u; p
  27. Color range                              : Limited
    5 \7 Z& W* z& j$ V
  28. Matrix coefficients                      : BT.709+ ?, g! b# P& [8 V5 w4 |& o

  29. ' }8 g9 h1 Q8 ~& p3 |3 K- D5 A
  30. Audio
    1 }- }* o% ]/ Y0 a8 R
  31. ID                                       : 2% S2 j& A; d- l5 F* Q0 U
  32. Format                                   : AC-3
    9 |2 \+ y. l& C7 S3 V' u5 }2 n* y
  33. Format/Info                              : Audio Coding 3$ A" g, t- e7 \8 [% _7 V
  34. Commercial name                          : Dolby Digital# z4 \/ f' m+ C% |: ?# s
  35. Codec ID                                 : A_AC3
    ' G1 C  J& Z* L
  36. Duration                                 : 1 h 27 min
    " V6 x0 Z9 C9 N* l" K4 j
  37. Bit rate mode                            : Constant4 y8 b. N" _2 k
  38. Bit rate                                 : 640 kb/s' {+ `: K# M2 e" c- C$ f
  39. Channel(s)                               : 6 channels3 E5 Y+ B- F+ u2 I: f
  40. Channel layout                           : L R C LFE Ls Rs* N1 a0 H0 y; l6 O! ]4 v
  41. Sampling rate                            : 48.0 kHz7 V; X- t: ]4 ~& y  ^
  42. Frame rate                               : 31.250 FPS (1536 SPF)/ i* ~+ E7 l, T
  43. Bit depth                                : 16 bits
    7 X8 ]5 d) T2 x* i* p! O8 E5 H3 y* q
  44. Compression mode                         : Lossy9 k/ ?  c" d& H! h6 E5 U+ K. L+ }
  45. Stream size                              : 398 MiB (12%)/ X" W  t' z0 S  d/ A9 l/ B5 A
  46. Language                                 : English
    ! M' [9 W0 l9 L& ?) H
  47. Service kind                             : Complete Main
    % ]3 G# E7 z2 L1 n
  48. Default                                  : Yes) @, d' g$ J5 p2 K
  49. Forced                                   : No
    $ _+ H' |; T* O) f- T' S0 f

  50. ! U: X8 S& R1 B$ d8 Y
  51. Text #1
    8 O' `+ B+ A) h  }6 O/ s/ R
  52. ID                                       : 3
    # _4 g" H6 @& q7 ^( L! r( H/ a' T8 n' F
  53. Format                                   : PGS0 h8 @4 `3 L. B/ [6 g0 `  P: A9 X
  54. Muxing mode                              : zlib
    8 C4 V0 y0 v# ?* X& X( Y) k
  55. Codec ID                                 : S_HDMV/PGS4 m& E' ?+ j. x5 e" a/ K6 |) O
  56. Codec ID/Info                            : Picture based subtitle format used on BDs/HD-DVDs; I& Y" y6 F, E6 ^/ y
  57. Duration                                 : 1 h 18 min9 }: ]0 p0 l; j) t! q7 k
  58. Bit rate                                 : 31.6 kb/s
    9 e8 x+ l. a( I) j: u$ n
  59. Count of elements                        : 1875( ~! x2 n8 x9 v! A; ]% m% F
  60. Stream size                              : 17.8 MiB (1%)4 U6 W! H: p* @0 q+ B7 j6 D) @5 ~* A* f
  61. Language                                 : English
    / a3 p( |# i/ L) q# e; _4 x5 t* E0 v
  62. Default                                  : No
    ) p& f3 ^1 v8 w* b3 Z
  63. Forced                                   : No' v& k1 u( }9 O: @1 u: {6 K1 L

  64. 0 j9 r5 @' W- @8 y# R
  65. Text #2
    % [5 V: S1 E# W
  66. ID                                       : 4
    ; ~  _2 e; l' G& r- n1 T
  67. Format                                   : PGS) R! |+ |7 P  h3 \" J
  68. Muxing mode                              : zlib
    / _8 @  |" t, Q+ t& H
  69. Codec ID                                 : S_HDMV/PGS
    $ [- P" ]" d3 K% G: J
  70. Codec ID/Info                            : Picture based subtitle format used on BDs/HD-DVDs- T7 y0 h3 x. z7 N$ ~7 k
  71. Duration                                 : 1 h 25 min( R% p- ~/ @! u$ i
  72. Bit rate                                 : 26.7 kb/s
    9 f' G  q- r4 g9 n
  73. Count of elements                        : 18641 @% `- d' U& ^( J: r; D
  74. Stream size                              : 16.3 MiB (0%)
      {9 |. r  W+ y, D
  75. Language                                 : French6 T5 F5 d( c- N, ~
  76. Default                                  : No8 }2 |+ X8 c0 O+ |0 |
  77. Forced                                   : No$ I9 g5 k9 w7 H4 B( X9 f
  78. 0 R( ^/ P' `# C: f3 A7 R  c  y
  79. Text #3
    + c6 r6 s) f  C6 b5 L" c/ x6 y; h
  80. ID                                       : 5  G4 ~& {; M. `
  81. Format                                   : PGS
    & j; b% n+ m, H/ s' d* y3 z1 n
  82. Muxing mode                              : zlib
    6 L! _5 D3 w0 o) n7 g# T
  83. Codec ID                                 : S_HDMV/PGS+ U: x+ B2 z5 L9 W  g
  84. Codec ID/Info                            : Picture based subtitle format used on BDs/HD-DVDs
    8 J  j" f3 [% _9 |
  85. Duration                                 : 1 h 24 min
    1 A) e7 M9 ^2 p. O4 K+ Q0 N/ {1 K/ m. G
  86. Bit rate                                 : 24.9 kb/s! G: x9 {; a: Y  _
  87. Count of elements                        : 1804' M4 }$ P1 B( v4 H) u' N  x
  88. Stream size                              : 15.1 MiB (0%)  G3 d4 F4 Q, d) b3 \' D
  89. Language                                 : Spanish2 _9 L. K$ ]2 x) X1 ]# x
  90. Default                                  : No
    9 e0 a9 y0 x" r3 w8 T9 c- c& `
  91. Forced                                   : No% G. [; e/ k: P" Q) Z

  92. # l/ `6 n$ F+ e  I- H" N
  93. Menu
    # y. E6 u( U* V, C! i9 r
  94. 00:00:00.000                             : en:Chapter 018 @! k+ f8 k. x" G& E
  95. 00:04:12.711                             : en:Chapter 02* a  H8 ~2 F" ^
  96. 00:10:29.128                             : en:Chapter 03% N; m: ]4 S8 m7 G
  97. 00:15:08.991                             : en:Chapter 04
    - _/ p9 G- V8 j* ^
  98. 00:19:32.838                             : en:Chapter 05+ o: ^# g  A$ J% D, Y9 X
  99. 00:25:38.829                             : en:Chapter 06
    / H9 J1 [; X% Y" U. M3 w, `8 m
  100. 00:30:39.046                             : en:Chapter 07& S. U$ `+ Q7 O) \% w
  101. 00:34:11.174                             : en:Chapter 08
    9 u+ ^! ^4 f: O- i! @
  102. 00:39:19.232                             : en:Chapter 096 P& X3 y5 m3 f- T2 b$ n
  103. 00:43:00.286                             : en:Chapter 100 a; i6 _- s  |3 C$ D
  104. 00:46:27.660                             : en:Chapter 11
    ; Z$ j; d4 b- F' R% ]7 m3 n# N
  105. 00:48:33.828                             : en:Chapter 12
    + p' T8 t5 \$ k" D
  106. 00:54:01.405                             : en:Chapter 13
      \# I: Q) K, s+ n% C; n) h7 [
  107. 00:57:54.846                             : en:Chapter 14. a3 j, S1 n. p' J+ p
  108. 01:03:06.491                             : en:Chapter 15" i" a/ A" C* U1 n) Y" B
  109. 01:08:23.099                             : en:Chapter 16( |+ u5 ^* n, u( c. H  ^
  110. 01:11:29.785                             : en:Chapter 17
    8 `4 |6 [% L. ~5 U8 u8 q6 u
  111. 01:15:45.082                             : en:Chapter 18
    . U* k/ M4 R3 X
  112. 01:18:14.648                             : en:Chapter 19$ o/ {' K2 W' ~. i
  113. 01:20:21.442                             : en:Chapter 20
复制代码

& z3 @* n- }% r+ x$ w3 G; \ 灵偶契约2 Brahms.The.Boy.II.2020.720p.BluRay.x264-GECKOS 3.19GB-2.png
& J* x0 _: p5 \8 E7 v
- I* j- t+ Z" t3 d5 z4 b
& Q" L' X6 O) N- o
9 b9 w/ K/ A& a, @" L  I
0 W" F8 c2 S9 k7 S
$ a: [7 V. X7 v+ @+ L% q1 M, _  Y: S) C$ R" V) k9 F1 \. p+ X4 p
回复

使用道具 举报

懒得打字嘛,点击右侧快捷回复 【右侧内容,后台自定义】
您需要登录后才可以回帖 登录 | 立即注册

本版积分规则

Archiver|手机版|小黑屋| 中国高清网 ( ICP备17007870号-2 ) |网站地图 

GMT+8, 2020-5-28 20:26 , Processed in 0.162730 second(s), 39 queries .

Powered by HDchina X3.4

Copyright 2017-2019©HDchina.All right reserved

返回顶部 联系我们