查看: 28|回复: 0

[剧情片] 画舫璇宫/书房璇宫 Show.Boat.1936.720p.BluRay.x264-PSYCHD 8.09GB

[复制链接]

 成长值: 5460

级别:资源管理组

注册时间
2017-10-20
最后登录
2020-5-28
听众
1
收听
0
主题
96235
蓝光币
152168 枚
贡献
20613 点
发表于 7 天前 | 显示全部楼层 |阅读模式
画舫璇宫/书房璇宫 Show.Boat.1936.720p.BluRay.x264-PSYCHD 8.09GB-1.png
4 O# e- @. u. j; l( O! k1 B) z% `+ I6 d# F# d
译  名 画舫璇宫 / 书房璇宫7 ]1 }7 s3 ?/ N
片  名 Show Boat# e6 T! _! m; |8 I0 E, M* v4 n" B4 e
年  代 1936
. \, Q; H: \' X产  地 美国" Y& p" J) r) k8 M4 d( H3 ^  @
类  别 剧情 / 笑剧 / 恋爱 / 歌舞
' B2 ^- N. t  ~! X7 m语  言 英语
; p! z* G9 L# j- P: D; U9 G8 I上映日期 1936-05-14% d$ T" D  ?$ k5 ^/ u$ n7 \" J
IMDb评分  7.4/10 from 2755 users
/ t5 p# \" `/ @- f# {IMDb链接  https://www.imdb.com/title/tt0028249
; k, w5 v1 Q7 P3 n% U. C, }豆瓣评分 0/10 from 0 users
3 q/ J$ Z  C9 V0 F6 M. _6 ~豆瓣链接 https://movie.douban.com/subject/1300516/
% {$ l+ {. h, y3 |& f1 P片  长 113 分钟* F" q( n& [8 G' ?
导  演 詹姆斯·惠尔 James Whale# v$ O6 p3 t) [% q3 {4 O$ _% J
编  剧 Edna Ferber / 奥斯卡 汉默斯坦 II (Oscar Hammerstein II)) p) d8 r% K. _7 k7 P& Q* c' w5 z) l5 {
主  演 艾琳·邓恩 Irene Dunne* a2 t2 p+ y- \* k
8 O5 G9 \# u) T) }2 s
; S) E, \7 n& J" P- q$ [
标  签 美国电影 | 美国 | 恋爱 | 音乐剧 | James_Whale | 歌舞 | US | 李欧梵" o. H; d% ~/ n* H, y5 H- }

% Y* s7 {+ C2 c' g5 w6 K/ g: h简  介  
+ l* L- P7 p: C3 k
9 ?7 a4 t2 I0 _) Q* U  暂无相关剧情先容
$ \0 Q" M  L" [. g+ n7 W( d' r' |% ]  E# k, u( _' V5 P+ j
获奖情况  1 Z6 g& M% z# Q( z* S

  h2 H* Q0 T2 u. r. D/ l  第4届威尼斯电影节(1936)" {* J+ Y: q+ G5 J- U
  墨索里尼杯 最好国际电影(提名) 詹姆斯·惠尔; H9 U4 j. x4 j6 `
  1. Video# O, m$ d9 v1 g
  2. ID                                       : 1
    * A( ~- y8 w8 H* T1 u
  3. Format                                   : AVC( Q5 X, U5 [" X0 a+ z
  4. Format/Info                              : Advanced Video Codec6 C5 T3 ?9 m/ x1 e+ o/ _4 [
  5. Format profile                           : High@L4
    , [4 {$ L5 S- D" ^; B1 B/ z
  6. Format settings                          : CABAC / 8 Ref Frames' d% [7 [9 I6 n" J* W$ j
  7. Format settings, CABAC                   : Yes
    ' T$ e" J3 O9 J! U
  8. Format settings, Reference frames        : 8 frames
    , H, \0 `3 g! L3 g% g
  9. Codec ID                                 : V_MPEG4/ISO/AVC! z! J# g/ k0 y* V' @, |7 h. V
  10. Duration                                 : 1 h 53 min
      E) N/ g6 F- g$ h: V4 z4 z
  11. Bit rate                                 : 9 493 kb/s
    0 N% c  P. h" u+ B
  12. Width                                    : 986 pixels
    , g* y9 R4 A5 z! b3 F& B1 E
  13. Height                                   : 720 pixels6 W5 Q! b) i. y( \- W) q) `" q0 C. s
  14. Display aspect ratio                     : 4:3
    ! W, k! E9 ^5 z5 k4 h1 j# g
  15. Frame rate mode                          : Constant8 h0 g( m4 c6 b$ H" T
  16. Frame rate                               : 23.976 (24000/1001/189150) FPS+ v7 K" F# v9 y* C
  17. Color space                              : YUV* o; k8 @' `( p
  18. Chroma subsampling                       : 4:2:0
    8 i+ d8 X+ L0 d- }- X: q* ~
  19. Bit depth                                : 8 bits% [0 g: P" N8 p, w
  20. Scan type                                : Progressive
    8 m- o. X4 {, z7 d; E( N
  21. Bits/(Pixel*Frame)                       : 0.558
    & B9 \+ e% r9 t3 M. g
  22. Stream size                              : 7.55 GiB (93%)* Q2 s+ n. M  X1 B
  23. Writing library                          : x264 core 160 r3000 33f9e14
    - h5 t$ l$ J+ b# I7 g8 M
  24. Encoding settings                        : cabac=1 / ref=8 / deblock=1:-3:-3 / analyse=0x3:0x133 / me=umh / subme=9 / psy=1 / psy_rd=1.15:0.00 / mixed_ref=1 / me_range=24 / chroma_me=1 / trellis=2 / 8x8dct=1 / cqm=0 / deadzone=21,11 / fast_pskip=0 / chroma_qp_offset=-2 / threads=22 / lookahead_threads=1 / sliced_threads=0 / nr=0 / decimate=0 / interlaced=0 / bluray_compat=0 / constrained_intra=0 / bframes=3 / b_pyramid=2 / b_adapt=2 / b_bias=0 / direct=3 / weightb=1 / open_gop=0 / weightp=2 / keyint=250 / keyint_min=23 / scenecut=40 / intra_refresh=0 / rc=crf / mbtree=0 / crf=20.9 / qcomp=0.60 / qpmin=0 / qpmax=69 / qpstep=4 / ip_ratio=1.40 / pb_ratio=1.30 / aq=3:0.65
    3 ^3 c& y* v3 j, i/ v1 n. U) ^
  25. Default                                  : Yes7 t+ ~* b+ ]* d% h. |0 A
  26. Forced                                   : No
      I4 @: B* U( z) D- O$ L- d
  27. Color range                              : Limited. }0 F% {8 \0 T0 T% M
  28. Matrix coefficients                      : BT.709
    ) Z0 f# r5 {; i8 D

  29. # w. e3 h. T9 p* q
  30. Audio #18 A( r9 z1 S+ V8 G* a: x
  31. ID                                       : 2" |& m% n- u$ f2 v! ]# T
  32. Format                                   : FLAC! d' i5 u4 r% F+ f7 i2 e5 M; a
  33. Format/Info                              : Free Lossless Audio Codec9 m% j% A3 @  k7 }2 F
  34. Codec ID                                 : A_FLAC, c4 _/ h: |8 ~* n$ \3 S" I# h+ n
  35. Duration                                 : 1 h 53 min
    4 B6 [! @, f( B$ T! G, z0 `* n
  36. Bit rate mode                            : Variable$ D. s4 U6 b8 Z! J6 |3 u/ J
  37. Bit rate                                 : 587 kb/s- u# N2 `$ ^& Q! R. f' C
  38. Channel(s)                               : 1 channel
    ) U1 O; R  W, G; w) _) t
  39. Channel layout                           : C
    ) j' x1 {9 L9 n+ c% O
  40. Sampling rate                            : 48.0 kHz
    ( j0 x' A2 T# Y9 R+ F, B  G
  41. Frame rate                               : 11.719 FPS (4096 SPF)
    * e$ Z/ D& l0 F# w. x* s( y8 N( ]
  42. Bit depth                                : 24 bits4 M% a% C5 ^* g' V& y' C3 h$ V1 s
  43. Compression mode                         : Lossless
    ; p% ^( T- A: l0 ]3 @
  44. Stream size                              : 479 MiB (6%)
    , P* B9 @* o  F( t
  45. Title                                    : Flac 1.0
    . _, k. _6 t$ G, e" R* h# w
  46. Writing library                          : libFLAC 1.2.1 (UTC 2007-09-17)4 r$ W, K3 i  u2 \; `
  47. Language                                 : English
    6 o: d% z8 O* e. ]
  48. Default                                  : Yes
    7 z  x6 @1 L; l+ {& X: [& W. }0 L
  49. Forced                                   : No  C0 y! A& }) x2 [* f; B, n1 w

  50. : i# e- K, z0 c) B) M
  51. Audio #20 R: f0 Q( Y: h4 U% q3 k
  52. ID                                       : 6: E, N: M  z3 v2 ~$ X+ _
  53. Format                                   : AAC LC
    ( }+ M9 a$ r( Y+ L7 [
  54. Format/Info                              : Advanced Audio Codec Low Complexity5 p) w$ E$ E+ T0 T) l9 ]
  55. Codec ID                                 : A_AAC-2
    . [& }' ~6 ]% W( l/ z) L3 c
  56. Duration                                 : 1 h 53 min
    6 L1 ?  r9 I; P+ t! O- Y9 \
  57. Bit rate                                 : 76.3 kb/s/ Q' m3 j" A8 r( s6 T, K3 |- X
  58. Channel(s)                               : 1 channel
    9 ]8 i& S# C- ^1 ^( b
  59. Channel layout                           : C( f2 N+ h! n: Z! R; P4 T  M- m
  60. Sampling rate                            : 48.0 kHz
    / n: M, `4 E% F* b5 }2 J, g  N
  61. Frame rate                               : 46.875 FPS (1024 SPF)
    * @0 J# G0 {* U, U) c5 [
  62. Compression mode                         : Lossy' S& I; h- {( X# X% J
  63. Delay relative to video                  : 9 ms0 P& j! }6 i$ W
  64. Stream size                              : 62.2 MiB (1%)
    4 e4 w" v* @) N7 |$ z( X
  65. Title                                    : Commentary featuring American-musical historian Miles Kreuger( w  S0 H8 I( \$ O7 k
  66. Language                                 : English
    ! Z$ g- G5 s& R* h  ?2 s
  67. Default                                  : No
    2 `# b, q7 x  A( i- C& ~* i# _
  68. Forced                                   : No& g) d9 n) {$ m9 P$ b

  69. 0 h& t; D! N. v7 f' v3 o, w
  70. Text #1
    9 `& v% r$ i' H: s8 v
  71. ID                                       : 3: @/ N* P! e; w8 h" m/ I& b2 O
  72. Format                                   : UTF-8& N) c# h; U6 a$ J$ a1 }
  73. Codec ID                                 : S_TEXT/UTF8
    - @) t/ u& @. U
  74. Codec ID/Info                            : UTF-8 Plain Text: w) P0 P8 |0 v2 d
  75. Duration                                 : 1 h 51 min8 A, a3 v- L" E0 L1 b! V
  76. Bit rate                                 : 81 b/s
    0 F5 }4 L8 C3 }' M, m( ?
  77. Count of elements                        : 1840
    5 M9 k8 w# w/ k
  78. Stream size                              : 66.7 KiB (0%)8 ]! y/ n* a; L% d3 k. L: v
  79. Title                                    : Stripped SRT
    , f5 A2 X) E" T# F0 ~
  80. Language                                 : English
    8 A# O- _6 W! Y
  81. Default                                  : No& L" {1 }& l& d2 g
  82. Forced                                   : No
    # A3 G6 R) G5 y2 y
  83. / x* i. a* @/ y1 X
  84. Text #2$ i" [. K5 g8 ?  |
  85. ID                                       : 4, U; U6 W8 j. G% @3 n
  86. Format                                   : UTF-80 D( B. V. d+ Z2 P- Z; j8 l
  87. Codec ID                                 : S_TEXT/UTF8
    . j% c1 g& M* x9 }; e
  88. Codec ID/Info                            : UTF-8 Plain Text/ }( Z% e# [8 V' Z* k
  89. Duration                                 : 1 h 52 min
    3 g9 J0 X0 U/ N, P$ t
  90. Bit rate                                 : 84 b/s
    / A* z- R; I0 s/ E) _* E
  91. Count of elements                        : 19478 o1 J" ^. r) g% ~9 s
  92. Stream size                              : 69.5 KiB (0%)
    , M4 u  b% [0 ]/ p2 `
  93. Title                                    : SDH SRT1 F3 m" ^6 ~  y# b7 u$ w4 h# C  S
  94. Language                                 : English6 J2 I- P. O, P# l
  95. Default                                  : No  Q' I( d3 k, h/ U& _8 y
  96. Forced                                   : No- \4 z/ c6 ]' j8 G. X

  97. , |1 k; f3 \6 x9 `+ _. e4 [3 h& w
  98. Text #3
    . U; h8 @6 v" U% A- H, P
  99. ID                                       : 50 S0 [4 A; O, f# j6 L6 Z
  100. Format                                   : PGS4 J, R) p* X, K3 _; u! W: Y
  101. Muxing mode                              : zlib
    7 ?- d8 K. a9 ?7 C$ |2 O* r
  102. Codec ID                                 : S_HDMV/PGS
    % u# p' Y1 V" k6 r1 Q$ z) j2 j
  103. Codec ID/Info                            : Picture based subtitle format used on BDs/HD-DVDs1 B0 C$ N* c0 u: b2 ~" p( |4 {2 Q
  104. Duration                                 : 1 h 52 min
    , `# u& T( c+ y; k3 J* _3 O% H$ d' S
  105. Bit rate                                 : 66.7 kb/s
    ( g. N/ E8 z0 X' J; U
  106. Count of elements                        : 3895
    5 F7 Y: i4 g- @0 I& m: y" z. S
  107. Stream size                              : 53.8 MiB (1%): q6 Y/ O2 p4 ^5 L) g4 Q. N3 I" w8 x
  108. Title                                    : English SDH
    ) x8 C+ T1 _: c# W1 Y. b4 c
  109. Language                                 : English7 f5 I1 M' B3 g" y: o6 x
  110. Default                                  : No8 J' u) {' e3 ~6 v4 P1 g: x
  111. Forced                                   : No6 C, b  p, s7 L  e# e  d$ e0 L# p* N
  112. - y# j% M& k, |4 X, ^" t3 E$ R) A) e
  113. Menu
    2 z1 Q% _$ ]" Z/ v
  114. 00:00:00.000                             : en:Chapter 016 `: V5 `2 \! K1 h1 Y9 W$ K
  115. 00:08:53.616                             : en:Chapter 02$ F# x+ p7 M  D. o+ ~- ]  P. l" f. y
  116. 00:10:43.935                             : en:Chapter 03" Q0 e  l' o$ b; t+ Z
  117. 00:15:17.416                             : en:Chapter 04
    ) d* Y- M4 A. x; ?7 ~- [
  118. 00:19:51.065                             : en:Chapter 056 T$ H4 |9 V) ^' \& ^
  119. 00:24:59.790                             : en:Chapter 06- t' C: T* g! n: u) B
  120. 00:36:08.917                             : en:Chapter 07
    ; K  r' r( h3 C$ n. W- m1 V" {
  121. 00:38:46.533                             : en:Chapter 088 C& E, T# n! I. w+ ~# U7 f; N
  122. 00:45:49.038                             : en:Chapter 09
    2 V) B* ^: [+ H, c9 l# e% H
  123. 00:56:43.567                             : en:Chapter 104 i( n* S% i& b+ x: L! k
  124. 00:59:45.749                             : en:Chapter 11- Z+ ~: H, }6 |5 s6 F3 t
  125. 01:02:50.475                             : en:Chapter 12
    " Y6 ~! I" ?, `2 l
  126. 01:05:10.740                             : en:Chapter 13+ r' B. L/ \2 \6 v
  127. 01:08:47.790                             : en:Chapter 14
    : i, T3 F) a9 J5 q9 \5 Y, r. U
  128. 01:13:26.444                             : en:Chapter 153 t- N2 I0 Y6 J8 K
  129. 01:16:31.587                             : en:Chapter 16
    + y1 p  m. W" w. M
  130. 01:21:47.194                             : en:Chapter 17
    ) Q- T! @6 N/ J  z. s) Q$ z+ O
  131. 01:24:45.497                             : en:Chapter 189 {1 }/ U5 {3 b5 a* b5 u: X
  132. 01:30:05.734                             : en:Chapter 197 t- f" o9 J4 Z- ]5 x$ ~  N
  133. 01:34:25.869                             : en:Chapter 20
    ! _. x6 k# [* N3 k; q
  134. 01:36:44.924                             : en:Chapter 21
    # a6 C( s0 U& u4 n4 r, L7 V
  135. 01:39:18.161                             : en:Chapter 222 Z$ M4 G9 K4 z! k. A: ?
  136. 01:42:28.893                             : en:Chapter 23* l9 g7 h: }, g, {1 h# ]1 ?
  137. 01:46:37.766                             : en:Chapter 24- p* Z3 Z& t2 h: N6 b  G
  138. 01:51:16.044                             : en:Chapter 25
复制代码

8 e' t& I% K' \ 画舫璇宫/书房璇宫 Show.Boat.1936.720p.BluRay.x264-PSYCHD 8.09GB-2.png 9 J8 D6 V% W' T5 J. I
8 G8 T7 d4 @  k4 U

, a$ n: ~+ \" ?( B1 c: ?) q2 ?1 w
. n& M  h4 m  ]3 P4 b/ M
1 u- t: f: L7 w3 X" B8 f7 L; l- }
0 |! Y9 c! [3 a* a% h8 B. x1 N
9 j+ C: m6 V' t( U! ~
回复

使用道具 举报

懒得打字嘛,点击右侧快捷回复 【右侧内容,后台自定义】
您需要登录后才可以回帖 登录 | 立即注册

本版积分规则

Archiver|手机版|小黑屋| 中国高清网 ( ICP备17007870号-2 ) |网站地图 

GMT+8, 2020-5-28 20:17 , Processed in 0.170722 second(s), 39 queries .

Powered by HDchina X3.4

Copyright 2017-2019©HDchina.All right reserved

返回顶部 联系我们