查看: 44|回复: 1

[剧情片] 回归之路 The.Way.Back.2020.720p.BluRay.x264-DRONES 7.24GB

[复制链接]

 成长值: 5460

级别:资源管理组

注册时间
2017-10-20
最后登录
2020-5-28
听众
1
收听
0
主题
96235
蓝光币
152146 枚
贡献
20613 点
发表于 7 天前 | 显示全部楼层 |阅读模式
回归之路 The.Way.Back.2020.720p.BluRay.x264-DRONES 7.24GB-1.png 9 _, v2 L' V1 e
+ J* d7 F- g: o- U' b
译  名 回归之路 / The Has-Been / Torrance / 归来之路 / 归途 / 托兰斯教练7 S$ E0 Q# u4 S( J0 X% g$ L, T
片  名 The Way Back9 S; _" Q( p* k- j' F0 C! K; f. m
年  代 2020. N  {" ^7 j+ t9 k
产  地 美国
$ J6 v& C0 b/ G  v6 ^2 c类  别 剧情 / 活动+ i. K0 K. w' O3 y$ o5 O
语  言 英语
; r7 M9 c/ @) n" \2 Y上映日期 2020-03-06(美国)/ h2 }4 J& V4 H$ Z) X3 O/ r
IMDb评分  6.8/10 from 15194 users
0 i0 |( Q8 K7 zIMDb链接  https://www.imdb.com/title/tt8544498: E+ t% p2 M* q  l& `& n) R7 w
豆瓣评分 6.7/10 from 3137 users9 M! n5 G' _3 T  B  A# w% Y: I
豆瓣链接 https://movie.douban.com/subject/30345227/
0 X! [( J9 n+ f片  长 108分钟5 a. f" h+ {# \& g( V6 D
导  演 加文·欧康诺 Gavin O'Connor
2 S6 _, d! X" p1 E) X- P编  剧 布拉德·英格尔斯比 Brad Ingelsby / 加文·欧康诺 Gavin O'Connor
1 ?1 d+ W* n& {! C主  演 本·阿弗莱克 Ben Affleck
. E( Q7 H: B  I+ Q; {       詹妮娜·加万卡 Janina Gavankar4 y" c+ r8 q. M" F$ s/ E' O+ ]7 l0 _
       麦可拉·沃金丝 Michaela Watkins
6 d' b% e; x0 U: K! ^       瑞秋·卡帕尼 Rachael Carpani
" V0 M4 L8 u  W; y* q* e4 j; H( T       艾尔·马德里加尔 Al Madrigal
0 f+ h# m0 v, E, Q7 E9 ^" L- N       海耶斯·麦克阿瑟 Hayes MacArthur
% n/ Q/ }( I2 B+ w       阿夫拉姆·D·于斯特 Da'Vinchi
( `! N6 g- f) j8 F       泰勒·奥马利 Tyler O'Malley+ x1 @7 |4 i/ b: S5 O# \7 I4 M: j3 K( e6 }
       马修·格拉夫 Matthew Glave4 w" w# g' c% P( l$ F' [. t: j: C' w
       托德·斯塔什维克 Todd Stashwick8 U$ I; M- a4 g4 s
       玛琳娜·福特 Marlene Forte. I' |/ m1 E7 _( W7 y9 k
       英卡·基特 Inka Kyt?
$ \4 Y6 e9 h& f       格林·特鲁曼 Glynn Turman# I! A% s9 U2 }0 Q
       梅尔文·格雷格 Melvin Gregg
: [! m/ a, X8 X# d: K: R/ o( y       TK·卡特 T.K. Carter
5 F& C7 ^( d& G       卢卡斯·盖奇 Lukas Gage  q% F4 e6 {: f
       杰雷米·拉特福德 Jeremy Ratchford
0 K) M! b7 H- |5 j% ^       小索尔·韦雷斯 Sal Velez Jr.* f; d( M" z2 ~/ \& l0 P
       克里斯·布鲁诺 Chris Bruno
. P. o; [) f" d2 I  n. i- ~4 P       克里斯汀·霍恩 Christine Horn
/ ]& q) C9 \/ K2 C( h# @       布兰登·威尔逊 Brandon Wilson
! R1 A7 g9 N4 _* Q. d       艾德琳·冈野 Edelyn Okano2 T' o9 o* y, I# n" I; b1 Z
       尼科·戴维 Nico David
2 R4 t) c% ]2 C1 w+ }4 n% j# B       汤姆·阿齐迪肯 Tom Archdeacon
5 ]! |$ ?: V9 \: {1 o       杰·阿布多 Jay Abdo& s2 K3 {8 N, s) Q( s; u8 j
       查德·芒廷 Chad Mountain' B# {) f( g  C( ~
       谢伊·朗德特里 Shay Roundtree
7 B# S8 f- ]% h6 e       曼尼·斯特里茨 Manny Streetz3 L% F) @& q- q! D
       桑蒂尔·亚历克西斯·瓦奎兹 Shantiel Alexis Vazquez; `! H% M) a" l# z$ f5 i
       小阿曼多·杜邦 Armando DuBon Jr.5 t1 D3 l" t; U  G1 l5 k# N
       丹·格伦伯格 Dan Gruenberg
- k7 U. P: l, j9 I5 I       布莱恩·纳什 Bryan Nash
! G7 `+ t1 n# i, A3 i- S9 [0 z( b3 W4 l4 h* L2 j4 T

% ]6 g$ a2 h) f* e标  签 美国 | 篮球 | 剧情 | 活动 | 人生 | 体育 | 2020 | 本阿弗莱克
/ M, N' {: D3 n9 W, E3 W$ a1 K% B2 w; m
简  介  . r3 m8 N" `& `/ k

  \, n; T3 x6 q* j3 E$ ]# i  一个已经的篮球明星在与酒瘾作斗争时落空了妻子与家庭,为了可以找回自我挑选回到母校为一支高中篮球队做教练,同时也要继续避免自己再次被酒瘾控制。$ ?8 I; d! c/ x6 n
  1. Video* _6 ], ~% m* ~2 M1 w
  2. ID                                       : 1
    6 P% \% Q7 D8 A
  3. Format                                   : AVC
    6 I: O6 {; S  W( m
  4. Format/Info                              : Advanced Video Codec
    , L- Z1 h/ D0 e$ y
  5. Format profile                           : High@L45 u& ]& ~, @9 _/ m0 \7 c. |9 x
  6. Format settings                          : CABAC / 8 Ref Frames6 |  b0 s3 v5 y* o- i! y1 c% J
  7. Format settings, CABAC                   : Yes
    3 X7 d0 }' a9 s* q
  8. Format settings, Reference frames        : 8 frames: I& K: ~, J5 w* e$ P( |/ ]; z
  9. Codec ID                                 : V_MPEG4/ISO/AVC# @% d4 t. [  j. w, ~4 y
  10. Duration                                 : 1 h 48 min6 l  W, z0 R9 m6 d& d3 d
  11. Bit rate                                 : 8 876 kb/s6 \4 g! c1 ~: O; l7 a' ]' X- M" S1 \
  12. Width                                    : 1 280 pixels9 h* p" e9 H; C. n1 l: Z
  13. Height                                   : 536 pixels% Y& D( i. A' [
  14. Display aspect ratio                     : 2.40:1: V4 t3 X2 X. h! c' ?  k6 P! \) |
  15. Frame rate mode                          : Constant* ?' ]7 \' l2 i1 R0 Q! a4 O6 Q6 C" j
  16. Frame rate                               : 23.976 (24000/1001/189150) FPS
    : ]1 ], w) B- j9 c$ Y7 \( A
  17. Color space                              : YUV; g: j7 b  Y5 O, h
  18. Chroma subsampling                       : 4:2:00 m' X6 s) Z/ v2 x9 o9 J* A
  19. Bit depth                                : 8 bits
    * s5 a* W# W: U, f' R
  20. Scan type                                : Progressive
    $ J3 l% `. k1 d& Y1 [
  21. Bits/(Pixel*Frame)                       : 0.540. v3 p: [& {9 Q
  22. Stream size                              : 6.72 GiB (93%)
    + w+ p7 S. i0 @( p& c
  23. Writing library                          : x264 core 160 r3000 33f9e14( z& v! M0 E0 I- z+ t. E
  24. Encoding settings                        : cabac=1 / ref=8 / deblock=1:-3:-3 / analyse=0x3:0x133 / me=umh / subme=9 / psy=1 / psy_rd=1.20:0.00 / mixed_ref=1 / me_range=16 / chroma_me=1 / trellis=2 / 8x8dct=1 / cqm=0 / deadzone=21,11 / fast_pskip=0 / chroma_qp_offset=-2 / threads=17 / lookahead_threads=1 / sliced_threads=0 / nr=0 / decimate=0 / interlaced=0 / bluray_compat=0 / constrained_intra=0 / bframes=3 / b_pyramid=2 / b_adapt=2 / b_bias=0 / direct=3 / weightb=1 / open_gop=0 / weightp=2 / keyint=250 / keyint_min=23 / scenecut=40 / intra_refresh=0 / rc=crf / mbtree=0 / crf=18.0 / qcomp=0.60 / qpmin=0 / qpmax=69 / qpstep=4 / ip_ratio=1.40 / pb_ratio=1.30 / aq=3:0.90
    # O: o+ p5 s+ y  c8 E2 A/ R+ O
  25. Default                                  : Yes
    9 g/ ]0 C, T- k: p: T( W3 z
  26. Forced                                   : No
    , j% i# }1 w) z( I0 @, Y4 _6 U
  27. Color range                              : Limited9 |# D5 z: b9 n% V
  28. Matrix coefficients                      : BT.709: c1 A  U$ ?7 Z% ]0 C& W6 _
  29. " Y7 U" b, h1 K9 b5 O7 V
  30. Audio) w1 M8 n  \& m, _
  31. ID                                       : 2
    ; q' g& l" Z0 ]9 c% C$ D
  32. Format                                   : AC-3) x+ R# t( Z" G7 p- @% F! k
  33. Format/Info                              : Audio Coding 3
    3 z% N2 |9 }4 Z7 u/ S3 h5 a; F' K
  34. Commercial name                          : Dolby Digital& O/ G% R; n8 R+ l+ t% x0 {
  35. Codec ID                                 : A_AC3
    5 g& d0 v- N, E* l
  36. Duration                                 : 1 h 48 min
    / A4 |; R6 m& |3 K
  37. Bit rate mode                            : Constant
    1 O" t6 U! K. D/ N
  38. Bit rate                                 : 640 kb/s( R: E: m! U% G. ^& w, h
  39. Channel(s)                               : 6 channels# A8 ~7 b& j" P; X) T9 E  v0 q
  40. Channel layout                           : L R C LFE Ls Rs
    ! N. Q. h- L% ^( s
  41. Sampling rate                            : 48.0 kHz& C% n: B+ \  m; a2 |/ l5 J
  42. Frame rate                               : 31.250 FPS (1536 SPF)! d8 l1 r) z, {: Y
  43. Bit depth                                : 16 bits4 F; K, o2 i2 R( b
  44. Compression mode                         : Lossy0 V6 {; H2 v& V* i; J; k
  45. Stream size                              : 496 MiB (7%)4 v1 |) z- {5 _4 X% f3 `6 P( o3 r
  46. Language                                 : English' z$ z. H0 [- I
  47. Service kind                             : Complete Main
    ; E  H$ p' P: F4 X9 O; g
  48. Default                                  : Yes
    & O( @7 n. w" f# w' M
  49. Forced                                   : No' I8 l( ^/ x. I/ o" q

  50. ( C! e+ z3 R# J+ K5 ?
  51. Text #1* K) j3 [+ Y% H) _- ~: q9 P
  52. ID                                       : 3( ^2 U. r& B% E( Z* s5 V
  53. Format                                   : PGS
      M+ o3 y5 U. ~# X9 U& t+ `
  54. Muxing mode                              : zlib
    2 c; I: ]& n/ C
  55. Codec ID                                 : S_HDMV/PGS5 F0 a& o% X- q0 e
  56. Codec ID/Info                            : Picture based subtitle format used on BDs/HD-DVDs
    ! {  O& J& [# t' W  j3 q* T+ U1 l. k
  57. Duration                                 : 1 h 40 min# y, z7 n9 o. u" ~0 a( Q: ~
  58. Bit rate                                 : 48.5 kb/s
    8 u- o) s- z$ G7 J* ]* e4 S
  59. Count of elements                        : 34222 P, Q/ X5 I" w9 S( R: v/ H7 j8 T, A8 F3 {
  60. Stream size                              : 34.8 MiB (0%)6 o& |0 U: I8 L
  61. Language                                 : English7 Q* c' R) X* E' s5 e
  62. Default                                  : No
    5 ]3 @$ K* k, w6 l' Y8 W6 `! ^
  63. Forced                                   : No
    ) P. O) y/ K* f1 u

  64. 6 g! m6 R7 w0 U# @
  65. Text #2# H0 F% q: R6 r' [  e. u
  66. ID                                       : 4' ]) d' Y- N4 P) n8 X7 `
  67. Format                                   : PGS7 A2 \, E) K  g
  68. Muxing mode                              : zlib9 A. K- X: r4 V: v
  69. Codec ID                                 : S_HDMV/PGS
    % x( d2 M1 ]/ g1 u+ @
  70. Codec ID/Info                            : Picture based subtitle format used on BDs/HD-DVDs
    ' Z+ S8 b6 A9 H0 M  p( i. A7 P
  71. Duration                                 : 1 h 45 min; x4 b1 C* o% D
  72. Bit rate                                 : 36.6 kb/s; ~# p( F; B6 [% C8 b; B
  73. Count of elements                        : 30563 S  g7 @4 k' E8 T& a$ i
  74. Stream size                              : 27.6 MiB (0%)
    8 f3 b! ?5 ]' ~7 \
  75. Language                                 : French
    2 @" p& U1 e  d3 `
  76. Default                                  : No7 b# t0 q2 L$ v3 u
  77. Forced                                   : No8 X+ p1 M4 g3 b& m; t- H  p

  78. 3 @# d; r; g6 f, R( a7 {
  79. Text #34 t" p  f# t# _% q$ m
  80. ID                                       : 5- K: x: [! b& S# w
  81. Format                                   : PGS
    ( \: r6 q2 y. a! a* R
  82. Muxing mode                              : zlib
    , h! ?$ [% E" r8 ]8 u- b
  83. Codec ID                                 : S_HDMV/PGS' }# F! O5 @3 ]# k5 S+ W
  84. Codec ID/Info                            : Picture based subtitle format used on BDs/HD-DVDs
    ' A0 ?& I, o( j' n$ M: M7 E/ Q, {
  85. Duration                                 : 1 h 45 min
    ( e. v9 [4 O& j5 d) i
  86. Bit rate                                 : 32.3 kb/s
    # e. o  M$ }) i5 k. m# Z+ n
  87. Count of elements                        : 3022
    ' p% I% C: j' ]! M  F2 E
  88. Stream size                              : 24.3 MiB (0%)/ k, B0 l5 L, Q$ @
  89. Language                                 : Portuguese4 @1 g' O  d9 O
  90. Default                                  : No( k& a3 s; V! {8 H% v) Q
  91. Forced                                   : No% ]% T. M$ F$ v$ r4 r
  92. * }0 ~) m3 M1 z9 `# p8 O
  93. Text #4
    # Y. [9 L4 R7 Y0 Q" V
  94. ID                                       : 6
    ; b: G6 T: {+ a7 ~: F$ w" j
  95. Format                                   : PGS
    8 ?9 L! _" `2 |5 q# T. ?
  96. Muxing mode                              : zlib
    ' S6 |6 q9 h. ?" T
  97. Codec ID                                 : S_HDMV/PGS% ~7 ~6 P$ k+ p3 v! v1 W
  98. Codec ID/Info                            : Picture based subtitle format used on BDs/HD-DVDs
    6 `" [: T7 _6 @5 U7 ^; g
  99. Duration                                 : 1 h 45 min0 `, m  `3 b  k9 |+ z
  100. Bit rate                                 : 36.5 kb/s
    ; e; @9 f5 V$ ]. u6 Z9 b( P  H
  101. Count of elements                        : 3050
    : R- H4 f8 ]* G: W$ y
  102. Stream size                              : 27.5 MiB (0%)
    2 Y7 v% h% C" b6 q$ S
  103. Language                                 : Spanish" d% G$ s: ^$ o6 i/ X, m" _
  104. Default                                  : No
    ; U2 x. `5 ~# i/ X1 i; L9 `5 v
  105. Forced                                   : No
    $ h5 a; N- h6 _+ k

  106. 8 w/ F7 R  X- y! {& _1 w
  107. Menu+ W4 W( x. P! i$ Z  Y3 d2 J
  108. 00:00:00.000                             : en:Chapter 01
    - U  E* {+ q8 O( z# ]; D
  109. 00:09:40.371                             : en:Chapter 02- ]. u6 `0 V* }4 M' h
  110. 00:15:53.786                             : en:Chapter 03
    ) F( @4 K5 D% s3 S. ^0 n9 _
  111. 00:24:44.817                             : en:Chapter 043 H  |: g  }  P1 A1 c, Q% j. Q* t
  112. 00:31:35.102                             : en:Chapter 05
      }" Y. e+ S4 c
  113. 00:37:54.898                             : en:Chapter 068 o. ]4 W0 h  h8 M
  114. 00:45:01.073                             : en:Chapter 07+ i# O0 Z6 F9 X& E8 r* k( o
  115. 00:54:15.419                             : en:Chapter 08
    + R: j) R; j3 z, T, b6 c7 F
  116. 01:04:14.851                             : en:Chapter 09
    6 `% k6 }$ m/ m$ k9 G1 }
  117. 01:09:06.142                             : en:Chapter 10" I1 m3 C' Y( t5 Q; {
  118. 01:17:57.464                             : en:Chapter 11; Z2 {- l1 |5 H$ r+ D
  119. 01:27:57.189                             : en:Chapter 12
    / j) D& Y# v' e" B+ k
  120. 01:33:17.509                             : en:Chapter 13, H, J" A9 r: n- l2 }
  121. 01:42:39.403                             : en:Chapter 14
复制代码

( G5 t. k3 t6 `' s6 m 回归之路 The.Way.Back.2020.720p.BluRay.x264-DRONES 7.24GB-2.png
' M; w5 [1 }! G3 j: A( X
* f; z6 G: k9 H: b; X* d5 @# B/ p$ H# x( n: z# O: g1 T& \+ v( _" w

9 w* Y# k9 r5 L. L* f' n6 R( \3 y
$ B: Z6 q7 B7 [' _( X; k/ t+ r# x) L" [3 |" H

, Q" n8 b" S% O) N. [9 }5 ]
回复

使用道具 举报

 成长值: 2875

级别:尊贵的会员

注册时间
2019-12-4
最后登录
2020-5-27
听众
1
收听
0
主题
0
蓝光币
8 枚
贡献
0 点
发表于 7 天前 | 显示全部楼层
楼主发贴辛苦了,谢谢楼主分享!我觉得中国高清电影网是注册对了!
回复

使用道具 举报

懒得打字嘛,点击右侧快捷回复 【右侧内容,后台自定义】
您需要登录后才可以回帖 登录 | 立即注册

本版积分规则

Archiver|手机版|小黑屋| 中国高清网 ( ICP备17007870号-2 ) |网站地图 

GMT+8, 2020-5-28 19:54 , Processed in 0.175374 second(s), 39 queries .

Powered by HDchina X3.4

Copyright 2017-2019©HDchina.All right reserved

返回顶部 联系我们