查看: 19|回复: 0

[剧情片] 终站 Terminal.Station.1953.720p.BluRay.x264-RedBlade 5.13GB

[复制链接]

 成长值: 5460

级别:资源管理组

注册时间
2017-10-20
最后登录
2020-5-28
听众
1
收听
0
主题
96235
蓝光币
152148 枚
贡献
20613 点
发表于 7 天前 | 显示全部楼层 |阅读模式
终站 Terminal.Station.1953.720p.BluRay.x264-RedBlade 5.13GB-1.png / m" u5 A# Z/ f

: s0 N% g" l6 S) B: w1 Z0 J0 E. d译  名 终站 / Indiscretion of an American Wife / Terminal Station Indiscretion / 尽头站
* _8 i9 t4 D9 s0 b# W8 j: g3 ]5 ?+ K片  名 Stazione Termini
6 `2 @8 I2 |7 {  K0 `年  代 1953
: I( `5 l1 u# y" ~+ F% X4 E2 G产  地 意大利 / 美国: M1 B9 i! v  V$ a
类  别 剧情 / 恋爱8 `5 D) [0 @: L
语  言 英语 / 意大利语 / 法语3 f0 W7 E; |. l8 k
上映日期 1953-04-02& [& M, ^- Y# e. d8 @. E
IMDb评分  6.2/10 from 2336 users
: g, h; y" V( J- g# ~2 |IMDb链接  https://www.imdb.com/title/tt0046366+ T, V5 |' {0 Q
豆瓣评分 7.3/10 from 411 users
" h4 ?2 k# v4 r/ q9 P6 D豆瓣链接 https://movie.douban.com/subject/1298764/
" C* E( P& ?5 q3 r& K9 s片  长 90 分钟2 e4 i7 l* `$ e( T: p' u, l
导  演 Vittorio De Sica
$ {8 _7 X9 ?  e4 T' ^/ d% X4 B  E编  剧 Luigi Chiarini / Giorgio Prosperi
( J( [8 q5 E( ^主  演 Jennifer Jones# g; |% B1 h( X; N! L4 W- W
       Montgomery Clift; Q& s. p6 Q- D; |, z: ]/ ^
       Gino Cervi' z2 @+ }" O8 p1 i* x* ]
       Richard Beymer/ \. Z1 _, L2 [8 c5 \& ?; ?* g
; ]8 K9 a8 F' o* V* z
8 [4 B& p% Q/ D. ]0 C; g
标  签 意大利 | 德·西卡 | 恋爱 | VittorioDeSica | 意大利电影 | CC | 维托里奥·德·西卡 | Vittorio_De_Sica! m2 s3 Q" V# A* [* E# o( Q
9 E: k' M$ ~3 p+ p
简  介  , G' _( O! T; ~

8 r( c; E, E& r' S4 b  玛丽(珍妮弗·琼斯 Jennifer Jones 饰)在意大利度假时相逢了名为乔班尼(蒙哥马利·克利夫特 Montgomery Clift 饰)的男人,两人之间相互吸引,很快就走到了一路,相互陪伴度过了欢畅的两天。但是,欢畅的日子都是长久的,玛丽行将分开意大利前往巴黎,乔班尼劝说玛丽留下来,留在他的身旁,可是刚强的玛丽却去意已决,这让乔班尼很是的愤慨,他失手打了玛丽。% |4 J; [( Y3 O  F: n
  哀痛的玛丽预备搭上前往巴黎的火车,就在火车快要开动的时辰,乔班尼出现了,他掉臂危险穿越轨道来到玛丽的身旁,他的行为感动了玛丽,两人重建旧好。虽然错过了这一班火车,但下一班火车很快就来了,留给两人的时候越来越短了。
0 f* v# K2 ^5 Q6 W& C; j5 d/ g- X' }/ J" }8 j' E
获奖情况  9 }2 b3 W6 l+ F' \7 P
6 ^2 }* `) n& S4 t! q6 |+ _  e
  第27届奥斯卡金像奖(1955)7 t9 _' J! t5 Y  r
  黑白片最好打扮设想(提名) 克里斯汀·迪奥- Y6 d0 z, V+ B$ \( Q9 i$ s9 F) O
# T4 y" f5 W7 _4 `
  第6届戛纳电影节(1953)
0 `5 z9 y& c  D  主比赛单元 金棕榈奖(提名) 维托里奥·德西卡
. I: k+ n6 |: \+ I
  1. Video# m' `! J6 M$ a7 A3 r
  2. ID                                       : 1+ o, ?7 Z$ j1 k+ }0 |0 t& d
  3. Format                                   : AVC0 y& Z2 k& x% y8 v  `7 d: q
  4. Format/Info                              : Advanced Video Codec
    / V/ [0 ]6 I6 d+ C( P9 b0 D& m
  5. Format profile                           : High@L4
    9 o; }/ I5 k: B% Y) l
  6. Format settings                          : CABAC / 8 Ref Frames6 b" x; ]0 U+ t; w6 L5 d4 q8 o3 x
  7. Format settings, CABAC                   : Yes% |2 ?  e8 R. }7 P2 y* ~* l
  8. Format settings, Reference frames        : 8 frames2 [2 z  z' G8 P4 H# ]* g# l% i/ T
  9. Codec ID                                 : V_MPEG4/ISO/AVC' B7 s- V8 ?5 d9 W5 a. b2 C' a
  10. Duration                                 : 1 h 28 min8 r% s7 k: p* b% |
  11. Bit rate                                 : 7 226 kb/s# A6 s9 a8 i  E* l5 b
  12. Width                                    : 990 pixels
    ) X3 g& W' l$ Q7 T  `
  13. Height                                   : 720 pixels, v" _7 k" t6 s0 Y; g" [# ^6 i
  14. Display aspect ratio                     : 1.375- n# B5 K) Q6 R
  15. Frame rate mode                          : Constant
    : x3 d/ [+ a/ S
  16. Frame rate                               : 23.976 (24000/1001/189150) FPS
    ) d. H$ O6 x( [5 L
  17. Color space                              : YUV3 b8 M8 v! s7 X( p9 D/ d! b
  18. Chroma subsampling                       : 4:2:0
    2 j6 u7 |. o8 I
  19. Bit depth                                : 8 bits
    ; t4 ?0 u, C8 v% I% w
  20. Scan type                                : Progressive* [" c! p& P  L. m2 O( Z# x
  21. Bits/(Pixel*Frame)                       : 0.423
    & y) V' ]' G9 @, Q9 n
  22. Stream size                              : 4.48 GiB (87%)
    1 e7 _" p( {: m% u  \5 m
  23. Writing library                          : x264 core 160 r3000 33f9e14
    & ~9 e. A& r/ s7 B4 y# n( h0 }
  24. Encoding settings                        : cabac=1 / ref=8 / deblock=1:-3:-3 / analyse=0x3:0x133 / me=umh / subme=9 / psy=1 / psy_rd=1.00:0.00 / mixed_ref=1 / me_range=16 / chroma_me=1 / trellis=2 / 8x8dct=1 / cqm=0 / deadzone=21,11 / fast_pskip=0 / chroma_qp_offset=-2 / threads=12 / lookahead_threads=1 / sliced_threads=0 / nr=0 / decimate=0 / interlaced=0 / bluray_compat=0 / constrained_intra=0 / bframes=3 / b_pyramid=2 / b_adapt=2 / b_bias=0 / direct=3 / weightb=1 / open_gop=0 / weightp=2 / keyint=240 / keyint_min=23 / scenecut=40 / intra_refresh=0 / rc_lookahead=60 / rc=crf / mbtree=1 / crf=17.0 / qcomp=0.60 / qpmin=0 / qpmax=69 / qpstep=4 / ip_ratio=1.40 / aq=3:0.60
    4 I. D9 f& Q, _* c9 a2 K" y) B2 \
  25. Language                                 : English
    % B; S( q# H5 Z) T9 T' T( C% _' }$ Z- j
  26. Default                                  : Yes
    6 I+ K- i. a5 A  T# t
  27. Forced                                   : No
    , T4 p4 P; n5 c" Y

  28. 3 y/ v! s4 {* c
  29. Audio# q4 Q' J- q& m) S
  30. ID                                       : 2! i; v& l6 _1 O5 Q; @5 A7 i; t
  31. Format                                   : FLAC
    * t2 \5 \2 j7 n, J. T) k6 e
  32. Format/Info                              : Free Lossless Audio Codec% m- z0 x- k* o& |
  33. Codec ID                                 : A_FLAC' w( {, T" [/ K; `" B( d
  34. Duration                                 : 1 h 28 min3 Q# q, x6 w: R( s
  35. Bit rate mode                            : Variable7 N7 }9 a$ N- V- Z( _" R& @: g
  36. Bit rate                                 : 1 052 kb/s( _# P) ~, y" h# j0 f
  37. Channel(s)                               : 2 channels
      B- z! e9 e8 n; B9 |6 i
  38. Channel layout                           : L R  y8 b# N7 L* N/ p  I7 P3 q
  39. Sampling rate                            : 48.0 kHz/ z/ r+ N) {- s" b
  40. Frame rate                               : 11.719 FPS (4096 SPF)
    % g$ M. v) [% _& }) F1 b3 v4 W5 f
  41. Bit depth                                : 24 bits
    ! E0 _5 T( x. t
  42. Compression mode                         : Lossless
    2 c: Y: h/ E: H' Z+ v
  43. Stream size                              : 667 MiB (13%)2 X9 k7 w7 T! y/ z
  44. Writing library                          : libFLAC 1.3.1 (UTC 2014-11-25)
    ' x$ h, C6 T7 w% o# X, h8 z3 |/ k
  45. Language                                 : English
    + ]9 ]( p& z; O6 T3 |% \
  46. Default                                  : Yes
    ; ~- |1 s6 n1 k# }' v& O
  47. Forced                                   : No
    9 b, H/ a9 g6 c" Z! |. M5 o

  48.   B3 z/ s- P  J$ \9 o
  49. Text) ], C" p& ~9 O# d& H# @2 d
  50. ID                                       : 32 Y1 G5 q0 A% W8 D  q
  51. Format                                   : PGS) `4 _! L  @8 }0 v" \$ }
  52. Muxing mode                              : zlib1 z. g: K# Y  h: L
  53. Codec ID                                 : S_HDMV/PGS
    , f( o1 ^) I0 E, Q3 n& F7 n$ f9 A
  54. Codec ID/Info                            : Picture based subtitle format used on BDs/HD-DVDs
    7 ~- r1 L& P, l/ a5 X1 R
  55. Duration                                 : 1 h 22 min
    8 n, S' C/ t$ `5 ?8 k6 u
  56. Bit rate                                 : 7 596 b/s
    . P- ~- i' t5 L, {/ N" a
  57. Count of elements                        : 1342
    " x6 [$ a1 B  V* U7 {
  58. Stream size                              : 4.51 MiB (0%)
    , H$ b) o8 y; j
  59. Language                                 : English: W9 b9 l' G1 @* [
  60. Default                                  : No
    . ~' E' G$ B6 e6 H4 Z# L
  61. Forced                                   : No: u& v- Z3 J6 a+ }: n

  62. 2 n  R$ a- \' |% S$ v
  63. Menu
    ) G3 ?- R4 T8 R
  64. 00:00:00.000                             : en:00:00:00.000
    1 @8 L3 f2 I' \% j5 S* [8 R
  65. 00:11:26.352                             : en:00:11:26.352- Q8 @4 p4 R/ ^" R! ^+ q
  66. 00:21:13.189                             : en:00:21:13.189' f, {1 T1 g+ p9 l
  67. 00:31:27.427                             : en:00:31:27.427$ r9 Y% m' W# Y
  68. 00:43:30.691                             : en:00:43:30.691
    6 L( p7 R) `$ x- U
  69. 00:54:01.738                             : en:00:54:01.738' o7 ?" N' @4 f, m
  70. 01:04:33.203                             : en:01:04:33.2030 P3 t3 o! T4 G+ I5 L  M
  71. 01:19:22.174                             : en:01:19:22.174
复制代码
. q6 u$ m' h* C# Q; i; r8 O% n" A
终站 Terminal.Station.1953.720p.BluRay.x264-RedBlade 5.13GB-2.png # H9 `& }+ z' n  n, C0 ]0 p

7 z& O8 D, k' m# R% }
7 L+ m$ X% j" c$ V1 D5 [, K; U/ f9 d8 Q0 v" I- u4 m" v# F. R. v

+ d  M; E* ~/ X' O
0 `) o' ~2 R0 {* o! x4 ^
- b& ~; m5 ]0 f/ X) K
回复

使用道具 举报

懒得打字嘛,点击右侧快捷回复 【右侧内容,后台自定义】
您需要登录后才可以回帖 登录 | 立即注册

本版积分规则

Archiver|手机版|小黑屋| 中国高清网 ( ICP备17007870号-2 ) |网站地图 

GMT+8, 2020-5-28 19:56 , Processed in 0.161560 second(s), 39 queries .

Powered by HDchina X3.4

Copyright 2017-2019©HDchina.All right reserved

返回顶部 联系我们